<?xml version="1.0" standalone="no"?>
<!DOCTYPE svg PUBLIC "-//W3C//DTD SVG 1.1//EN" "http://www.w3.org/Graphics/SVG/1.1/DTD/svg11.dtd" >
<svg xmlns="http://www.w3.org/2000/svg" xmlns:xlink="http://www.w3.org/1999/xlink" version="1.1">
<metadata>
Created by FontForge 20170731 at Thu Jul 20 19:10:08 2017
 By Aleksey,,,
Copyright 2017 Google, Inc. All Rights Reserved.
</metadata>
<defs>
<font id="GoogleSansDisplay-Regular" horiz-adv-x="650" >
  <font-face 
    font-family="Google Sans Display"
    font-weight="400"
    font-stretch="normal"
    units-per-em="1000"
    panose-1="2 11 5 3 3 5 2 4 2 3"
    ascent="800"
    descent="-200"
    x-height="496"
    cap-height="716"
    bbox="-365 -253 3284 959"
    underline-thickness="84"
    underline-position="-244"
    unicode-range="U+0002-2792"
  />
<missing-glyph horiz-adv-x="581" 
d="M501 0h-422v716h422v-716zM441 57v602h-302v-602h302z" />
    <glyph glyph-name="f_b" unicode="fb" horiz-adv-x="960" 
d="M586 9.5q-46 25.5 -69 64.5h-4v-74h-80v643h-144q-37 0 -60.5 -22.5t-23.5 -64.5v-60h128v-77h-128v-419h-85v419h-93v77h93v62q0 74 47 118t122 44h228v-229l-4 -68h4q23 38 69 63.5t104 25.5q64 0 118 -34t86 -94.5t32 -135.5t-32 -135.5t-86 -94.5t-118 -34
q-58 0 -104 25.5zM759.5 84q37.5 23 60 65.5t22.5 98.5t-22.5 98.5t-60 65.5t-81.5 23t-82 -22.5t-60.5 -65t-22.5 -99.5t22.5 -99.5t60.5 -65t82 -22.5t81.5 23z" />
    <glyph glyph-name="f_f" unicode="ff" horiz-adv-x="683" 
d="M120 419h-93v77h93v69q0 48 21.5 84t58 55.5t81.5 19.5q25 0 40.5 -3t32.5 -9v-83q-32 16 -70 16q-33 0 -56 -23.5t-23 -65.5v-60h228v69q0 48 21.5 84t58 55.5t81.5 19.5q25 0 40.5 -3t32.5 -9v-83q-32 16 -70 16q-33 0 -56.5 -23.5t-23.5 -65.5v-60h129v-77h-129v-419
h-84v419h-228v-419h-85v419z" />
    <glyph glyph-name="f_f_b" unicode="ffb" horiz-adv-x="1273" 
d="M899 9.5q-46 25.5 -69 64.5h-4v-74h-80v643h-144q-38 0 -61.5 -22.5t-23.5 -64.5v-60h129v-77h-129v-419h-84v419h-228v-419h-85v419h-93v77h93v69q0 48 21.5 84t58 55.5t81.5 19.5q25 0 40.5 -3t32.5 -9v-83q-32 16 -70 16q-33 0 -56 -23.5t-23 -65.5v-60h228v62
q0 74 47 118t122 44h228v-229l-4 -68h4q23 38 69 63.5t104 25.5q64 0 118 -34t86 -94.5t32 -135.5t-32 -135.5t-86 -94.5t-118 -34q-58 0 -104 25.5zM1072 84q38 23 60.5 65.5t22.5 98.5t-22.5 98.5t-60.5 65.5t-82 23t-81.5 -22.5t-60 -65t-22.5 -99.5q0 -56 22.5 -99
t60 -65.5t81.5 -22.5t82 23z" />
    <glyph glyph-name="f_f_h" unicode="ffh" horiz-adv-x="1238" 
d="M120 419h-93v77h93v69q0 48 21.5 84t58 55.5t81.5 19.5q25 0 40.5 -3t32.5 -9v-83q-32 16 -70 16q-33 0 -56 -23.5t-23 -65.5v-60h228v62q0 74 47 118t122 44h228v-228l-4 -71h4q22 39 66.5 65t96.5 26q93 0 140 -54t47 -144v-314h-85v301q0 69 -33.5 101.5t-88.5 32.5
q-40 0 -73 -23.5t-51.5 -62t-18.5 -79.5v-270h-84v643h-144q-38 0 -61.5 -22.5t-23.5 -64.5v-60h129v-77h-129v-419h-84v419h-228v-419h-85v419z" />
    <glyph glyph-name="f_f_i" unicode="ffi" horiz-adv-x="900" 
d="M120 419h-93v77h93v69q0 48 21.5 84t58 55.5t81.5 19.5q25 0 40.5 -3t32.5 -9v-83q-32 16 -70 16q-33 0 -56 -23.5t-23 -65.5v-60h228v69q0 48 21.5 84t58 55.5t81.5 19.5q25 0 40.5 -3t32.5 -9v-83q-32 16 -70 16q-33 0 -56.5 -23.5t-23.5 -65.5v-60h313v-496h-84v419
h-229v-419h-84v419h-228v-419h-85v419zM745 616q-18 18 -18 43q0 26 18 43.5t43 17.5q26 0 43.5 -17.5t17.5 -43.5q0 -25 -17.5 -43t-43.5 -18q-25 0 -43 18z" />
    <glyph glyph-name="f_f_j" unicode="ffj" horiz-adv-x="900" 
d="M646 -220v81q22 -10 41 -10q31 0 45 19.5t14 57.5v491h-229v-419h-84v419h-228v-419h-85v419h-93v77h93v69q0 48 21.5 84t58 55.5t81.5 19.5q25 0 40.5 -3t32.5 -9v-83q-32 16 -70 16q-33 0 -56 -23.5t-23 -65.5v-60h228v69q0 48 21.5 84t58 55.5t81.5 19.5q25 0 40.5 -3
t32.5 -9v-83q-32 16 -70 16q-33 0 -56.5 -23.5t-23.5 -65.5v-60h313v-568q0 -77 -37 -115.5t-103 -38.5q-24 0 -44 6zM745 616q-18 18 -18 43q0 26 18 43.5t43 17.5q26 0 43.5 -17.5t17.5 -43.5q0 -25 -17.5 -43t-43.5 -18q-25 0 -43 18z" />
    <glyph glyph-name="f_f_k" unicode="ffk" horiz-adv-x="1178" 
d="M120 419h-93v77h93v69q0 48 21.5 84t58 55.5t81.5 19.5q25 0 40.5 -3t32.5 -9v-83q-32 16 -70 16q-33 0 -56 -23.5t-23 -65.5v-60h228v62q0 74 47 118t122 44h228v-454l228 230h108v-4l-193 -193l203 -295v-4h-102l-160 240l-84 -83v-157h-84v643h-144q-38 0 -61.5 -22.5
t-23.5 -64.5v-60h129v-77h-129v-419h-84v419h-228v-419h-85v419z" />
    <glyph glyph-name="f_f_l" unicode="ffl" horiz-adv-x="893" 
d="M120 419h-93v77h93v69q0 48 21.5 84t58 55.5t81.5 19.5q25 0 40.5 -3t32.5 -9v-83q-32 16 -70 16q-33 0 -56 -23.5t-23 -65.5v-60h228v62q0 74 47 118t122 44h228v-720h-84v643h-144q-38 0 -61.5 -22.5t-23.5 -64.5v-60h129v-77h-129v-419h-84v419h-228v-419h-85v419z
" />
    <glyph glyph-name="f_f_t" unicode="fft" horiz-adv-x="989" 
d="M829 2q-26 10 -44 27q-20 19 -29.5 44.5t-9.5 60.5v285h-229v-419h-84v419h-228v-419h-85v419h-93v77h93v69q0 48 21.5 84t58 55.5t81.5 19.5q25 0 40.5 -3t32.5 -9v-83q-32 16 -70 16q-33 0 -56 -23.5t-23 -65.5v-60h228v69q0 48 21.5 84t58 55.5t81.5 19.5
q25 0 40.5 -3t32.5 -9v-83q-32 16 -70 16q-33 0 -56.5 -23.5t-23.5 -65.5v-60h229v148h84v-148h122v-77h-122v-264q0 -42 17 -62q19 -22 52 -22q31 0 54 14v-82q-16 -6 -30.5 -8.5t-38.5 -2.5q-29 0 -55 10z" />
    <glyph glyph-name="f_h" unicode="fh" horiz-adv-x="925" 
d="M120 419h-93v77h93v62q0 74 47 118t122 44h228v-228l-4 -71h4q22 39 66.5 65t96.5 26q93 0 140 -54t47 -144v-314h-85v301q0 69 -33.5 101.5t-88.5 32.5q-40 0 -73 -23.5t-51.5 -62t-18.5 -79.5v-270h-84v643h-144q-37 0 -60.5 -22.5t-23.5 -64.5v-60h128v-77h-128v-419
h-85v419z" />
    <glyph glyph-name="f_i" unicode="fi" horiz-adv-x="587" 
d="M120 419h-93v77h93v69q0 48 21.5 84t58 55.5t81.5 19.5q25 0 40.5 -3t32.5 -9v-83q-32 16 -70 16q-33 0 -56 -23.5t-23 -65.5v-60h312v-496h-84v419h-228v-419h-85v419zM432 616q-18 18 -18 43q0 26 18 43.5t43 17.5q26 0 43.5 -17.5t17.5 -43.5q0 -25 -17.5 -43
t-43.5 -18q-25 0 -43 18z" />
    <glyph glyph-name="f_j" unicode="fj" horiz-adv-x="587" 
d="M333 -220v81q24 -10 41 -10q31 0 45 19.5t14 57.5v491h-228v-419h-85v419h-93v77h93v69q0 48 21.5 84t58 55.5t81.5 19.5q25 0 40.5 -3t32.5 -9v-83q-32 16 -70 16q-33 0 -56 -23.5t-23 -65.5v-60h312v-568q0 -77 -37 -115.5t-103 -38.5q-24 0 -44 6zM432 616
q-18 18 -18 43q0 26 18 43.5t43 17.5q26 0 43.5 -17.5t17.5 -43.5q0 -25 -17.5 -43t-43.5 -18q-25 0 -43 18z" />
    <glyph glyph-name="f_k" unicode="fk" horiz-adv-x="865" 
d="M120 419h-93v77h93v62q0 74 47 118t122 44h228v-454l228 230h108v-4l-192 -193l202 -295v-4h-102l-160 240l-84 -83v-157h-84v643h-144q-37 0 -60.5 -22.5t-23.5 -64.5v-60h128v-77h-128v-419h-85v419z" />
    <glyph glyph-name="f_l" unicode="fl" horiz-adv-x="580" 
d="M120 419h-93v77h93v62q0 74 47 118t122 44h228v-720h-84v643h-144q-37 0 -60.5 -22.5t-23.5 -64.5v-60h128v-77h-128v-419h-85v419z" />
    <glyph glyph-name="f_t" unicode="ft" horiz-adv-x="676" 
d="M516 2q-26 10 -43 27q-20 19 -30 44t-10 61v285h-228v-419h-85v419h-93v77h93v69q0 48 21.5 84t58 55.5t81.5 19.5q25 0 40.5 -3t32.5 -9v-83q-32 16 -70 16q-33 0 -56 -23.5t-23 -65.5v-60h228v148h84v-148h122v-77h-122v-264q0 -42 17 -62q19 -22 52 -22q31 0 54 14
v-82q-16 -6 -30.5 -8.5t-38.5 -2.5q-29 0 -55 10z" />
    <glyph glyph-name="r_f" unicode="rf" horiz-adv-x="745" 
d="M495 419h-93v77h93v69q0 48 21.5 84t58 55.5t81.5 19.5q25 0 40.5 -3t32.5 -9v-83q-32 16 -70 16q-33 0 -56 -23.5t-23 -65.5v-60h128v-77h-128v-419h-85v419zM62 496h81v-81h4q18 45 60 70t93 25q15 0 35 -2v-88q-19 4 -43 4q-64 0 -104.5 -42t-40.5 -107v-275h-85v496z
" />
    <glyph glyph-name="r_f_f" unicode="rff" horiz-adv-x="1046" 
d="M62 496h81v-81h4q18 45 60 70t93 25q15 0 35 -2v-88q-19 4 -43 4q-64 0 -104.5 -42t-40.5 -107v-275h-85v496zM483 419h-93v77h93v69q0 48 21.5 84t58 55.5t81.5 19.5q25 0 40.5 -3t32.5 -9v-83q-32 16 -70 16q-33 0 -56 -23.5t-23 -65.5v-60h228v69q0 48 21.5 84
t58 55.5t81.5 19.5q25 0 40.5 -3t32.5 -9v-83q-32 16 -70 16q-33 0 -56.5 -23.5t-23.5 -65.5v-60h129v-77h-129v-419h-84v419h-228v-419h-85v419z" />
    <glyph glyph-name="r_t" unicode="rt" horiz-adv-x="731" 
d="M62 496h81v-81h4q18 45 60 70t93 25q15 0 35 -2v-88q-19 4 -43 4q-64 0 -104.5 -42t-40.5 -107v-275h-85v496zM570.5 2q-25.5 10 -43.5 27q-20 19 -29.5 44.5t-9.5 60.5v285h-88v77h88v148h84v-148h122v-77h-122v-264q0 -42 17 -62q17 -22 52 -22q31 0 54 14v-82
q-16 -6 -30.5 -8.5t-38.5 -2.5q-30 0 -55.5 10z" />
    <glyph glyph-name="t_f" unicode="tf" horiz-adv-x="678" 
d="M197.5 2q-25.5 10 -43.5 27q-20 19 -29.5 44.5t-9.5 60.5v285h-88v77h88v148h84v-148h229v69q0 48 21.5 84t58 55.5t81.5 19.5q41 0 72 -12v-83q-30 16 -69 16q-33 0 -56.5 -23.5t-23.5 -65.5v-60h129v-77h-129v-419h-84v419h-229v-264q0 -42 17 -62q17 -22 52 -22
q31 0 54 14v-82q-16 -6 -30.5 -8.5t-38.5 -2.5q-30 0 -55.5 10z" />
    <glyph glyph-name="t_t" unicode="tt" horiz-adv-x="673" 
d="M197.5 2q-25.5 10 -43.5 27q-20 19 -29.5 44.5t-9.5 60.5v285h-88v77h88v148h84v-148h231v148h84v-148h122v-77h-122v-264q0 -42 17 -62q17 -22 52 -22q31 0 54 14v-82q-16 -6 -30.5 -8.5t-38.5 -2.5q-30 0 -55.5 10t-43.5 27q-20 19 -29.5 44.5t-9.5 60.5v285h-231v-264
q0 -42 17 -62q17 -22 52 -22q31 0 54 14v-82q-16 -6 -30.5 -8.5t-38.5 -2.5q-30 0 -55.5 10z" />
    <glyph glyph-name=".notdef" horiz-adv-x="581" 
d="M501 0h-422v716h422v-716zM441 57v602h-302v-602h302z" />
    <glyph glyph-name=".null" horiz-adv-x="0" 
 />
    <glyph glyph-name="nonmarkingreturn" unicode="&#xd;" horiz-adv-x="0" 
d="M0 0z" />
    <glyph glyph-name="uni0002" horiz-adv-x="0" 
d="M0 0z" />
    <glyph glyph-name="uni0009" unicode="&#x9;" horiz-adv-x="0" 
d="M0 0z" />
    <glyph glyph-name="uni000A" unicode="&#xa;" horiz-adv-x="0" 
d="M0 0z" />
    <glyph glyph-name="space" unicode=" " horiz-adv-x="232" 
d="M0 0z" />
    <glyph glyph-name="exclam" unicode="!" horiz-adv-x="236" 
d="M76 473v243h84v-243l-10 -262h-65zM72.5 12.5q-18.5 18.5 -18.5 45.5q0 26 18.5 44.5t45.5 18.5q26 0 44.5 -18.5t18.5 -44.5q0 -27 -18.5 -45.5t-44.5 -18.5q-27 0 -45.5 18.5z" />
    <glyph glyph-name="quotedbl" unicode="&#x22;" horiz-adv-x="321" 
d="M50 716h77v-221h-77v221zM193 716h77v-221h-77v221z" />
    <glyph glyph-name="numbersign" unicode="#" horiz-adv-x="638" 
d="M152 206h-123l12 70h122l21 141h-125l12 70h124l29 197h74l-29 -197h142l29 197h74l-29 -197h123l-11 -70h-123l-20 -141h125l-12 -70h-125l-30 -206h-74l30 206h-142l-30 -206h-74zM379 276l21 141h-142l-20 -141h141z" />
    <glyph glyph-name="dollar" unicode="$" horiz-adv-x="540" 
d="M442 48q-53 -49 -132 -61v-87h-70v86q-70 8 -130.5 55.5t-80.5 126.5l76 30q14 -50 50 -86t85 -45v250l-4 2q-89 36 -135 83.5t-46 116.5q0 45 22 84t64 65t99 31v85h70v-87q70 -11 112.5 -50.5t57.5 -84.5l-76 -32q-8 28 -31.5 51.5t-62.5 32.5v-235q88 -37 136.5 -81.5
t48.5 -117.5q0 -83 -53 -132zM164.5 456q24.5 -26 75.5 -49v210q-45 -7 -72.5 -33.5t-27.5 -64.5q0 -37 24.5 -63zM383 106q27 28 27 72q0 38 -25 63t-75 48v-220q46 9 73 37z" />
    <glyph glyph-name="percent" unicode="%" horiz-adv-x="824" 
d="M123 381.5q-39 23.5 -62 63t-23 84.5t23 84.5t62 63t85 23.5t85.5 -23.5t62 -63t22.5 -84.5t-22.5 -84.5t-62 -63t-85.5 -23.5t-85 23.5zM163 28l445 663l52 -36l-444 -662zM281 451.5q29 31.5 29 77.5q0 47 -29 78t-73 31q-43 0 -72 -31t-29 -78q0 -46 29 -77.5
t72 -31.5q44 0 73 31.5zM531 7.5q-39 23.5 -62 63t-23 84.5t23 84.5t62 63t85 23.5t85.5 -23.5t62 -63t22.5 -84.5t-22.5 -84.5t-62 -63t-85.5 -23.5t-85 23.5zM689 77.5q29 31.5 29 77.5q0 47 -29 78t-73 31q-43 0 -72 -31t-29 -78q0 -46 29 -77.5t72 -31.5q44 0 73 31.5z
" />
    <glyph glyph-name="ampersand" unicode="&#x26;" horiz-adv-x="625" 
d="M515 121l68 -89l-64 -48l-51 67q-70 -67 -167 -67q-71 0 -130.5 33t-94 90.5t-34.5 127.5q0 63 34 120t91 92l-1 1q-25 34 -38 63t-13 58q0 44 23 81.5t62 59.5t85 22q60 0 101 -34.5t57 -86.5l-72 -39q-13 34 -32.5 56.5t-53.5 22.5q-37 0 -61 -22.5t-24 -59.5t25 -69
l241 -315l66 113l67 -40zM420 114l-206 271q-42 -23 -68 -63.5t-26 -85.5q0 -50 24 -90t65.5 -62.5t91.5 -22.5q72 0 119 53z" />
    <glyph glyph-name="quotesingle" unicode="'" horiz-adv-x="178" 
d="M50 716h77v-221h-77v221z" />
    <glyph glyph-name="parenleft" unicode="(" horiz-adv-x="325" 
d="M116.5 68q-52.5 119 -52.5 254t52.5 254t125.5 204l63 -44q-68 -80 -112 -190t-44 -224t44 -224t112 -190l-63 -44q-73 85 -125.5 204z" />
    <glyph glyph-name="parenright" unicode=")" horiz-adv-x="325" 
d="M20 -92q68 80 112 190t44 224t-44 224t-112 190l63 44q73 -85 125.5 -204t52.5 -254t-52.5 -254t-125.5 -204z" />
    <glyph glyph-name="asterisk" unicode="*" horiz-adv-x="429" 
d="M78 418l77 103l-3 8l-112 38l23 67l111 -39l5 2v119h71v-119l5 -2l111 39l23 -67l-112 -38l-2 -8l76 -103l-58 -42l-75 103h-7l-75 -103z" />
    <glyph glyph-name="plus" unicode="+" horiz-adv-x="557" 
d="M496 236h-182v-182h-70v182h-183v70h183v182h70v-182h182v-70z" />
    <glyph glyph-name="comma" unicode="," horiz-adv-x="239" 
d="M50 -83l53 83q-18 3 -32 19t-14 39q0 26 18.5 44.5t45.5 18.5t45.5 -18.5t18.5 -44.5q0 -17 -7 -32.5t-21 -35.5l-66 -100z" />
    <glyph glyph-name="hyphen" unicode="-" horiz-adv-x="440" 
d="M61 345h318v-70h-318v70z" />
    <glyph glyph-name="period" unicode="." horiz-adv-x="236" 
d="M72.5 12.5q-18.5 18.5 -18.5 45.5q0 26 18.5 44.5t45.5 18.5q26 0 44.5 -18.5t18.5 -44.5q0 -27 -18.5 -45.5t-44.5 -18.5q-27 0 -45.5 18.5z" />
    <glyph glyph-name="slash" unicode="/" horiz-adv-x="437" 
d="M327 716h79l-297 -716h-79z" />
    <glyph glyph-name="zero" unicode="0" horiz-adv-x="644" 
d="M178.5 31.5q-62.5 47.5 -96 129t-33.5 181.5t33.5 181.5t95.5 129t144 47.5q81 0 143 -47.5t96 -129t34 -181.5t-34 -181.5t-96 -129t-143 -47.5t-143.5 47.5zM420.5 101.5q42.5 36.5 65.5 99.5t23 141t-23 141t-65.5 99.5t-98.5 36.5q-57 0 -99 -36.5t-65 -99.5
t-23 -141t23 -141t65 -99.5t99 -36.5q56 0 98.5 36.5z" />
    <glyph glyph-name="one" unicode="1" horiz-adv-x="381" 
d="M209 565l-120 -86l-45 65l195 140h54v-684h-84v565z" />
    <glyph glyph-name="two" unicode="2" horiz-adv-x="525" 
d="M44 85q31 31 123 124.5t128 132.5q51 54 69 85.5t18 75.5q0 30 -15 56.5t-44.5 43t-70.5 16.5q-54 0 -87 -31.5t-43 -68.5l-77 31q10 32 36 66.5t70 59t103 24.5q63 0 112 -27t76 -72t27 -97q0 -106 -111 -217l-204 -206h323v-81h-433v85z" />
    <glyph glyph-name="three" unicode="3" horiz-adv-x="534" 
d="M173 2q-45 18 -81.5 56.5t-52.5 96.5l77 32q16 -58 54.5 -90t90.5 -32q38 0 71 16.5t52.5 46t19.5 65.5q0 35 -19.5 64t-53 45.5t-73.5 16.5h-59v79h53q55 0 92 31.5t37 83.5q0 48 -36 77t-89 29q-52 0 -81.5 -27t-42.5 -66l-78 33q18 54 69.5 97.5t132.5 43.5
q60 0 108 -24t75.5 -67t27.5 -96t-27 -90t-67 -58v-4q51 -21 84 -64.5t33 -102.5q0 -60 -30.5 -108t-83 -75t-115.5 -27q-43 0 -88 18z" />
    <glyph glyph-name="four" unicode="4" horiz-adv-x="592" 
d="M372 147h-328v64l320 473h93v-457h88v-80h-88v-147h-85v147zM372 227v333h-4l-227 -333h231z" />
    <glyph glyph-name="five" unicode="5" horiz-adv-x="562" 
d="M179 4.5q-47 20.5 -83.5 62t-51.5 102.5l76 30q15 -61 55.5 -97.5t96.5 -36.5q66 0 108.5 41t42.5 107q0 65 -41.5 107.5t-108.5 42.5q-36 0 -67.5 -16.5t-51.5 -45.5l-87 38l44 345h355v-81h-284l-27 -207l4 -1q52 45 129 45q59 0 109.5 -29t80.5 -81t30 -116
t-30.5 -116.5t-84 -83t-119.5 -30.5q-48 0 -95 20.5z" />
    <glyph glyph-name="six" unicode="6" horiz-adv-x="556" 
d="M156.5 17q-53.5 33 -83 85.5t-29.5 110.5q0 55 22.5 105.5t64.5 112.5l180 269l68 -47l-173 -241l2 -2q35 24 89 24q52 0 102 -29t81.5 -79.5t31.5 -112.5q0 -60 -32 -112.5t-85.5 -84.5t-116.5 -32q-68 0 -121.5 33zM352 84.5q34 19.5 54 53t20 74.5q0 40 -20 73.5
t-54 53t-74 19.5t-74 -19.5t-54 -53t-20 -73.5q0 -41 20 -74.5t54 -53t74 -19.5t74 19.5z" />
    <glyph glyph-name="seven" unicode="7" horiz-adv-x="528" 
d="M77 23l318 580h-351v81h440v-87l-332 -613z" />
    <glyph glyph-name="eight" unicode="8" horiz-adv-x="550" 
d="M158 11q-53 27 -83.5 73.5t-30.5 103.5q0 58 31.5 101.5t82.5 68.5v4q-39 24 -64.5 63.5t-25.5 82.5q0 54 26.5 98t73.5 69t107 25t107.5 -25t74 -69t26.5 -98q0 -43 -25.5 -82t-65.5 -64v-4q51 -25 82.5 -68.5t31.5 -101.5q0 -57 -30 -103.5t-83 -73.5t-118 -27
q-64 0 -117 27zM362.5 429q34.5 31 34.5 81t-34.5 79.5t-87.5 29.5q-52 0 -86.5 -29.5t-34.5 -79.5t34 -81t87 -31t87.5 31zM378 100.5q42 35.5 42 92.5q0 55 -42 90.5t-103 35.5t-102.5 -35.5t-41.5 -90.5q0 -57 41.5 -92.5t102.5 -35.5t103 35.5z" />
    <glyph glyph-name="nine" unicode="9" horiz-adv-x="556" 
d="M177 31l173 241l-2 2q-35 -24 -89 -24q-52 0 -102 29t-81.5 79.5t-31.5 112.5q0 60 32 112.5t85.5 84.5t115.5 32q69 0 122.5 -33t83 -85.5t29.5 -110.5q0 -55 -22.5 -105.5t-64.5 -112.5l-180 -269zM351.5 345.5q34.5 19.5 54.5 53t20 73.5q0 41 -20 74.5t-54.5 53
t-74.5 19.5t-73.5 -19.5t-53.5 -53t-20 -74.5q0 -40 20 -73.5t53.5 -53t73.5 -19.5t74.5 19.5z" />
    <glyph glyph-name="colon" unicode=":" horiz-adv-x="236" 
d="M72.5 393.5q-18.5 18.5 -18.5 45.5q0 26 18.5 44.5t45.5 18.5q26 0 44.5 -18.5t18.5 -44.5q0 -27 -18.5 -45.5t-44.5 -18.5q-27 0 -45.5 18.5zM72.5 12.5q-18.5 18.5 -18.5 45.5q0 26 18.5 44.5t45.5 18.5q26 0 44.5 -18.5t18.5 -44.5q0 -27 -18.5 -45.5t-44.5 -18.5
q-27 0 -45.5 18.5z" />
    <glyph glyph-name="semicolon" unicode=";" horiz-adv-x="238" 
d="M74.5 393.5q-18.5 18.5 -18.5 45.5q0 26 18.5 44.5t44.5 18.5q27 0 45.5 -18.5t18.5 -44.5q0 -27 -18.5 -45.5t-45.5 -18.5q-26 0 -44.5 18.5zM49 -67l53 83q-18 3 -32 19t-14 39q0 26 18.5 44.5t45.5 18.5t45.5 -18.5t18.5 -44.5q0 -17 -7 -32.5t-21 -35.5l-66 -100z
" />
    <glyph glyph-name="less" unicode="&#x3c;" horiz-adv-x="500" 
d="M56 240v62l384 184v-78l-294 -135v-4l294 -135v-78z" />
    <glyph glyph-name="equal" unicode="=" horiz-adv-x="569" 
d="M61 449h447v-70h-447v70zM61 259h447v-70h-447v70z" />
    <glyph glyph-name="greater" unicode="&#x3e;" horiz-adv-x="500" 
d="M60 134l294 135v4l-294 135v78l384 -184v-62l-384 -184v78z" />
    <glyph glyph-name="question" unicode="?" horiz-adv-x="502" 
d="M200 259q0 50 18.5 83.5t68.5 78.5q39 36 56.5 61.5t17.5 61.5q0 48 -31 77.5t-86 29.5q-50 0 -79 -28.5t-44 -70.5l-79 33q20 58 71 102.5t131 44.5q60 0 106.5 -24.5t72 -67.5t25.5 -96q0 -38 -16 -70.5t-34.5 -53t-47.5 -47.5q-33 -30 -48.5 -57t-15.5 -63v-42h-86v48
zM198.5 12.5q-18.5 18.5 -18.5 45.5q0 26 18.5 44.5t44.5 18.5q27 0 45.5 -18.5t18.5 -44.5q0 -27 -18.5 -45.5t-45.5 -18.5q-26 0 -44.5 18.5z" />
    <glyph glyph-name="at" unicode="@" horiz-adv-x="881" 
d="M244 -30q-90 52 -141.5 140.5t-51.5 193.5t51.5 193.5t141.5 140.5t198 52t197 -52t140 -140.5t51 -193.5q0 -91 -38.5 -149.5t-109.5 -58.5q-37 0 -66.5 20.5t-45.5 55.5q-24 -37 -60 -56.5t-82 -19.5q-54 0 -98 26t-69.5 72.5t-25.5 105.5q0 58 25.5 105t69 73t94.5 26
q39 0 72.5 -16.5t58.5 -45.5h4v48h67v-261q0 -29 15.5 -51t46.5 -22q42 0 58.5 44.5t16.5 103.5q0 88 -43 161t-116.5 115.5t-161.5 42.5q-87 0 -160.5 -42.5t-116.5 -115.5t-43 -161t43 -161t116.5 -115.5t160.5 -42.5q72 0 128 28l26 -63q-70 -32 -154 -32q-108 0 -198 52
zM522.5 202.5q36.5 36.5 36.5 97.5t-36.5 97.5t-88.5 36.5t-88.5 -37t-36.5 -97t36.5 -97t88.5 -37t88.5 36.5z" />
    <glyph glyph-name="A" unicode="A" horiz-adv-x="668" 
d="M286 716h96l272 -716h-94l-71 197h-309l-72 -197h-94zM459 277l-95 258l-28 77h-4l-29 -77l-94 -258h250z" />
    <glyph glyph-name="B" unicode="B" horiz-adv-x="604" 
d="M79 716h258q54 0 101 -25t75.5 -69t28.5 -99q0 -52 -27 -91t-72 -60v-4q54 -18 88.5 -62.5t34.5 -102.5t-30 -104.5t-79 -72.5t-106 -26h-272v716zM337 406q36 0 63.5 17t42 43.5t14.5 54.5q0 27 -14 53.5t-40.5 43.5t-61.5 17h-177v-229h173zM355 81q37 0 65 18
t43.5 46.5t15.5 58.5t-15.5 58.5t-45 46t-67.5 17.5h-187v-245h191z" />
    <glyph glyph-name="C" unicode="C" horiz-adv-x="738" 
d="M226 33q-85 49 -133.5 135t-48.5 190t48.5 190t133.5 135t188 49q81 0 147.5 -30.5t114.5 -86.5l-60 -59q-40 49 -89.5 72t-112.5 23q-77 0 -142 -36.5t-103.5 -103t-38.5 -153.5t38.5 -153.5t103.5 -103t142 -36.5q131 0 222 107l61 -60q-49 -59 -122 -93.5t-161 -34.5
q-103 0 -188 49z" />
    <glyph glyph-name="D" unicode="D" horiz-adv-x="701" 
d="M79 716h217q110 0 192 -45.5t126 -126.5t44 -186t-44 -186t-126 -126.5t-192 -45.5h-217v716zM296 81q127 0 201 73t74 204t-74 204t-201 73h-132v-554h132z" />
    <glyph glyph-name="E" unicode="E" horiz-adv-x="550" 
d="M79 716h415v-81h-330v-237h298v-80h-298v-237h330v-81h-415v716z" />
    <glyph glyph-name="F" unicode="F" horiz-adv-x="530" 
d="M79 716h415v-81h-330v-245h298v-80h-298v-310h-85v716z" />
    <glyph glyph-name="G" unicode="G" horiz-adv-x="811" 
d="M228.5 33q-85.5 49 -135 135t-49.5 190t49.5 190t135 135t186.5 49q79 0 148.5 -28t114.5 -79l-61 -61q-34 42 -87.5 64.5t-114.5 22.5q-75 0 -140.5 -36.5t-105 -103t-39.5 -153.5t39.5 -153.5t105 -103t140.5 -36.5q72 0 120.5 22.5t84.5 59.5q26 28 42 68t19 87h-264
v79h344q5 -28 5 -52q0 -66 -21 -128.5t-67 -109.5q-101 -107 -263 -107q-101 0 -186.5 49z" />
    <glyph glyph-name="H" unicode="H" horiz-adv-x="697" 
d="M79 716h85v-310h369v310h85v-716h-85v326h-369v-326h-85v716z" />
    <glyph glyph-name="I" unicode="I" horiz-adv-x="243" 
d="M79 716h85v-716h-85v716z" />
    <glyph glyph-name="J" unicode="J" horiz-adv-x="529" 
d="M109 27.5q-59 43.5 -83 122.5l79 33q36 -118 142 -118q59 0 94.5 41t35.5 108v502h85v-495q0 -75 -27.5 -128.5t-76 -81t-111.5 -27.5q-79 0 -138 43.5z" />
    <glyph glyph-name="K" unicode="K" horiz-adv-x="624" 
d="M79 716h85v-377h4l323 377h108v-4l-264 -306l284 -402v-4h-104l-238 341l-113 -131v-210h-85v716z" />
    <glyph glyph-name="L" unicode="L" horiz-adv-x="507" 
d="M79 716h85v-635h314v-81h-399v716z" />
    <glyph glyph-name="M" unicode="M" horiz-adv-x="865" 
d="M79 716h123l229 -587h4l228 587h123v-716h-85v455l4 136h-4l-233 -591h-71l-233 591h-4l4 -136v-455h-85v716z" />
    <glyph glyph-name="N" unicode="N" horiz-adv-x="707" 
d="M79 716h105l359 -570h4l-4 138v432h84v-716h-88l-375 597h-4l4 -138v-459h-85v716z" />
    <glyph glyph-name="O" unicode="O" horiz-adv-x="822" 
d="M223.5 34q-83.5 50 -131.5 135.5t-48 188.5t48 188.5t132 135.5t187 50t187 -50t132 -136t48 -188q0 -103 -48 -188.5t-132 -135.5t-187 -50q-104 0 -187.5 50zM552.5 102.5q64.5 37.5 102 104t37.5 151.5t-37.5 151.5t-102 104t-141.5 37.5t-141.5 -37.5t-102 -104
t-37.5 -151.5t37.5 -151.5t102 -104t141.5 -37.5t141.5 37.5z" />
    <glyph glyph-name="P" unicode="P" horiz-adv-x="574" 
d="M79 716h241q60 0 111.5 -27t82 -75.5t30.5 -109.5t-30.5 -109.5t-82 -75.5t-111.5 -27h-156v-292h-85v716zM323 373q40 0 70.5 19t47 49t16.5 63t-16.5 63t-47 49t-70.5 19h-159v-262h159z" />
    <glyph glyph-name="Q" unicode="Q" horiz-adv-x="822" 
d="M586 27q-83 -43 -175 -43q-104 0 -187.5 50t-131.5 135.5t-48 188.5t48 188.5t132 135.5t187 50t187 -50t132 -136t48 -188q0 -85 -33.5 -159.5t-93.5 -126.5l49 -74l-66 -43zM539 96l-87 130l66 45l86 -129q42 39 65 94.5t23 121.5q0 85 -37.5 151.5t-102 104
t-141.5 37.5t-141.5 -37.5t-102 -104t-37.5 -151.5t37.5 -151.5t102 -104t141.5 -37.5q66 0 128 31z" />
    <glyph glyph-name="R" unicode="R" horiz-adv-x="585" 
d="M79 716h243q59 0 110 -27t81.5 -75.5t30.5 -109.5q0 -50 -23 -93t-62 -72t-87 -39l-2 -3l201 -293v-4h-99l-195 292h-113v-292h-85v716zM316 371q38 0 70 17t51.5 47.5t19.5 68.5q0 33 -16.5 63t-47 49t-70.5 19h-159v-264h152z" />
    <glyph glyph-name="S" unicode="S" horiz-adv-x="559" 
d="M173.5 6.5q-50.5 22.5 -89 66t-55.5 105.5l81 33q17 -64 63 -105t107 -41q63 0 106 33.5t43 91.5q0 50 -36.5 82.5t-119.5 60.5l-45 16q-76 27 -124 71t-48 122q0 51 28 94.5t77.5 69.5t111.5 26t108.5 -23t74 -56t37.5 -65l-79 -34q-11 38 -46 67.5t-93 29.5
q-55 0 -94 -31t-39 -78q0 -42 33 -68.5t100 -49.5l46 -16q91 -33 142.5 -82.5t51.5 -134.5q0 -69 -35.5 -116t-89.5 -69t-112 -22q-54 0 -104.5 22.5z" />
    <glyph glyph-name="T" unicode="T" horiz-adv-x="538" 
d="M227 635h-201v81h486v-81h-201v-635h-84v635z" />
    <glyph glyph-name="U" unicode="U" horiz-adv-x="655" 
d="M191 19.5q-60 35.5 -93 99t-33 146.5v451h85v-455q0 -87 46 -141.5t132 -54.5t132.5 54.5t46.5 141.5v455h85v-451q0 -83 -31.5 -147t-91.5 -99t-141 -35q-77 0 -137 35.5z" />
    <glyph glyph-name="V" unicode="V" horiz-adv-x="630" 
d="M14 716h93l177 -519l25 -71h4l25 71l184 519h94l-262 -716h-87z" />
    <glyph glyph-name="W" unicode="W" horiz-adv-x="944" 
d="M17 716h94l130 -526l12 -49h4l15 49l160 526h88l153 -526l15 -49h4l141 575h94l-193 -716h-88l-152 518l-16 56h-4l-17 -56l-158 -518h-88z" />
    <glyph glyph-name="X" unicode="X" horiz-adv-x="630" 
d="M260 370l-228 346h101l180 -279h4l180 279h101l-228 -346l242 -370h-100l-195 299h-4l-195 -299h-100z" />
    <glyph glyph-name="Y" unicode="Y" horiz-adv-x="594" 
d="M257 331l-243 385h99l184 -300h4l180 300h99l-239 -385v-331h-84v331z" />
    <glyph glyph-name="Z" unicode="Z" horiz-adv-x="570" 
d="M37 89l386 546h-370v81h468v-89l-386 -546h390v-81h-488v89z" />
    <glyph glyph-name="bracketleft" unicode="[" horiz-adv-x="317" 
d="M79 792h202v-70h-124v-776h124v-70h-202v916z" />
    <glyph glyph-name="backslash" unicode="\" horiz-adv-x="437" 
d="M30 716h79l297 -716h-79z" />
    <glyph glyph-name="bracketright" unicode="]" horiz-adv-x="317" 
d="M36 -54h124v776h-124v70h201v-916h-201v70z" />
    <glyph glyph-name="asciicircum" unicode="^" horiz-adv-x="465" 
d="M199 716h67l187 -306h-89l-130 224h-4l-129 -224h-89z" />
    <glyph glyph-name="underscore" unicode="_" horiz-adv-x="476" 
d="M0 -146h476v-70h-476v70z" />
    <glyph glyph-name="grave" unicode="`" horiz-adv-x="397" 
d="M98 716h93l52 -127h-75z" />
    <glyph glyph-name="a" unicode="a" horiz-adv-x="522" 
d="M125.5 5.5q-43.5 21.5 -68 60t-24.5 86.5q0 79 59.5 123t152.5 44q46 0 83 -10t59 -22v26q0 36 -18.5 64.5t-49.5 44t-67 15.5q-85 0 -130 -69l-71 47q31 46 82 71.5t115 25.5q102 0 161 -55t59 -148v-309h-81v73h-4q-24 -38 -65 -63.5t-95 -25.5t-97.5 21.5zM306 80
q36 21 58.5 57t22.5 78q-56 36 -129 36q-63 0 -100.5 -28.5t-37.5 -72.5q0 -40 33 -65.5t77 -25.5q40 0 76 21z" />
    <glyph glyph-name="b" unicode="b" horiz-adv-x="590" 
d="M215.5 9.5q-45.5 25.5 -68.5 64.5h-4v-74h-81v716h85v-225l-4 -68h4q24 38 69 63.5t104 25.5q64 0 118 -34.5t86 -94.5t32 -135t-32 -135t-86 -94.5t-118 -34.5q-59 0 -104.5 25.5zM388.5 84q37.5 23 60 65.5t22.5 98.5t-22.5 98.5t-60 65.5t-81.5 23t-81.5 -22.5
t-60 -65t-22.5 -99.5q0 -56 22.5 -99t60 -65.5t81.5 -22.5t81.5 23z" />
    <glyph glyph-name="c" unicode="c" horiz-adv-x="533" 
d="M157 18.5q-58 34.5 -90.5 95t-32.5 134.5q0 75 32.5 135t90.5 94.5t130 34.5q81 0 136 -39t80 -101l-77 -33q-40 96 -144 96q-42 0 -79.5 -23.5t-60.5 -66t-23 -97.5q0 -54 23 -97t60.5 -66.5t79.5 -23.5q53 0 91 25t57 71l75 -32q-25 -62 -81 -101.5t-137 -39.5
q-72 0 -130 34.5z" />
    <glyph glyph-name="d" unicode="d" horiz-adv-x="590" 
d="M152 18q-54 34 -86 94.5t-32 135.5t32 135.5t86 94.5t118 34q58 0 104 -25.5t69 -63.5h4l-4 68v225h84v-716h-80v74h-4q-23 -39 -69 -64.5t-104 -25.5q-64 0 -118 34zM364.5 83.5q37.5 22.5 60 65.5t22.5 99q0 57 -22.5 99.5t-60 65t-81.5 22.5t-81.5 -23t-60 -65.5
t-22.5 -98.5t22.5 -98.5t60 -65.5t81.5 -23t81.5 22.5z" />
    <glyph glyph-name="e" unicode="e" horiz-adv-x="550" 
d="M154.5 18q-56.5 34 -88.5 94t-32 136q0 72 30 132.5t85.5 96t127.5 35.5t126.5 -32.5t83.5 -91.5t29 -136q0 -14 -2 -20h-394q2 -56 27 -94.5t62.5 -57.5t77.5 -19q94 0 145 92l75 -36q-32 -60 -88.5 -96.5t-135.5 -36.5q-72 0 -128.5 34zM426 303q-2 30 -17 60t-48.5 51
t-85.5 21q-56 0 -97 -36t-52 -96h300z" />
    <glyph glyph-name="f" unicode="f" horiz-adv-x="370" 
d="M120 419h-93v77h93v69q0 48 21.5 84t58 55.5t81.5 19.5q25 0 40.5 -3t32.5 -9v-83q-32 16 -70 16q-33 0 -56 -23.5t-23 -65.5v-60h128v-77h-128v-419h-85v419z" />
    <glyph glyph-name="g" unicode="g" horiz-adv-x="588" 
d="M133 -189q-57 43 -77 100l79 33q15 -44 53.5 -71.5t91.5 -27.5q79 0 121.5 46.5t42.5 129.5v53h-4q-24 -38 -69 -63t-102 -25q-63 0 -117 34t-86 94t-32 135t32 135t86 94t117 34q57 0 102 -25t69 -63h4v72h81v-476q0 -82 -32 -139t-87.5 -85t-125.5 -28q-90 0 -147 43z
M363 85.5q37 22.5 59.5 64.5t22.5 99t-22.5 99.5t-59.5 64.5t-81 22t-81 -22.5t-59.5 -64.5t-22.5 -99t22.5 -99t59.5 -64.5t81 -22.5t81 22.5z" />
    <glyph glyph-name="h" unicode="h" horiz-adv-x="554" 
d="M62 716h85v-224l-4 -71h4q21 39 65.5 65t96.5 26q93 0 140 -54t47 -144v-314h-84v301q0 69 -33.5 101.5t-89.5 32.5q-40 0 -72.5 -23.5t-51 -62t-18.5 -79.5v-270h-85v716z" />
    <glyph glyph-name="i" unicode="i" horiz-adv-x="224" 
d="M69 618q-18 18 -18 43t18 43t43 18t43 -18t18 -43t-17.5 -43t-43.5 -18q-25 0 -43 18zM70 496h84v-496h-84v496z" />
    <glyph glyph-name="j" unicode="j" horiz-adv-x="224" 
d="M69 618q-18 18 -18 43t18 43t43 18t43 -18t18 -43t-17.5 -43t-43.5 -18q-25 0 -43 18zM-30 -220v81q22 -10 41 -10q31 0 45 19.5t14 57.5v568h84v-568q0 -77 -37 -115.5t-103 -38.5q-24 0 -44 6z" />
    <glyph glyph-name="k" unicode="k" horiz-adv-x="494" 
d="M62 716h85v-450l227 230h109v-4l-193 -193l202 -295v-4h-101l-161 240l-83 -83v-157h-85v716z" />
    <glyph glyph-name="l" unicode="l" horiz-adv-x="209" 
d="M62 716h85v-716h-85v716z" />
    <glyph glyph-name="m" unicode="m" horiz-adv-x="864" 
d="M62 496h81v-74h4q21 38 65.5 64t90.5 26q56 0 96.5 -26.5t58.5 -72.5q28 45 72 72t101 27q87 0 131 -53t44 -146v-313h-85v300q0 73 -27.5 104t-84.5 31q-38 0 -68.5 -22.5t-47.5 -59.5t-17 -78v-275h-84v300q0 73 -28 104t-84 31q-39 0 -69 -23t-47 -60t-17 -79v-273
h-85v496z" />
    <glyph glyph-name="n" unicode="n" horiz-adv-x="554" 
d="M62 496h81v-74h4q21 38 66 64t96 26q91 0 138.5 -53t47.5 -145v-314h-84v301q0 134 -125 134q-40 0 -72 -23t-49.5 -60t-17.5 -78v-274h-85v496z" />
    <glyph glyph-name="o" unicode="o" horiz-adv-x="577" 
d="M157 18.5q-58 34.5 -90.5 95t-32.5 134.5t32.5 134.5t90.5 95t131 34.5t131.5 -34.5t91 -95t32.5 -134.5t-32.5 -134.5t-91 -95t-131.5 -34.5t-131 34.5zM372 84q39 23 62.5 65.5t23.5 98.5t-23.5 98.5t-62.5 65.5t-84 23q-44 0 -83 -23t-62.5 -65.5t-23.5 -98.5
t23.5 -98.5t62.5 -65.5t83 -23q45 0 84 23z" />
    <glyph glyph-name="p" unicode="p" horiz-adv-x="586" 
d="M58 496h81v-73h4q24 38 69 63.5t104 25.5q64 0 118 -34.5t86 -94.5t32 -135t-32 -135t-86 -94.5t-118 -34.5q-59 0 -104.5 25.5t-68.5 64.5h-4l4 -69v-221h-85v712zM384.5 84q37.5 23 60 65.5t22.5 98.5t-22.5 98.5t-60 65.5t-81.5 23t-81.5 -22.5t-60 -65t-22.5 -99.5
q0 -56 22.5 -99t60 -65.5t81.5 -22.5t81.5 23z" />
    <glyph glyph-name="q" unicode="q" horiz-adv-x="586" 
d="M443 5l4 69h-4q-23 -39 -69 -64.5t-104 -25.5q-64 0 -118 34t-86 94.5t-32 135.5t32 135.5t86 94.5t118 34q58 0 104 -25.5t69 -63.5h4v73h80v-712h-84v221zM364.5 83.5q37.5 22.5 60 65.5t22.5 99q0 57 -22.5 99.5t-60 65t-81.5 22.5t-81.5 -23t-60 -65.5t-22.5 -98.5
t22.5 -98.5t60 -65.5t81.5 -23t81.5 22.5z" />
    <glyph glyph-name="r" unicode="r" horiz-adv-x="366" 
d="M62 496h81v-81h4q14 41 57.5 68.5t86.5 27.5q31 0 58 -9v-92q-27 15 -70 15q-35 0 -65.5 -20.5t-48.5 -54.5t-18 -74v-276h-85v496z" />
    <glyph glyph-name="s" unicode="s" horiz-adv-x="463" 
d="M103 24q-55 40 -77 99l75 33q20 -47 56.5 -72t79.5 -25q48 0 79.5 21t31.5 51q0 29 -23.5 48t-80.5 33l-68 17q-56 13 -95.5 47t-39.5 90q0 46 26.5 79t70.5 50t96 17q64 0 116.5 -29.5t74.5 -83.5l-75 -32q-16 36 -48.5 53t-72.5 17q-39 0 -70.5 -19t-31.5 -49
q0 -26 20.5 -41t65.5 -27l74 -18q74 -19 110.5 -56.5t36.5 -89.5q0 -43 -25 -78t-70 -55t-102 -20q-79 0 -134 40z" />
    <glyph glyph-name="t" unicode="t" horiz-adv-x="358" 
d="M197.5 2q-25.5 10 -43.5 27q-20 19 -29.5 44.5t-9.5 60.5v285h-88v77h88v148h84v-148h122v-77h-122v-264q0 -42 17 -62q17 -22 52 -22q31 0 54 14v-82q-16 -6 -30.5 -8.5t-38.5 -2.5q-30 0 -55.5 10z" />
    <glyph glyph-name="u" unicode="u" horiz-adv-x="554" 
d="M105.5 37q-47.5 53 -47.5 147v312h85v-298q0 -137 123 -137q41 0 73.5 23t50 60t17.5 78v274h84v-496h-80v74h-4q-22 -38 -66.5 -64t-95.5 -26q-92 0 -139.5 53z" />
    <glyph glyph-name="v" unicode="v" horiz-adv-x="502" 
d="M6 496h92l152 -396h2l154 396h90l-203 -496h-86z" />
    <glyph glyph-name="w" unicode="w" horiz-adv-x="759" 
d="M6 496h88l116 -386h1l126 386h88l126 -386h1l116 386h85l-161 -496h-85l-128 393l-127 -393h-85z" />
    <glyph glyph-name="x" unicode="x" horiz-adv-x="476" 
d="M188 252l-172 244h96l127 -181l122 181h99l-173 -244l178 -252h-100l-128 190l-126 -190h-99z" />
    <glyph glyph-name="y" unicode="y" horiz-adv-x="503" 
d="M213 32l-206 464h92l154 -365h2l149 365h92l-310 -712h-87z" />
    <glyph glyph-name="z" unicode="z" horiz-adv-x="471" 
d="M36 73l290 346h-282v77h386v-73l-290 -346h295v-77h-399v73z" />
    <glyph glyph-name="braceleft" unicode="{" horiz-adv-x="315" 
d="M142 -79.5q-44 44.5 -44 118.5v175q0 41 -20.5 63t-53.5 22v70q33 0 53.5 22t20.5 63v175q0 74 44 118.5t119 44.5h22v-70h-21q-38 0 -62.5 -26t-24.5 -70v-175q0 -47 -16.5 -75t-50.5 -40v-4q34 -12 50.5 -39.5t16.5 -75.5v-175q0 -44 24.5 -70t62.5 -26h21v-70h-22
q-75 0 -119 44.5z" />
    <glyph glyph-name="bar" unicode="|" horiz-adv-x="236" 
d="M79 792h78v-912h-78v912z" />
    <glyph glyph-name="braceright" unicode="}" horiz-adv-x="315" 
d="M32 -54h21q38 0 62.5 26t24.5 70v175q0 48 16.5 75.5t50.5 39.5v4q-34 12 -50.5 40t-16.5 75v175q0 44 -24.5 70t-62.5 26h-21v70h22q75 0 119 -44.5t44 -118.5v-175q0 -41 20.5 -63t53.5 -22v-70q-33 0 -53.5 -22t-20.5 -63v-175q0 -74 -44 -118.5t-119 -44.5h-22v70z
" />
    <glyph glyph-name="asciitilde" unicode="~" horiz-adv-x="534" 
d="M327.5 245.5q-28.5 9.5 -70.5 27.5q-37 16 -60 23.5t-40 7.5q-23 0 -37.5 -16.5t-16.5 -38.5h-67q0 39 17 69t44.5 46t57.5 16q25 0 53 -9.5t72 -27.5q36 -16 58 -23.5t39 -7.5q23 0 37.5 16.5t16.5 38.5h67q0 -39 -17 -69t-44.5 -46t-57.5 -16q-23 0 -51.5 9.5z" />
    <glyph glyph-name="uni00A0" unicode="&#xa0;" horiz-adv-x="232" 
d="M0 0z" />
    <glyph glyph-name="exclamdown" unicode="&#xa1;" horiz-adv-x="236" 
d="M72.5 403.5q-18.5 18.5 -18.5 45.5q0 26 18.5 44.5t45.5 18.5q26 0 44.5 -18.5t18.5 -44.5q0 -27 -18.5 -45.5t-44.5 -18.5q-27 0 -45.5 18.5zM76 27l9 267h65l10 -267v-243h-84v243z" />
    <glyph glyph-name="cent" unicode="&#xa2;" horiz-adv-x="528" 
d="M431 130.5q-46 -37.5 -114 -45.5v-85h-70v85q-62 9 -110.5 44.5t-75.5 90.5t-27 122t27 122.5t75.5 91t110.5 43.5v85h70v-85q67 -8 112.5 -45t68.5 -92l-77 -32q-33 76 -104 92v-360q77 17 108 92l75 -32q-23 -54 -69 -91.5zM155.5 224q37.5 -49 91.5 -62v360
q-54 -13 -91.5 -62t-37.5 -118t37.5 -118z" />
    <glyph glyph-name="sterling" unicode="&#xa3;" horiz-adv-x="523" 
d="M504 111q-42 -111 -158 -111h-309v73q49 22 74.5 63t25.5 89q0 8 -2 24h-97v71h70q-2 4 -17 29q-26 44 -39.5 77.5t-13.5 76.5q0 52 25.5 97.5t72 72.5t106.5 27q80 0 129 -42.5t68 -98.5l-78 -32q-12 39 -41.5 65.5t-77.5 26.5q-55 0 -87.5 -35t-32.5 -81
q0 -34 12 -62.5t37 -69.5q4 -7 14 -22q9 -16 15 -29h138v-71h-118v-11q0 -42 -16.5 -82.5t-46.5 -71.5l4 -3h185q37 0 57 14.5t31 44.5z" />
    <glyph glyph-name="currency" unicode="&#xa4;" horiz-adv-x="609" 
d="M67 143l60 58q-38 59 -38 124q0 66 38 124l-60 59l50 50l59 -57q56 43 129 43q72 0 128 -43l59 57l50 -50l-59 -58q37 -58 37 -125q0 -66 -37 -124l59 -58l-50 -50l-59 57q-27 -21 -60 -32.5t-68 -11.5q-72 0 -129 44l-59 -57zM373.5 199.5q31.5 19.5 50 53t18.5 72.5
t-18.5 72.5t-50 53t-68.5 19.5q-38 0 -69.5 -19.5t-50 -53t-18.5 -72.5t18.5 -72.5t50 -53t69.5 -19.5q37 0 68.5 19.5z" />
    <glyph glyph-name="yen" unicode="&#xa5;" horiz-adv-x="570" 
d="M245 169h-170v70h170v85h-170v70h125l-185 290h96l140 -232l34 -57h4l33 57l137 232h97l-182 -290h122v-70h-167v-85h167v-70h-167v-169h-84v169z" />
    <glyph glyph-name="brokenbar" unicode="&#xa6;" horiz-adv-x="236" 
d="M79 756h78v-380h-78v380zM79 292h78v-412h-78v412z" />
    <glyph glyph-name="section" unicode="&#xa7;" horiz-adv-x="543" 
d="M496 -42q0 -59 -31.5 -102t-82.5 -65.5t-106 -22.5q-78 0 -142 49.5t-88 140.5l80 32q17 -63 55.5 -102t94.5 -39t95 30.5t39 76.5q0 51 -38.5 82.5t-126.5 58.5q-89 28 -132.5 71.5t-43.5 108.5q0 40 22.5 77t63.5 61q-44 26 -65.5 61.5t-21.5 82.5q0 42 24 82
t70.5 65.5t109.5 25.5q53 0 95.5 -22.5t70 -56t37.5 -66.5l-78 -32q-12 37 -44 66.5t-79 29.5q-35 0 -62.5 -13t-42.5 -34.5t-15 -44.5q0 -37 30 -61t95 -46q104 -33 161 -79.5t57 -132.5q0 -43 -18.5 -80t-49.5 -59q67 -56 67 -143zM185 218q29 -24 94 -45q39 -12 83 -31
q22 15 35.5 42t13.5 52q0 52 -38.5 82.5t-127.5 58.5l-7 2q-37 -11 -59.5 -40t-22.5 -59q0 -38 29 -62z" />
    <glyph glyph-name="dieresis" unicode="&#xa8;" horiz-adv-x="392" 
d="M76 621.5q-16 16.5 -16 37.5q0 23 16 38.5t38 15.5q23 0 38 -15.5t15 -38.5q0 -22 -15 -38t-38 -16q-22 0 -38 16.5zM240.5 621.5q-16.5 16.5 -16.5 37.5q0 23 16 38.5t38 15.5q23 0 38.5 -15.5t15.5 -38.5q0 -22 -15.5 -38t-38.5 -16q-21 0 -37.5 16.5z" />
    <glyph glyph-name="copyright" unicode="&#xa9;" horiz-adv-x="532" 
d="M151 303q-53 31 -84 84t-31 115t31 115t84 84t115 31t115 -31t84 -84t31 -115t-31 -115t-84 -84t-115 -31t-115 31zM358.5 343q42.5 25 67.5 67.5t25 91.5q0 50 -25 92.5t-67.5 67t-92.5 24.5q-49 0 -91.5 -24.5t-67.5 -67t-25 -92.5q0 -49 25 -91.5t67.5 -67.5t91.5 -25
q50 0 92.5 25zM186 418q-34 35 -34 84q0 50 34 84.5t84 34.5q28 0 48 -10t39 -29l-31 -28q-11 13 -23.5 19t-32.5 6q-30 0 -52 -22.5t-22 -54.5t22 -54.5t52 -22.5q37 0 61 32l33 -26q-36 -48 -94 -48q-50 0 -84 35z" />
    <glyph glyph-name="ordfeminine" unicode="&#xaa;" horiz-adv-x="474" 
d="M124 290.5q-38 18.5 -60.5 52t-22.5 76.5q0 69 54.5 108t134.5 39q39 0 72.5 -9.5t52.5 -20.5v16q0 50 -33 79t-81 29q-39 0 -65 -13.5t-43 -43.5l-72 35q19 39 63.5 66.5t113.5 27.5q54 0 98.5 -21.5t70.5 -63t26 -99.5v-262h-78v66h-4q-20 -35 -57.5 -57.5t-86.5 -22.5
q-45 0 -83 18.5zM284.5 359q31.5 17 51 46.5t19.5 66.5q-1 1 -12.5 9t-38.5 15.5t-57 7.5q-61 0 -91.5 -24.5t-30.5 -64.5q0 -35 28 -54t66 -19q34 0 65.5 17z" />
    <glyph glyph-name="guillemotleft" unicode="&#xab;" horiz-adv-x="551" 
d="M40 271l200 217l50 -46l-161 -171l161 -171l-50 -46zM240 271l200 217l50 -46l-161 -171l161 -171l-50 -46z" />
    <glyph glyph-name="logicalnot" unicode="&#xac;" horiz-adv-x="572" 
d="M417 312h-363v70h431v-277h-68v207z" />
    <glyph glyph-name="uni00AD" unicode="&#xad;" horiz-adv-x="440" 
d="M61 345h318v-70h-318v70z" />
    <glyph glyph-name="registered" unicode="&#xae;" horiz-adv-x="532" 
d="M151 303q-53 31 -84 84t-31 115t31 115t84 84t115 31t115 -31t84 -84t31 -115t-31 -115t-84 -84t-115 -31t-115 31zM358.5 343q42.5 25 67.5 67.5t25 91.5q0 50 -25 92.5t-67.5 67t-92.5 24.5q-49 0 -91.5 -24.5t-67.5 -67t-25 -92.5q0 -49 25 -91.5t67.5 -67.5t91.5 -25
q50 0 92.5 25zM190 615h95q29 0 51 -21t22 -51q0 -23 -14.5 -41t-35.5 -24l-2 -2l60 -85v-2h-50l-56 85h-26v-85h-44v226zM281 514q13 0 23 8t10 21q0 12 -9 21t-23 9h-48v-59h47z" />
    <glyph glyph-name="macron" unicode="&#xaf;" horiz-adv-x="399" 
d="M61 692h277v-66h-277v66z" />
    <glyph glyph-name="degree" unicode="&#xb0;" horiz-adv-x="324" 
d="M97.5 459.5q-30.5 17.5 -48 47t-17.5 64.5t17.5 65t48 47t65.5 17t64.5 -17t47 -47t17.5 -65t-17.5 -64.5t-47 -47t-64.5 -17.5t-65.5 17.5zM209.5 521.5q19.5 20.5 19.5 49.5t-19.5 49.5t-46.5 20.5q-28 0 -48 -20.5t-20 -49.5t20 -49.5t48 -20.5q27 0 46.5 20.5z" />
    <glyph glyph-name="plusminus" unicode="&#xb1;" horiz-adv-x="547" 
d="M239 299h-183v70h183v157h70v-157h182v-70h-182v-157h-70v157zM56 70h435v-70h-435v70z" />
    <glyph glyph-name="uni00B2" unicode="&#xb2;" horiz-adv-x="302" 
d="M24 406l65 65t69 70q21 21 33 38.5t12 37.5t-16 34t-40 14t-41 -15t-24 -46l-60 25q9 44 44 69.5t80 25.5q50 0 86.5 -29.5t36.5 -77.5q0 -31 -18 -58t-44 -53l-98 -97h162v-59h-247v56z" />
    <glyph glyph-name="uni00B3" unicode="&#xb3;" horiz-adv-x="322" 
d="M72 367q-37 25 -49 74l60 23q8 -33 28 -48t45 -15q27 0 46 16t19 42q0 24 -18.5 38.5t-45.5 14.5h-40v56h36q24 0 40 14t16 36q0 21 -15.5 34t-38.5 13q-43 0 -61 -45l-57 23q13 37 43.5 59t74.5 22q54 0 87.5 -29.5t33.5 -75.5q0 -47 -47 -76q59 -31 59 -84t-39 -85
t-93 -32q-47 0 -84 25z" />
    <glyph glyph-name="acute" unicode="&#xb4;" horiz-adv-x="397" 
d="M207 716h93l-71 -127h-74z" />
    <glyph glyph-name="uni00B5" unicode="&#xb5;" horiz-adv-x="554" 
d="M58 496h85v-292q0 -74 33 -108.5t90 -34.5q41 0 73.5 23t50 60.5t17.5 78.5v273h84v-496h-80v74h-4q-23 -39 -64 -64.5t-96 -25.5q-57 0 -104 45h-4l4 -60v-185h-85v712z" />
    <glyph glyph-name="paragraph" unicode="&#xb6;" horiz-adv-x="617" 
d="M292 296h-44q-60 0 -111.5 25.5t-82 73.5t-30.5 111t30.5 111t82 73.5t111.5 25.5h288v-932h-77v851h-89v-851h-78v512z" />
    <glyph glyph-name="periodcentered" unicode="&#xb7;" horiz-adv-x="179" 
d="M44.5 278.5q-18.5 18.5 -18.5 45.5t18.5 45.5t45.5 18.5q26 0 44.5 -18.5t18.5 -45.5t-18.5 -45.5t-44.5 -18.5q-27 0 -45.5 18.5z" />
    <glyph glyph-name="cedilla" unicode="&#xb8;" horiz-adv-x="403" 
d="M108.5 -218q-25.5 19 -36.5 48l50 22q5 -15 16.5 -25.5t27.5 -10.5q20 0 32 12.5t12 30.5q0 19 -12 32t-32 13q-21 0 -35 -17l-44 20l35 93h53l-22 -49q18 3 23 3q38 0 64.5 -27t26.5 -68q0 -40 -29 -68t-72 -28q-32 0 -57.5 19z" />
    <glyph glyph-name="uni00B9" unicode="&#xb9;" horiz-adv-x="239" 
d="M112 632l-52 -43l-36 48l98 79h55v-366h-65v282z" />
    <glyph glyph-name="ordmasculine" unicode="&#xba;" horiz-adv-x="515" 
d="M144.5 302q-50.5 30 -79 82.5t-28.5 117.5t28.5 117.5t79 82.5t113.5 30t113.5 -30t79 -82.5t28.5 -117.5t-28.5 -117.5t-79 -82.5t-113.5 -30t-113.5 30zM326 366q32 20 51.5 55.5t19.5 80.5t-19.5 80.5t-51.5 55.5t-68 20q-37 0 -69 -20t-51.5 -55.5t-19.5 -80.5
t19.5 -80.5t51.5 -55.5t69 -20q36 0 68 20z" />
    <glyph glyph-name="guillemotright" unicode="&#xbb;" horiz-adv-x="551" 
d="M59 100l161 171l-161 171l50 46l200 -217l-200 -217zM259 100l161 171l-161 171l50 46l200 -217l-200 -217z" />
    <glyph glyph-name="onequarter" unicode="&#xbc;" horiz-adv-x="732" 
d="M137 632l-52 -43l-36 48l98 79h55v-366h-65v282zM100 28l466 695l53 -36l-466 -694zM562 74h-172v44l176 248h60v-236h49v-56h-49v-74h-64v74zM562 130v137h-4l-99 -137h103z" />
    <glyph glyph-name="onehalf" unicode="&#xbd;" horiz-adv-x="774" 
d="M137 632l-52 -43l-36 48l98 79h55v-366h-65v282zM92 28l466 695l53 -36l-466 -694zM470 56l65 65t69 70q21 21 33 38.5t12 37.5t-16 34t-40 14t-41 -15t-24 -46l-60 25q9 44 44 69.5t80 25.5q50 0 86.5 -29.5t36.5 -77.5q0 -31 -18 -58t-44 -53l-98 -97h162v-59h-247v56z
" />
    <glyph glyph-name="threequarters" unicode="&#xbe;" horiz-adv-x="825" 
d="M98 367q-37 25 -49 74l60 23q8 -33 28 -48t45 -15q27 0 46 16t19 42q0 24 -18.5 38.5t-45.5 14.5h-40v56h36q24 0 40 14t16 36q0 21 -15.5 34t-38.5 13q-43 0 -61 -45l-57 23q13 37 43.5 59t74.5 22q54 0 87.5 -29.5t33.5 -75.5q0 -47 -47 -76q59 -31 59 -84t-39 -85
t-93 -32q-47 0 -84 25zM180 28l466 695l53 -36l-466 -694zM655 74h-172v44l176 248h60v-236h49v-56h-49v-74h-64v74zM655 130v137h-4l-99 -137h103z" />
    <glyph glyph-name="questiondown" unicode="&#xbf;" horiz-adv-x="491" 
d="M201.5 403.5q-18.5 18.5 -18.5 45.5q0 26 18.5 44.5t45.5 18.5t45.5 -18.5t18.5 -44.5q0 -27 -18.5 -45.5t-45.5 -18.5t-45.5 18.5zM140 -207.5q-46 24.5 -71.5 67.5t-25.5 96q0 38 16 70.5t34.5 53.5t46.5 47q33 30 48.5 57t15.5 63v47h86v-53q0 -50 -18.5 -83.5
t-68.5 -78.5q-39 -37 -56.5 -62t-17.5 -61q0 -48 31 -77.5t86 -29.5q50 0 79.5 28.5t43.5 70.5l79 -33q-20 -58 -71 -102.5t-131 -44.5q-60 0 -106 24.5z" />
    <glyph glyph-name="Agrave" unicode="&#xc0;" horiz-adv-x="668" 
d="M286 716h96l272 -716h-94l-71 197h-309l-72 -197h-94zM459 277l-95 258l-28 77h-4l-29 -77l-94 -258h250zM227 900h93l52 -127h-75z" />
    <glyph glyph-name="Aacute" unicode="&#xc1;" horiz-adv-x="668" 
d="M286 716h96l272 -716h-94l-71 197h-309l-72 -197h-94zM459 277l-95 258l-28 77h-4l-29 -77l-94 -258h250zM349 900h93l-71 -127h-74z" />
    <glyph glyph-name="Acircumflex" unicode="&#xc2;" horiz-adv-x="668" 
d="M286 716h96l272 -716h-94l-71 197h-309l-72 -197h-94zM459 277l-95 258l-28 77h-4l-29 -77l-94 -258h250zM195 784l102 116h75l102 -116v-5h-82l-54 63h-8l-53 -63h-82v5z" />
    <glyph glyph-name="Atilde" unicode="&#xc3;" horiz-adv-x="668" 
d="M286 716h96l272 -716h-94l-71 197h-309l-72 -197h-94zM459 277l-95 258l-28 77h-4l-29 -77l-94 -258h250zM356.5 787.5q-17.5 7.5 -42.5 21.5q-29 18 -40 18q-33 0 -36 -37h-70q0 38 16 63.5t41 38t50 12.5q31 0 80 -30q30 -17 39 -17q33 0 36 37h70q0 -55 -33.5 -84.5
t-74.5 -29.5q-18 0 -35.5 7.5z" />
    <glyph glyph-name="Adieresis" unicode="&#xc4;" horiz-adv-x="668" 
d="M286 716h96l272 -716h-94l-71 197h-309l-72 -197h-94zM459 277l-95 258l-28 77h-4l-29 -77l-94 -258h250zM214 805.5q-16 16.5 -16 37.5q0 23 16 38.5t38 15.5q23 0 38 -15.5t15 -38.5q0 -22 -15 -38t-38 -16q-22 0 -38 16.5zM378.5 805.5q-16.5 16.5 -16.5 37.5
q0 23 16 38.5t38 15.5q23 0 38.5 -15.5t15.5 -38.5q0 -22 -15.5 -38t-38.5 -16q-21 0 -37.5 16.5z" />
    <glyph glyph-name="Aring" unicode="&#xc5;" horiz-adv-x="668" 
d="M654 0h-94l-71 197h-309l-72 -197h-94l256 674q-18 15 -29 36.5t-11 45.5q0 43 30 73t74 30q43 0 73 -30t30 -73q0 -24 -10.5 -45.5t-28.5 -35.5zM303 787q-13 -13 -13 -31t13 -31t31 -13t30.5 13t12.5 31t-12.5 31t-30.5 13t-31 -13zM459 277l-95 258l-28 77h-4l-29 -77
l-94 -258h250z" />
    <glyph glyph-name="AE" unicode="&#xc6;" horiz-adv-x="959" 
d="M438 716h465v-81h-330v-237h298v-80h-298v-237h330v-81h-415v197h-264l-118 -197h-100zM488 277v358h-4l-29 -50l-184 -308h217z" />
    <glyph glyph-name="Ccedilla" unicode="&#xc7;" horiz-adv-x="738" 
d="M577 20q-71 -35 -155 -36l-15 -33q18 3 23 3q38 0 64.5 -27t26.5 -68q0 -40 -29 -68t-72 -28q-32 0 -57.5 19t-36.5 48l50 22q5 -15 16.5 -25.5t27.5 -10.5q20 0 32 12.5t12 30.5q0 19 -12 32t-32 13q-21 0 -35 -17l-44 20l30 79q-94 10 -168.5 61.5t-116.5 132.5
t-42 178q0 104 48.5 190t133.5 135t188 49q81 0 147.5 -30.5t114.5 -86.5l-60 -59q-40 49 -89.5 72t-112.5 23q-77 0 -142 -36.5t-103.5 -103t-38.5 -153.5t38.5 -153.5t103.5 -103t142 -36.5q131 0 222 107l61 -60q-49 -57 -120 -92z" />
    <glyph glyph-name="Egrave" unicode="&#xc8;" horiz-adv-x="550" 
d="M79 716h415v-81h-330v-237h298v-80h-298v-237h330v-81h-415v716zM180 900h93l52 -127h-75z" />
    <glyph glyph-name="Eacute" unicode="&#xc9;" horiz-adv-x="550" 
d="M79 716h415v-81h-330v-237h298v-80h-298v-237h330v-81h-415v716zM302 900h93l-71 -127h-74z" />
    <glyph glyph-name="Ecircumflex" unicode="&#xca;" horiz-adv-x="550" 
d="M79 716h415v-81h-330v-237h298v-80h-298v-237h330v-81h-415v716zM148 784l102 116h75l102 -116v-5h-82l-54 63h-8l-53 -63h-82v5z" />
    <glyph glyph-name="Edieresis" unicode="&#xcb;" horiz-adv-x="550" 
d="M79 716h415v-81h-330v-237h298v-80h-298v-237h330v-81h-415v716zM167 805.5q-16 16.5 -16 37.5q0 23 16 38.5t38 15.5q23 0 38 -15.5t15 -38.5q0 -22 -15 -38t-38 -16q-22 0 -38 16.5zM331.5 805.5q-16.5 16.5 -16.5 37.5q0 23 16 38.5t38 15.5q23 0 38.5 -15.5
t15.5 -38.5q0 -22 -15.5 -38t-38.5 -16q-21 0 -37.5 16.5z" />
    <glyph glyph-name="Igrave" unicode="&#xcc;" horiz-adv-x="243" 
d="M79 716h85v-716h-85v716zM15 900h93l52 -127h-75z" />
    <glyph glyph-name="Iacute" unicode="&#xcd;" horiz-adv-x="243" 
d="M79 716h85v-716h-85v716zM137 900h93l-71 -127h-74z" />
    <glyph glyph-name="Icircumflex" unicode="&#xce;" horiz-adv-x="243" 
d="M79 716h85v-716h-85v716zM-17 784l102 116h75l102 -116v-5h-82l-54 63h-8l-53 -63h-82v5z" />
    <glyph glyph-name="Idieresis" unicode="&#xcf;" horiz-adv-x="243" 
d="M18 806q-16 16 -16 38q0 23 16 38.5t37 15.5q23 0 38.5 -15.5t15.5 -38.5q0 -22 -15.5 -38t-38.5 -16q-21 0 -37 16zM150.5 806q-16.5 16 -16.5 38q0 23 16 38.5t38 15.5q23 0 38.5 -15.5t15.5 -38.5q0 -22 -15.5 -38t-38.5 -16q-21 0 -37.5 16zM79 716h85v-716h-85v716z
" />
    <glyph glyph-name="Eth" unicode="&#xd0;" horiz-adv-x="757" 
d="M135 322h-76v70h76v324h216q110 0 192.5 -45.5t126.5 -126.5t44 -186t-44 -186t-126.5 -126.5t-192.5 -45.5h-216v322zM351 81q127 0 201.5 73t74.5 204t-74.5 204t-201.5 73h-131v-243h203v-70h-203v-241h131z" />
    <glyph glyph-name="Ntilde" unicode="&#xd1;" horiz-adv-x="707" 
d="M79 716h105l359 -570h4l-4 138v432h84v-716h-88l-375 597h-4l4 -138v-459h-85v716zM385.5 787.5q-17.5 7.5 -42.5 21.5q-29 18 -40 18q-33 0 -36 -37h-70q0 38 16 63.5t41 38t50 12.5q31 0 80 -30q30 -17 39 -17q33 0 36 37h70q0 -55 -33.5 -84.5t-74.5 -29.5
q-18 0 -35.5 7.5z" />
    <glyph glyph-name="Ograve" unicode="&#xd2;" horiz-adv-x="822" 
d="M223.5 34q-83.5 50 -131.5 135.5t-48 188.5t48 188.5t132 135.5t187 50t187 -50t132 -136t48 -188q0 -103 -48 -188.5t-132 -135.5t-187 -50q-104 0 -187.5 50zM552.5 102.5q64.5 37.5 102 104t37.5 151.5t-37.5 151.5t-102 104t-141.5 37.5t-141.5 -37.5t-102 -104
t-37.5 -151.5t37.5 -151.5t102 -104t141.5 -37.5t141.5 37.5zM304 900h93l52 -127h-75z" />
    <glyph glyph-name="Oacute" unicode="&#xd3;" horiz-adv-x="822" 
d="M223.5 34q-83.5 50 -131.5 135.5t-48 188.5t48 188.5t132 135.5t187 50t187 -50t132 -136t48 -188q0 -103 -48 -188.5t-132 -135.5t-187 -50q-104 0 -187.5 50zM552.5 102.5q64.5 37.5 102 104t37.5 151.5t-37.5 151.5t-102 104t-141.5 37.5t-141.5 -37.5t-102 -104
t-37.5 -151.5t37.5 -151.5t102 -104t141.5 -37.5t141.5 37.5zM426 900h93l-71 -127h-74z" />
    <glyph glyph-name="Ocircumflex" unicode="&#xd4;" horiz-adv-x="822" 
d="M223.5 34q-83.5 50 -131.5 135.5t-48 188.5t48 188.5t132 135.5t187 50t187 -50t132 -136t48 -188q0 -103 -48 -188.5t-132 -135.5t-187 -50q-104 0 -187.5 50zM552.5 102.5q64.5 37.5 102 104t37.5 151.5t-37.5 151.5t-102 104t-141.5 37.5t-141.5 -37.5t-102 -104
t-37.5 -151.5t37.5 -151.5t102 -104t141.5 -37.5t141.5 37.5zM272 784l102 116h75l102 -116v-5h-82l-54 63h-8l-53 -63h-82v5z" />
    <glyph glyph-name="Otilde" unicode="&#xd5;" horiz-adv-x="822" 
d="M223.5 34q-83.5 50 -131.5 135.5t-48 188.5t48 188.5t132 135.5t187 50t187 -50t132 -136t48 -188q0 -103 -48 -188.5t-132 -135.5t-187 -50q-104 0 -187.5 50zM552.5 102.5q64.5 37.5 102 104t37.5 151.5t-37.5 151.5t-102 104t-141.5 37.5t-141.5 -37.5t-102 -104
t-37.5 -151.5t37.5 -151.5t102 -104t141.5 -37.5t141.5 37.5zM433.5 787.5q-17.5 7.5 -42.5 21.5q-29 18 -40 18q-33 0 -36 -37h-70q0 38 16 63.5t41 38t50 12.5q31 0 80 -30q30 -17 39 -17q33 0 36 37h70q0 -55 -33.5 -84.5t-74.5 -29.5q-18 0 -35.5 7.5z" />
    <glyph glyph-name="Odieresis" unicode="&#xd6;" horiz-adv-x="822" 
d="M223.5 34q-83.5 50 -131.5 135.5t-48 188.5t48 188.5t132 135.5t187 50t187 -50t132 -136t48 -188q0 -103 -48 -188.5t-132 -135.5t-187 -50q-104 0 -187.5 50zM552.5 102.5q64.5 37.5 102 104t37.5 151.5t-37.5 151.5t-102 104t-141.5 37.5t-141.5 -37.5t-102 -104
t-37.5 -151.5t37.5 -151.5t102 -104t141.5 -37.5t141.5 37.5zM291 805.5q-16 16.5 -16 37.5q0 23 16 38.5t38 15.5q23 0 38 -15.5t15 -38.5q0 -22 -15 -38t-38 -16q-22 0 -38 16.5zM455.5 805.5q-16.5 16.5 -16.5 37.5q0 23 16 38.5t38 15.5q23 0 38.5 -15.5t15.5 -38.5
q0 -22 -15.5 -38t-38.5 -16q-21 0 -37.5 16.5z" />
    <glyph glyph-name="multiply" unicode="&#xd7;" horiz-adv-x="545" 
d="M65 116l160 155l-160 155l48 47l160 -156l160 156l47 -47l-160 -155l160 -155l-47 -47l-160 156l-160 -156z" />
    <glyph glyph-name="Oslash" unicode="&#xd8;" horiz-adv-x="822" 
d="M740.5 525.5q37.5 -77.5 37.5 -167.5q0 -103 -48 -188.5t-132 -135.5t-187 -50q-91 0 -167 39l-37 -59l-59 37l37 59q-66 52 -103.5 130t-37.5 168q0 103 48 188.5t132 135.5t187 50q91 0 168 -40l38 61l58 -38l-37 -60q65 -52 102.5 -129.5zM156 229q26 -58 73 -98
l307 492q-59 28 -125 28q-77 0 -141.5 -37.5t-102 -104t-37.5 -151.5q0 -71 26 -129zM552.5 102.5q64.5 37.5 102 104t37.5 151.5q0 70 -26 128t-72 98l-307 -491q59 -28 124 -28q77 0 141.5 37.5z" />
    <glyph glyph-name="Ugrave" unicode="&#xd9;" horiz-adv-x="655" 
d="M191 19.5q-60 35.5 -93 99t-33 146.5v451h85v-455q0 -87 46 -141.5t132 -54.5t132.5 54.5t46.5 141.5v455h85v-451q0 -83 -31.5 -147t-91.5 -99t-141 -35q-77 0 -137 35.5zM221 900h93l52 -127h-75z" />
    <glyph glyph-name="Uacute" unicode="&#xda;" horiz-adv-x="655" 
d="M191 19.5q-60 35.5 -93 99t-33 146.5v451h85v-455q0 -87 46 -141.5t132 -54.5t132.5 54.5t46.5 141.5v455h85v-451q0 -83 -31.5 -147t-91.5 -99t-141 -35q-77 0 -137 35.5zM343 900h93l-71 -127h-74z" />
    <glyph glyph-name="Ucircumflex" unicode="&#xdb;" horiz-adv-x="655" 
d="M191 19.5q-60 35.5 -93 99t-33 146.5v451h85v-455q0 -87 46 -141.5t132 -54.5t132.5 54.5t46.5 141.5v455h85v-451q0 -83 -31.5 -147t-91.5 -99t-141 -35q-77 0 -137 35.5zM189 784l102 116h75l102 -116v-5h-82l-54 63h-8l-53 -63h-82v5z" />
    <glyph glyph-name="Udieresis" unicode="&#xdc;" horiz-adv-x="655" 
d="M191 19.5q-60 35.5 -93 99t-33 146.5v451h85v-455q0 -87 46 -141.5t132 -54.5t132.5 54.5t46.5 141.5v455h85v-451q0 -83 -31.5 -147t-91.5 -99t-141 -35q-77 0 -137 35.5zM208 805.5q-16 16.5 -16 37.5q0 23 16 38.5t38 15.5q23 0 38 -15.5t15 -38.5q0 -22 -15 -38
t-38 -16q-22 0 -38 16.5zM372.5 805.5q-16.5 16.5 -16.5 37.5q0 23 16 38.5t38 15.5q23 0 38.5 -15.5t15.5 -38.5q0 -22 -15.5 -38t-38.5 -16q-21 0 -37.5 16.5z" />
    <glyph glyph-name="Yacute" unicode="&#xdd;" horiz-adv-x="594" 
d="M257 331l-243 385h99l184 -300h4l180 300h99l-239 -385v-331h-84v331zM312 900h93l-71 -127h-74z" />
    <glyph glyph-name="Thorn" unicode="&#xde;" horiz-adv-x="574" 
d="M79 716h85v-123h156q60 0 111.5 -27t82 -75.5t30.5 -109.5t-30.5 -109.5t-82 -75.5t-111.5 -27h-156v-169h-85v716zM323 250q40 0 70.5 19t47 49t16.5 63t-16.5 63t-47 49t-70.5 19h-159v-262h159z" />
    <glyph glyph-name="germandbls" unicode="&#xdf;" horiz-adv-x="569" 
d="M249 -3v80q28 -4 55 -4q60 0 100.5 39t40.5 97q0 37 -20.5 68t-55 49t-74.5 18h-38v78h27q60 0 94.5 32.5t34.5 85.5q0 49 -35.5 80t-86.5 31q-59 0 -92.5 -36.5t-33.5 -98.5v-516h-87v516q0 62 25 111t73.5 77t114.5 28q60 0 107.5 -25t74 -68.5t26.5 -98.5
q0 -106 -89 -151v-4q53 -21 87 -66t34 -110q0 -62 -29 -111.5t-81 -77.5t-117 -28q-30 0 -55 5z" />
    <glyph glyph-name="agrave" unicode="&#xe0;" horiz-adv-x="522" 
d="M125.5 5.5q-43.5 21.5 -68 60t-24.5 86.5q0 79 59.5 123t152.5 44q46 0 83 -10t59 -22v26q0 36 -18.5 64.5t-49.5 44t-67 15.5q-85 0 -130 -69l-71 47q31 46 82 71.5t115 25.5q102 0 161 -55t59 -148v-309h-81v73h-4q-24 -38 -65 -63.5t-95 -25.5t-97.5 21.5zM306 80
q36 21 58.5 57t22.5 78q-56 36 -129 36q-63 0 -100.5 -28.5t-37.5 -72.5q0 -40 33 -65.5t77 -25.5q40 0 76 21zM147 722h93l52 -127h-75z" />
    <glyph glyph-name="aacute" unicode="&#xe1;" horiz-adv-x="522" 
d="M125.5 5.5q-43.5 21.5 -68 60t-24.5 86.5q0 79 59.5 123t152.5 44q46 0 83 -10t59 -22v26q0 36 -18.5 64.5t-49.5 44t-67 15.5q-85 0 -130 -69l-71 47q31 46 82 71.5t115 25.5q102 0 161 -55t59 -148v-309h-81v73h-4q-24 -38 -65 -63.5t-95 -25.5t-97.5 21.5zM306 80
q36 21 58.5 57t22.5 78q-56 36 -129 36q-63 0 -100.5 -28.5t-37.5 -72.5q0 -40 33 -65.5t77 -25.5q40 0 76 21zM269 722h93l-71 -127h-74z" />
    <glyph glyph-name="acircumflex" unicode="&#xe2;" horiz-adv-x="522" 
d="M125.5 5.5q-43.5 21.5 -68 60t-24.5 86.5q0 79 59.5 123t152.5 44q46 0 83 -10t59 -22v26q0 36 -18.5 64.5t-49.5 44t-67 15.5q-85 0 -130 -69l-71 47q31 46 82 71.5t115 25.5q102 0 161 -55t59 -148v-309h-81v73h-4q-24 -38 -65 -63.5t-95 -25.5t-97.5 21.5zM306 80
q36 21 58.5 57t22.5 78q-56 36 -129 36q-63 0 -100.5 -28.5t-37.5 -72.5q0 -40 33 -65.5t77 -25.5q40 0 76 21zM115 606l102 116h75l102 -116v-5h-82l-54 63h-8l-53 -63h-82v5z" />
    <glyph glyph-name="atilde" unicode="&#xe3;" horiz-adv-x="522" 
d="M125.5 5.5q-43.5 21.5 -68 60t-24.5 86.5q0 79 59.5 123t152.5 44q46 0 83 -10t59 -22v26q0 36 -18.5 64.5t-49.5 44t-67 15.5q-85 0 -130 -69l-71 47q31 46 82 71.5t115 25.5q102 0 161 -55t59 -148v-309h-81v73h-4q-24 -38 -65 -63.5t-95 -25.5t-97.5 21.5zM306 80
q36 21 58.5 57t22.5 78q-56 36 -129 36q-63 0 -100.5 -28.5t-37.5 -72.5q0 -40 33 -65.5t77 -25.5q40 0 76 21zM275.5 610q-18.5 8 -41.5 22q-29 18 -40 18q-33 0 -36 -38h-70q0 56 33 85t74 29q31 0 80 -30q30 -17 39 -17q33 0 36 37h70q0 -55 -33.5 -84.5t-74.5 -29.5
q-18 0 -36.5 8z" />
    <glyph glyph-name="adieresis" unicode="&#xe4;" horiz-adv-x="522" 
d="M125.5 5.5q-43.5 21.5 -68 60t-24.5 86.5q0 79 59.5 123t152.5 44q46 0 83 -10t59 -22v26q0 36 -18.5 64.5t-49.5 44t-67 15.5q-85 0 -130 -69l-71 47q31 46 82 71.5t115 25.5q102 0 161 -55t59 -148v-309h-81v73h-4q-24 -38 -65 -63.5t-95 -25.5t-97.5 21.5zM306 80
q36 21 58.5 57t22.5 78q-56 36 -129 36q-63 0 -100.5 -28.5t-37.5 -72.5q0 -40 33 -65.5t77 -25.5q40 0 76 21zM134 627.5q-16 16.5 -16 37.5q0 23 16 38.5t38 15.5q23 0 38 -15.5t15 -38.5q0 -22 -15 -38t-38 -16q-22 0 -38 16.5zM298.5 627.5q-16.5 16.5 -16.5 37.5
q0 23 16 38.5t38 15.5q23 0 38.5 -15.5t15.5 -38.5q0 -22 -15.5 -38t-38.5 -16q-21 0 -37.5 16.5z" />
    <glyph glyph-name="aring" unicode="&#xe5;" horiz-adv-x="522" 
d="M125.5 5.5q-43.5 21.5 -68 60t-24.5 86.5q0 79 59.5 123t152.5 44q46 0 83 -10t59 -22v26q0 36 -18.5 64.5t-49.5 44t-67 15.5q-85 0 -130 -69l-71 47q31 46 82 71.5t115 25.5q102 0 161 -55t59 -148v-309h-81v73h-4q-24 -38 -65 -63.5t-95 -25.5t-97.5 21.5zM306 80
q36 21 58.5 57t22.5 78q-56 36 -129 36q-63 0 -100.5 -28.5t-37.5 -72.5q0 -40 33 -65.5t77 -25.5q40 0 76 21zM181 605q-30 30 -30 73q0 44 30 74t73 30t73.5 -30.5t30.5 -73.5t-30.5 -73t-73.5 -30t-73 30zM287 644q14 14 14 34t-14 33.5t-33 13.5t-33 -14t-14 -33
t14 -33.5t33 -14.5t33 14z" />
    <glyph glyph-name="ae" unicode="&#xe6;" horiz-adv-x="904" 
d="M125.5 5.5q-43.5 21.5 -68 60t-24.5 86.5q0 79 59.5 123t152.5 44q46 0 84 -10t60 -22v26q0 54 -39 89t-94 35q-42 0 -73 -18.5t-49 -53.5l-75 37q24 50 73.5 80t120.5 30q65 0 114 -27.5t74 -75.5q32 48 80.5 75.5t109.5 27.5q72 0 126.5 -32.5t83.5 -91.5t29 -136
q0 -14 -2 -20h-395q2 -56 27 -94.5t63 -57.5t78 -19q51 0 86 24.5t60 67.5l74 -36q-32 -60 -88.5 -96.5t-135.5 -36.5q-69 0 -123 32.5t-84 89.5q-33 -59 -86 -90.5t-121 -31.5q-54 0 -97.5 21.5zM780 303q-2 30 -17 60t-48 51t-85 21q-57 0 -98.5 -36t-52.5 -96h301z
M306.5 80q36.5 21 59.5 57t23 78q-59 36 -131 36q-63 0 -100.5 -28.5t-37.5 -72.5q0 -40 33 -65.5t77 -25.5q40 0 76.5 21z" />
    <glyph glyph-name="ccedilla" unicode="&#xe7;" horiz-adv-x="533" 
d="M425.5 24.5q-54.5 -39.5 -133.5 -40.5l-15 -33q18 3 23 3q38 0 64.5 -27t26.5 -68q0 -40 -29 -68t-72 -28q-32 0 -57.5 19t-36.5 48l50 22q5 -15 16.5 -25.5t27.5 -10.5q20 0 32 12.5t12 30.5q0 19 -12 32t-32 13q-21 0 -35 -17l-44 20l30 81q-60 10 -107.5 46.5
t-73.5 92t-26 121.5q0 75 32.5 135t90.5 94.5t130 34.5q81 0 136 -39t80 -101l-77 -33q-40 96 -144 96q-42 0 -79.5 -23.5t-60.5 -66t-23 -97.5q0 -54 23 -97t60.5 -66.5t79.5 -23.5q53 0 91 25t57 71l75 -32q-25 -61 -79.5 -100.5z" />
    <glyph glyph-name="egrave" unicode="&#xe8;" horiz-adv-x="550" 
d="M154.5 18q-56.5 34 -88.5 94t-32 136q0 72 30 132.5t85.5 96t127.5 35.5t126.5 -32.5t83.5 -91.5t29 -136q0 -14 -2 -20h-394q2 -56 27 -94.5t62.5 -57.5t77.5 -19q94 0 145 92l75 -36q-32 -60 -88.5 -96.5t-135.5 -36.5q-72 0 -128.5 34zM426 303q-2 30 -17 60t-48.5 51
t-85.5 21q-56 0 -97 -36t-52 -96h300zM172 722h93l52 -127h-75z" />
    <glyph glyph-name="eacute" unicode="&#xe9;" horiz-adv-x="550" 
d="M154.5 18q-56.5 34 -88.5 94t-32 136q0 72 30 132.5t85.5 96t127.5 35.5t126.5 -32.5t83.5 -91.5t29 -136q0 -14 -2 -20h-394q2 -56 27 -94.5t62.5 -57.5t77.5 -19q94 0 145 92l75 -36q-32 -60 -88.5 -96.5t-135.5 -36.5q-72 0 -128.5 34zM426 303q-2 30 -17 60t-48.5 51
t-85.5 21q-56 0 -97 -36t-52 -96h300zM294 722h93l-71 -127h-74z" />
    <glyph glyph-name="ecircumflex" unicode="&#xea;" horiz-adv-x="550" 
d="M154.5 18q-56.5 34 -88.5 94t-32 136q0 72 30 132.5t85.5 96t127.5 35.5t126.5 -32.5t83.5 -91.5t29 -136q0 -14 -2 -20h-394q2 -56 27 -94.5t62.5 -57.5t77.5 -19q94 0 145 92l75 -36q-32 -60 -88.5 -96.5t-135.5 -36.5q-72 0 -128.5 34zM426 303q-2 30 -17 60t-48.5 51
t-85.5 21q-56 0 -97 -36t-52 -96h300zM140 606l102 116h75l102 -116v-5h-82l-54 63h-8l-53 -63h-82v5z" />
    <glyph glyph-name="edieresis" unicode="&#xeb;" horiz-adv-x="550" 
d="M154.5 18q-56.5 34 -88.5 94t-32 136q0 72 30 132.5t85.5 96t127.5 35.5t126.5 -32.5t83.5 -91.5t29 -136q0 -14 -2 -20h-394q2 -56 27 -94.5t62.5 -57.5t77.5 -19q94 0 145 92l75 -36q-32 -60 -88.5 -96.5t-135.5 -36.5q-72 0 -128.5 34zM426 303q-2 30 -17 60t-48.5 51
t-85.5 21q-56 0 -97 -36t-52 -96h300zM159 627.5q-16 16.5 -16 37.5q0 23 16 38.5t38 15.5q23 0 38 -15.5t15 -38.5q0 -22 -15 -38t-38 -16q-22 0 -38 16.5zM323.5 627.5q-16.5 16.5 -16.5 37.5q0 23 16 38.5t38 15.5q23 0 38.5 -15.5t15.5 -38.5q0 -22 -15.5 -38t-38.5 -16
q-21 0 -37.5 16.5z" />
    <glyph glyph-name="igrave" unicode="&#xec;" horiz-adv-x="224" 
d="M70 496h84v-496h-84v496zM5 722h93l52 -127h-75z" />
    <glyph glyph-name="iacute" unicode="&#xed;" horiz-adv-x="224" 
d="M70 496h84v-496h-84v496zM127 722h93l-71 -127h-74z" />
    <glyph glyph-name="icircumflex" unicode="&#xee;" horiz-adv-x="224" 
d="M70 496h84v-496h-84v496zM-27 606l102 116h75l102 -116v-5h-82l-54 63h-8l-53 -63h-82v5z" />
    <glyph glyph-name="idieresis" unicode="&#xef;" horiz-adv-x="224" 
d="M8 627.5q-16 16.5 -16 37.5q0 23 16 38.5t38 15.5q23 0 38 -15.5t15 -38.5q0 -22 -15 -38t-38 -16q-22 0 -38 16.5zM141 627.5q-16 16.5 -16 37.5q0 23 16 38.5t38 15.5q23 0 38 -15.5t15 -38.5q0 -22 -15 -38t-38 -16q-22 0 -38 16.5zM70 496h84v-496h-84v496z" />
    <glyph glyph-name="eth" unicode="&#xf0;" horiz-adv-x="581" 
d="M167.5 17.5q-56.5 33.5 -89.5 91.5t-33 126q0 71 33.5 126.5t88 86.5t116.5 31q47 0 82.5 -16.5t53.5 -37.5l4 3q-33 83 -99 138l-133 -59l-26 63l93 40q-54 30 -116 45l28 71q102 -29 172 -79l100 45l26 -62l-67 -30q67 -65 101 -151.5t34 -188.5q0 -81 -30.5 -143.5
t-86.5 -97.5t-129 -35q-66 0 -122.5 33.5zM370.5 86.5q36.5 21.5 58 60t21.5 87.5q0 48 -21.5 86t-58 59.5t-78.5 21.5q-44 0 -80.5 -21t-58 -59.5t-21.5 -86.5q0 -49 21.5 -87.5t57.5 -60t79 -21.5q44 0 80.5 21.5z" />
    <glyph glyph-name="ntilde" unicode="&#xf1;" horiz-adv-x="554" 
d="M62 496h81v-74h4q21 38 66 64t96 26q91 0 138.5 -53t47.5 -145v-314h-84v301q0 134 -125 134q-40 0 -72 -23t-49.5 -60t-17.5 -78v-274h-85v496zM308.5 610q-18.5 8 -41.5 22q-29 18 -40 18q-33 0 -36 -38h-70q0 56 33 85t74 29q31 0 80 -30q30 -17 39 -17q33 0 36 37h70
q0 -55 -33.5 -84.5t-74.5 -29.5q-18 0 -36.5 8z" />
    <glyph glyph-name="ograve" unicode="&#xf2;" horiz-adv-x="577" 
d="M157 18.5q-58 34.5 -90.5 95t-32.5 134.5t32.5 134.5t90.5 95t131 34.5t131.5 -34.5t91 -95t32.5 -134.5t-32.5 -134.5t-91 -95t-131.5 -34.5t-131 34.5zM372 84q39 23 62.5 65.5t23.5 98.5t-23.5 98.5t-62.5 65.5t-84 23q-44 0 -83 -23t-62.5 -65.5t-23.5 -98.5
t23.5 -98.5t62.5 -65.5t83 -23q45 0 84 23zM181 722h93l52 -127h-75z" />
    <glyph glyph-name="oacute" unicode="&#xf3;" horiz-adv-x="577" 
d="M157 18.5q-58 34.5 -90.5 95t-32.5 134.5t32.5 134.5t90.5 95t131 34.5t131.5 -34.5t91 -95t32.5 -134.5t-32.5 -134.5t-91 -95t-131.5 -34.5t-131 34.5zM372 84q39 23 62.5 65.5t23.5 98.5t-23.5 98.5t-62.5 65.5t-84 23q-44 0 -83 -23t-62.5 -65.5t-23.5 -98.5
t23.5 -98.5t62.5 -65.5t83 -23q45 0 84 23zM303 722h93l-71 -127h-74z" />
    <glyph glyph-name="ocircumflex" unicode="&#xf4;" horiz-adv-x="577" 
d="M157 18.5q-58 34.5 -90.5 95t-32.5 134.5t32.5 134.5t90.5 95t131 34.5t131.5 -34.5t91 -95t32.5 -134.5t-32.5 -134.5t-91 -95t-131.5 -34.5t-131 34.5zM372 84q39 23 62.5 65.5t23.5 98.5t-23.5 98.5t-62.5 65.5t-84 23q-44 0 -83 -23t-62.5 -65.5t-23.5 -98.5
t23.5 -98.5t62.5 -65.5t83 -23q45 0 84 23zM149 606l102 116h75l102 -116v-5h-82l-54 63h-8l-53 -63h-82v5z" />
    <glyph glyph-name="otilde" unicode="&#xf5;" horiz-adv-x="577" 
d="M157 18.5q-58 34.5 -90.5 95t-32.5 134.5t32.5 134.5t90.5 95t131 34.5t131.5 -34.5t91 -95t32.5 -134.5t-32.5 -134.5t-91 -95t-131.5 -34.5t-131 34.5zM372 84q39 23 62.5 65.5t23.5 98.5t-23.5 98.5t-62.5 65.5t-84 23q-44 0 -83 -23t-62.5 -65.5t-23.5 -98.5
t23.5 -98.5t62.5 -65.5t83 -23q45 0 84 23zM309.5 610q-18.5 8 -41.5 22q-29 18 -40 18q-33 0 -36 -38h-70q0 56 33 85t74 29q31 0 80 -30q30 -17 39 -17q33 0 36 37h70q0 -55 -33.5 -84.5t-74.5 -29.5q-18 0 -36.5 8z" />
    <glyph glyph-name="odieresis" unicode="&#xf6;" horiz-adv-x="577" 
d="M157 18.5q-58 34.5 -90.5 95t-32.5 134.5t32.5 134.5t90.5 95t131 34.5t131.5 -34.5t91 -95t32.5 -134.5t-32.5 -134.5t-91 -95t-131.5 -34.5t-131 34.5zM372 84q39 23 62.5 65.5t23.5 98.5t-23.5 98.5t-62.5 65.5t-84 23q-44 0 -83 -23t-62.5 -65.5t-23.5 -98.5
t23.5 -98.5t62.5 -65.5t83 -23q45 0 84 23zM168 627.5q-16 16.5 -16 37.5q0 23 16 38.5t38 15.5q23 0 38 -15.5t15 -38.5q0 -22 -15 -38t-38 -16q-22 0 -38 16.5zM332.5 627.5q-16.5 16.5 -16.5 37.5q0 23 16 38.5t38 15.5q23 0 38.5 -15.5t15.5 -38.5q0 -22 -15.5 -38
t-38.5 -16q-21 0 -37.5 16.5z" />
    <glyph glyph-name="divide" unicode="&#xf7;" horiz-adv-x="547" 
d="M228.5 413.5q-18.5 18.5 -18.5 44.5q0 27 18.5 45.5t45.5 18.5q26 0 44.5 -18.5t18.5 -45.5q0 -26 -18.5 -44.5t-44.5 -18.5q-27 0 -45.5 18.5zM56 306h435v-70h-435v70zM228.5 38.5q-18.5 18.5 -18.5 45.5q0 26 18.5 44.5t45.5 18.5q26 0 44.5 -18.5t18.5 -44.5
q0 -27 -18.5 -45.5t-44.5 -18.5q-27 0 -45.5 18.5z" />
    <glyph glyph-name="oslash" unicode="&#xf8;" horiz-adv-x="577" 
d="M519.5 363.5q23.5 -53.5 23.5 -115.5q0 -74 -32.5 -134.5t-91 -95t-131.5 -34.5q-58 0 -111 24l-25 -40l-55 31l27 43q-43 37 -66.5 90t-23.5 116q0 74 32.5 134.5t90.5 95t131 34.5q61 0 114 -25l26 42l54 -32l-28 -44q42 -36 65.5 -89.5zM168 113l191 306
q-35 16 -71 16q-44 0 -83 -23t-62.5 -65.5t-23.5 -98.5q0 -83 49 -135zM372 84q39 23 62.5 65.5t23.5 98.5q0 80 -48 133l-191 -305q33 -15 69 -15q45 0 84 23z" />
    <glyph glyph-name="ugrave" unicode="&#xf9;" horiz-adv-x="554" 
d="M105.5 37q-47.5 53 -47.5 147v312h85v-298q0 -137 123 -137q41 0 73.5 23t50 60t17.5 78v274h84v-496h-80v74h-4q-22 -38 -66.5 -64t-95.5 -26q-92 0 -139.5 53zM168 722h93l52 -127h-75z" />
    <glyph glyph-name="uacute" unicode="&#xfa;" horiz-adv-x="554" 
d="M105.5 37q-47.5 53 -47.5 147v312h85v-298q0 -137 123 -137q41 0 73.5 23t50 60t17.5 78v274h84v-496h-80v74h-4q-22 -38 -66.5 -64t-95.5 -26q-92 0 -139.5 53zM290 722h93l-71 -127h-74z" />
    <glyph glyph-name="ucircumflex" unicode="&#xfb;" horiz-adv-x="554" 
d="M105.5 37q-47.5 53 -47.5 147v312h85v-298q0 -137 123 -137q41 0 73.5 23t50 60t17.5 78v274h84v-496h-80v74h-4q-22 -38 -66.5 -64t-95.5 -26q-92 0 -139.5 53zM136 606l102 116h75l102 -116v-5h-82l-54 63h-8l-53 -63h-82v5z" />
    <glyph glyph-name="udieresis" unicode="&#xfc;" horiz-adv-x="554" 
d="M105.5 37q-47.5 53 -47.5 147v312h85v-298q0 -137 123 -137q41 0 73.5 23t50 60t17.5 78v274h84v-496h-80v74h-4q-22 -38 -66.5 -64t-95.5 -26q-92 0 -139.5 53zM155 627.5q-16 16.5 -16 37.5q0 23 16 38.5t38 15.5q23 0 38 -15.5t15 -38.5q0 -22 -15 -38t-38 -16
q-22 0 -38 16.5zM319.5 627.5q-16.5 16.5 -16.5 37.5q0 23 16 38.5t38 15.5q23 0 38.5 -15.5t15.5 -38.5q0 -22 -15.5 -38t-38.5 -16q-21 0 -37.5 16.5z" />
    <glyph glyph-name="yacute" unicode="&#xfd;" horiz-adv-x="503" 
d="M213 32l-206 464h92l154 -365h2l149 365h92l-310 -712h-87zM267 722h93l-71 -127h-74z" />
    <glyph glyph-name="thorn" unicode="&#xfe;" horiz-adv-x="588" 
d="M60 716h85v-225l-4 -68h4q24 38 69 63.5t104 25.5q64 0 118 -34.5t86 -94.5t32 -135t-32 -135t-86 -94.5t-118 -34.5q-59 0 -104.5 25.5t-68.5 64.5h-4l4 -68v-222h-85v932zM386.5 84q37.5 23 60 65.5t22.5 98.5t-22.5 98.5t-60 65.5t-81.5 23t-81.5 -22.5t-60 -65
t-22.5 -99.5q0 -56 22.5 -99t60 -65.5t81.5 -22.5t81.5 23z" />
    <glyph glyph-name="ydieresis" unicode="&#xff;" horiz-adv-x="503" 
d="M213 32l-206 464h92l154 -365h2l149 365h92l-310 -712h-87zM132 627.5q-16 16.5 -16 37.5q0 23 16 38.5t38 15.5q23 0 38 -15.5t15 -38.5q0 -22 -15 -38t-38 -16q-22 0 -38 16.5zM296.5 627.5q-16.5 16.5 -16.5 37.5q0 23 16 38.5t38 15.5q23 0 38.5 -15.5t15.5 -38.5
q0 -22 -15.5 -38t-38.5 -16q-21 0 -37.5 16.5z" />
    <glyph glyph-name="Amacron" unicode="&#x100;" horiz-adv-x="668" 
d="M286 716h96l272 -716h-94l-71 197h-309l-72 -197h-94zM459 277l-95 258l-28 77h-4l-29 -77l-94 -258h250zM196 876h277v-66h-277v66z" />
    <glyph glyph-name="amacron" unicode="&#x101;" horiz-adv-x="522" 
d="M125.5 5.5q-43.5 21.5 -68 60t-24.5 86.5q0 79 59.5 123t152.5 44q46 0 83 -10t59 -22v26q0 36 -18.5 64.5t-49.5 44t-67 15.5q-85 0 -130 -69l-71 47q31 46 82 71.5t115 25.5q102 0 161 -55t59 -148v-309h-81v73h-4q-24 -38 -65 -63.5t-95 -25.5t-97.5 21.5zM306 80
q36 21 58.5 57t22.5 78q-56 36 -129 36q-63 0 -100.5 -28.5t-37.5 -72.5q0 -40 33 -65.5t77 -25.5q40 0 76 21zM116 698h277v-66h-277v66z" />
    <glyph glyph-name="Abreve" unicode="&#x102;" horiz-adv-x="668" 
d="M286 716h96l272 -716h-94l-71 197h-309l-72 -197h-94zM459 277l-95 258l-28 77h-4l-29 -77l-94 -258h250zM272.5 788.5q-29.5 16.5 -47.5 45t-18 62.5h69q0 -25 16 -42.5t43 -17.5q25 0 41 17.5t16 42.5h68q0 -34 -17.5 -62.5t-46.5 -45t-61 -16.5q-33 0 -62.5 16.5z" />
    <glyph glyph-name="abreve" unicode="&#x103;" horiz-adv-x="522" 
d="M125.5 5.5q-43.5 21.5 -68 60t-24.5 86.5q0 79 59.5 123t152.5 44q46 0 83 -10t59 -22v26q0 36 -18.5 64.5t-49.5 44t-67 15.5q-85 0 -130 -69l-71 47q31 46 82 71.5t115 25.5q102 0 161 -55t59 -148v-309h-81v73h-4q-24 -38 -65 -63.5t-95 -25.5t-97.5 21.5zM306 80
q36 21 58.5 57t22.5 78q-56 36 -129 36q-63 0 -100.5 -28.5t-37.5 -72.5q0 -40 33 -65.5t77 -25.5q40 0 76 21zM192.5 610.5q-29.5 16.5 -47.5 45t-18 62.5h69q0 -24 16 -42t43 -18q25 0 41 18t16 42h68q0 -34 -17.5 -62.5t-46.5 -45t-61 -16.5q-33 0 -62.5 16.5z" />
    <glyph glyph-name="Aogonek" unicode="&#x104;" horiz-adv-x="668" 
d="M537.5 -191q-32.5 33 -32.5 83q0 35 15.5 60.5t39.5 47.5l-71 197h-309l-72 -197h-94l272 716h96l272 -716q-36 -28 -54.5 -50t-18.5 -50q0 -23 13.5 -38.5t36.5 -15.5q21 0 41 10v-72q-12 -5 -21 -6.5t-26 -1.5q-55 0 -87.5 33zM459 277l-95 258l-28 77h-4l-29 -77
l-94 -258h250z" />
    <glyph glyph-name="aogonek" unicode="&#x105;" horiz-adv-x="522" 
d="M351.5 -191.5q-32.5 32.5 -32.5 79.5q0 38 20 66t48 46v73h-4q-24 -38 -65 -63.5t-95 -25.5t-97.5 21.5t-68 60t-24.5 86.5q0 79 59.5 123t152.5 44q46 0 83 -10t59 -22v26q0 36 -18.5 64.5t-49.5 44t-67 15.5q-85 0 -130 -69l-71 47q31 46 82 71.5t115 25.5
q102 0 161 -55t59 -148v-309q-36 -28 -54.5 -50t-18.5 -50q0 -23 14 -38.5t37 -15.5q20 0 40 10v-72q-18 -8 -47 -8q-55 0 -87.5 32.5zM306 80q36 21 58.5 57t22.5 78q-56 36 -129 36q-63 0 -100.5 -28.5t-37.5 -72.5q0 -40 33 -65.5t77 -25.5q40 0 76 21z" />
    <glyph glyph-name="Cacute" unicode="&#x106;" horiz-adv-x="738" 
d="M226 33q-85 49 -133.5 135t-48.5 190t48.5 190t133.5 135t188 49q81 0 147.5 -30.5t114.5 -86.5l-60 -59q-40 49 -89.5 72t-112.5 23q-77 0 -142 -36.5t-103.5 -103t-38.5 -153.5t38.5 -153.5t103.5 -103t142 -36.5q131 0 222 107l61 -60q-49 -59 -122 -93.5t-161 -34.5
q-103 0 -188 49zM422 900h93l-71 -127h-74z" />
    <glyph glyph-name="cacute" unicode="&#x107;" horiz-adv-x="533" 
d="M157 18.5q-58 34.5 -90.5 95t-32.5 134.5q0 75 32.5 135t90.5 94.5t130 34.5q81 0 136 -39t80 -101l-77 -33q-40 96 -144 96q-42 0 -79.5 -23.5t-60.5 -66t-23 -97.5q0 -54 23 -97t60.5 -66.5t79.5 -23.5q53 0 91 25t57 71l75 -32q-25 -62 -81 -101.5t-137 -39.5
q-72 0 -130 34.5zM299 722h93l-71 -127h-74z" />
    <glyph glyph-name="Ccircumflex" unicode="&#x108;" horiz-adv-x="738" 
d="M226 33q-85 49 -133.5 135t-48.5 190t48.5 190t133.5 135t188 49q81 0 147.5 -30.5t114.5 -86.5l-60 -59q-40 49 -89.5 72t-112.5 23q-77 0 -142 -36.5t-103.5 -103t-38.5 -153.5t38.5 -153.5t103.5 -103t142 -36.5q131 0 222 107l61 -60q-49 -59 -122 -93.5t-161 -34.5
q-103 0 -188 49zM268 784l102 116h75l102 -116v-5h-82l-54 63h-8l-53 -63h-82v5z" />
    <glyph glyph-name="ccircumflex" unicode="&#x109;" horiz-adv-x="533" 
d="M157 18.5q-58 34.5 -90.5 95t-32.5 134.5q0 75 32.5 135t90.5 94.5t130 34.5q81 0 136 -39t80 -101l-77 -33q-40 96 -144 96q-42 0 -79.5 -23.5t-60.5 -66t-23 -97.5q0 -54 23 -97t60.5 -66.5t79.5 -23.5q53 0 91 25t57 71l75 -32q-25 -62 -81 -101.5t-137 -39.5
q-72 0 -130 34.5zM145 606l102 116h75l102 -116v-5h-82l-54 63h-8l-53 -63h-82v5z" />
    <glyph glyph-name="Cdotaccent" unicode="&#x10a;" horiz-adv-x="738" 
d="M226 33q-85 49 -133.5 135t-48.5 190t48.5 190t133.5 135t188 49q81 0 147.5 -30.5t114.5 -86.5l-60 -59q-40 49 -89.5 72t-112.5 23q-77 0 -142 -36.5t-103.5 -103t-38.5 -153.5t38.5 -153.5t103.5 -103t142 -36.5q131 0 222 107l61 -60q-49 -59 -122 -93.5t-161 -34.5
q-103 0 -188 49zM373 822q-15 15 -15 34q0 20 15 34.5t34 14.5q22 0 36 -14t14 -35q0 -20 -14.5 -34.5t-35.5 -14.5q-19 0 -34 15z" />
    <glyph glyph-name="cdotaccent" unicode="&#x10b;" horiz-adv-x="533" 
d="M157 18.5q-58 34.5 -90.5 95t-32.5 134.5q0 75 32.5 135t90.5 94.5t130 34.5q81 0 136 -39t80 -101l-77 -33q-40 96 -144 96q-42 0 -79.5 -23.5t-60.5 -66t-23 -97.5q0 -54 23 -97t60.5 -66.5t79.5 -23.5q53 0 91 25t57 71l75 -32q-25 -62 -81 -101.5t-137 -39.5
q-72 0 -130 34.5zM246 627.5q-16 16.5 -16 37.5q0 23 16 38.5t38 15.5q23 0 38 -15.5t15 -38.5q0 -22 -15 -38t-38 -16q-22 0 -38 16.5z" />
    <glyph glyph-name="Ccaron" unicode="&#x10c;" horiz-adv-x="738" 
d="M226 33q-85 49 -133.5 135t-48.5 190t48.5 190t133.5 135t188 49q81 0 147.5 -30.5t114.5 -86.5l-60 -59q-40 49 -89.5 72t-112.5 23q-77 0 -142 -36.5t-103.5 -103t-38.5 -153.5t38.5 -153.5t103.5 -103t142 -36.5q131 0 222 107l61 -60q-49 -59 -122 -93.5t-161 -34.5
q-103 0 -188 49zM268 895v5h82l53 -63h8l54 63h82v-5l-102 -116h-75z" />
    <glyph glyph-name="ccaron" unicode="&#x10d;" horiz-adv-x="533" 
d="M157 18.5q-58 34.5 -90.5 95t-32.5 134.5q0 75 32.5 135t90.5 94.5t130 34.5q81 0 136 -39t80 -101l-77 -33q-40 96 -144 96q-42 0 -79.5 -23.5t-60.5 -66t-23 -97.5q0 -54 23 -97t60.5 -66.5t79.5 -23.5q53 0 91 25t57 71l75 -32q-25 -62 -81 -101.5t-137 -39.5
q-72 0 -130 34.5zM145 717v5h82l53 -63h8l54 63h82v-5l-102 -116h-75z" />
    <glyph glyph-name="Dcaron" unicode="&#x10e;" horiz-adv-x="701" 
d="M79 716h217q110 0 192 -45.5t126 -126.5t44 -186t-44 -186t-126 -126.5t-192 -45.5h-217v716zM296 81q127 0 201 73t74 204t-74 204t-201 73h-132v-554h132zM179 895v5h82l53 -63h8l54 63h82v-5l-102 -116h-75z" />
    <glyph glyph-name="dcaron" unicode="&#x10f;" horiz-adv-x="668" 
d="M152 18q-54 34 -86 94.5t-32 135.5t32 135.5t86 94.5t118 34q58 0 104 -25.5t69 -63.5h4l-4 68v225h84v-716h-80v74h-4q-23 -39 -69 -64.5t-104 -25.5q-64 0 -118 34zM364.5 83.5q37.5 22.5 60 65.5t22.5 99q0 57 -22.5 99.5t-60 65t-81.5 22.5t-81.5 -23t-60 -65.5
t-22.5 -98.5t22.5 -98.5t60 -65.5t81.5 -23t81.5 22.5zM594 716h91l-32 -202h-59v202z" />
    <glyph glyph-name="Dcroat" unicode="&#x110;" horiz-adv-x="701" 
d="M79 339h-81v66h81v311h216q110 0 192 -45.5t126 -126.5t44 -186t-44 -186t-126 -126.5t-192 -45.5h-216v339zM295 81q127 0 201.5 73t74.5 204t-74.5 204t-201.5 73h-132v-230h185v-66h-185v-258h132z" />
    <glyph glyph-name="dcroat" unicode="&#x111;" horiz-adv-x="590" 
d="M591 577h-64v-577h-80v74h-4q-23 -39 -69 -64.5t-104 -25.5q-64 0 -118 34t-86 94.5t-32 135.5t32 135.5t86 94.5t118 34q58 0 104 -25.5t69 -63.5h4l-4 68v86h-150v67h150v72h84v-72h64v-67zM364.5 83.5q37.5 22.5 60 65.5t22.5 99q0 57 -22.5 99.5t-60 65t-81.5 22.5
t-81.5 -23t-60 -65.5t-22.5 -98.5t22.5 -98.5t60 -65.5t81.5 -23t81.5 22.5z" />
    <glyph glyph-name="Emacron" unicode="&#x112;" horiz-adv-x="550" 
d="M79 716h415v-81h-330v-237h298v-80h-298v-237h330v-81h-415v716zM149 876h277v-66h-277v66z" />
    <glyph glyph-name="emacron" unicode="&#x113;" horiz-adv-x="550" 
d="M154.5 18q-56.5 34 -88.5 94t-32 136q0 72 30 132.5t85.5 96t127.5 35.5t126.5 -32.5t83.5 -91.5t29 -136q0 -14 -2 -20h-394q2 -56 27 -94.5t62.5 -57.5t77.5 -19q94 0 145 92l75 -36q-32 -60 -88.5 -96.5t-135.5 -36.5q-72 0 -128.5 34zM426 303q-2 30 -17 60t-48.5 51
t-85.5 21q-56 0 -97 -36t-52 -96h300zM141 698h277v-66h-277v66z" />
    <glyph glyph-name="Ebreve" unicode="&#x114;" horiz-adv-x="550" 
d="M79 716h415v-81h-330v-237h298v-80h-298v-237h330v-81h-415v716zM225.5 788.5q-29.5 16.5 -47.5 45t-18 62.5h69q0 -25 16 -42.5t43 -17.5q25 0 41 17.5t16 42.5h68q0 -34 -17.5 -62.5t-46.5 -45t-61 -16.5q-33 0 -62.5 16.5z" />
    <glyph glyph-name="ebreve" unicode="&#x115;" horiz-adv-x="550" 
d="M154.5 18q-56.5 34 -88.5 94t-32 136q0 72 30 132.5t85.5 96t127.5 35.5t126.5 -32.5t83.5 -91.5t29 -136q0 -14 -2 -20h-394q2 -56 27 -94.5t62.5 -57.5t77.5 -19q94 0 145 92l75 -36q-32 -60 -88.5 -96.5t-135.5 -36.5q-72 0 -128.5 34zM426 303q-2 30 -17 60t-48.5 51
t-85.5 21q-56 0 -97 -36t-52 -96h300zM217.5 610.5q-29.5 16.5 -47.5 45t-18 62.5h69q0 -24 16 -42t43 -18q25 0 41 18t16 42h68q0 -34 -17.5 -62.5t-46.5 -45t-61 -16.5q-33 0 -62.5 16.5z" />
    <glyph glyph-name="Edotaccent" unicode="&#x116;" horiz-adv-x="550" 
d="M79 716h415v-81h-330v-237h298v-80h-298v-237h330v-81h-415v716zM253 822q-15 15 -15 34q0 20 15 34.5t34 14.5q22 0 36 -14t14 -35q0 -20 -14.5 -34.5t-35.5 -14.5q-19 0 -34 15z" />
    <glyph glyph-name="edotaccent" unicode="&#x117;" horiz-adv-x="550" 
d="M154.5 18q-56.5 34 -88.5 94t-32 136q0 72 30 132.5t85.5 96t127.5 35.5t126.5 -32.5t83.5 -91.5t29 -136q0 -14 -2 -20h-394q2 -56 27 -94.5t62.5 -57.5t77.5 -19q94 0 145 92l75 -36q-32 -60 -88.5 -96.5t-135.5 -36.5q-72 0 -128.5 34zM426 303q-2 30 -17 60t-48.5 51
t-85.5 21q-56 0 -97 -36t-52 -96h300zM241 627.5q-16 16.5 -16 37.5q0 23 16 38.5t38 15.5q23 0 38 -15.5t15 -38.5q0 -22 -15 -38t-38 -16q-22 0 -38 16.5z" />
    <glyph glyph-name="Eogonek" unicode="&#x118;" horiz-adv-x="550" 
d="M377.5 -191.5q-32.5 32.5 -32.5 79.5q0 63 64 112h-330v716h415v-81h-330v-237h298v-80h-298v-237h330v-81q-36 -28 -54.5 -50t-18.5 -50q0 -23 14 -38.5t37 -15.5q20 0 40 10v-72q-18 -8 -48 -8q-54 0 -86.5 32.5z" />
    <glyph glyph-name="eogonek" unicode="&#x119;" horiz-adv-x="550" 
d="M276.5 -191.5q-32.5 32.5 -32.5 79.5q0 28 15 53t36 43h-12q-72 0 -128.5 34t-88.5 94t-32 136q0 72 30 132.5t85.5 96t127.5 35.5t126.5 -32.5t83.5 -91.5t29 -136q0 -14 -2 -20h-394q2 -56 27 -94.5t62.5 -57.5t77.5 -19q94 0 145 92l75 -36q-29 -54 -88 -96
q-49 -33 -74 -62.5t-25 -58.5q0 -23 13.5 -38.5t36.5 -15.5q21 0 40 10v-72q-18 -8 -47 -8q-54 0 -86.5 32.5zM426 303q-2 30 -17 60t-48.5 51t-85.5 21q-56 0 -97 -36t-52 -96h300z" />
    <glyph glyph-name="Ecaron" unicode="&#x11a;" horiz-adv-x="550" 
d="M79 716h415v-81h-330v-237h298v-80h-298v-237h330v-81h-415v716zM148 895v5h82l53 -63h8l54 63h82v-5l-102 -116h-75z" />
    <glyph glyph-name="ecaron" unicode="&#x11b;" horiz-adv-x="550" 
d="M154.5 18q-56.5 34 -88.5 94t-32 136q0 72 30 132.5t85.5 96t127.5 35.5t126.5 -32.5t83.5 -91.5t29 -136q0 -14 -2 -20h-394q2 -56 27 -94.5t62.5 -57.5t77.5 -19q94 0 145 92l75 -36q-32 -60 -88.5 -96.5t-135.5 -36.5q-72 0 -128.5 34zM426 303q-2 30 -17 60t-48.5 51
t-85.5 21q-56 0 -97 -36t-52 -96h300zM140 717v5h82l53 -63h8l54 63h82v-5l-102 -116h-75z" />
    <glyph glyph-name="Gcircumflex" unicode="&#x11c;" horiz-adv-x="811" 
d="M228.5 33q-85.5 49 -135 135t-49.5 190t49.5 190t135 135t186.5 49q79 0 148.5 -28t114.5 -79l-61 -61q-34 42 -87.5 64.5t-114.5 22.5q-75 0 -140.5 -36.5t-105 -103t-39.5 -153.5t39.5 -153.5t105 -103t140.5 -36.5q72 0 120.5 22.5t84.5 59.5q26 28 42 68t19 87h-264
v79h344q5 -28 5 -52q0 -66 -21 -128.5t-67 -109.5q-101 -107 -263 -107q-101 0 -186.5 49zM276 784l102 116h75l102 -116v-5h-82l-54 63h-8l-53 -63h-82v5z" />
    <glyph glyph-name="gcircumflex" unicode="&#x11d;" horiz-adv-x="588" 
d="M133 -189q-57 43 -77 100l79 33q15 -44 53.5 -71.5t91.5 -27.5q79 0 121.5 46.5t42.5 129.5v53h-4q-24 -38 -69 -63t-102 -25q-63 0 -117 34t-86 94t-32 135t32 135t86 94t117 34q57 0 102 -25t69 -63h4v72h81v-476q0 -82 -32 -139t-87.5 -85t-125.5 -28q-90 0 -147 43z
M363 85.5q37 22.5 59.5 64.5t22.5 99t-22.5 99.5t-59.5 64.5t-81 22t-81 -22.5t-59.5 -64.5t-22.5 -99t22.5 -99t59.5 -64.5t81 -22.5t81 22.5zM149 606l102 116h75l102 -116v-5h-82l-54 63h-8l-53 -63h-82v5z" />
    <glyph glyph-name="Gbreve" unicode="&#x11e;" horiz-adv-x="811" 
d="M228.5 33q-85.5 49 -135 135t-49.5 190t49.5 190t135 135t186.5 49q79 0 148.5 -28t114.5 -79l-61 -61q-34 42 -87.5 64.5t-114.5 22.5q-75 0 -140.5 -36.5t-105 -103t-39.5 -153.5t39.5 -153.5t105 -103t140.5 -36.5q72 0 120.5 22.5t84.5 59.5q26 28 42 68t19 87h-264
v79h344q5 -28 5 -52q0 -66 -21 -128.5t-67 -109.5q-101 -107 -263 -107q-101 0 -186.5 49zM353.5 788.5q-29.5 16.5 -47.5 45t-18 62.5h69q0 -25 16 -42.5t43 -17.5q25 0 41 17.5t16 42.5h68q0 -34 -17.5 -62.5t-46.5 -45t-61 -16.5q-33 0 -62.5 16.5z" />
    <glyph glyph-name="gbreve" unicode="&#x11f;" horiz-adv-x="588" 
d="M133 -189q-57 43 -77 100l79 33q15 -44 53.5 -71.5t91.5 -27.5q79 0 121.5 46.5t42.5 129.5v53h-4q-24 -38 -69 -63t-102 -25q-63 0 -117 34t-86 94t-32 135t32 135t86 94t117 34q57 0 102 -25t69 -63h4v72h81v-476q0 -82 -32 -139t-87.5 -85t-125.5 -28q-90 0 -147 43z
M363 85.5q37 22.5 59.5 64.5t22.5 99t-22.5 99.5t-59.5 64.5t-81 22t-81 -22.5t-59.5 -64.5t-22.5 -99t22.5 -99t59.5 -64.5t81 -22.5t81 22.5zM226.5 610.5q-29.5 16.5 -47.5 45t-18 62.5h69q0 -24 16 -42t43 -18q25 0 41 18t16 42h68q0 -34 -17.5 -62.5t-46.5 -45
t-61 -16.5q-33 0 -62.5 16.5z" />
    <glyph glyph-name="Gdotaccent" unicode="&#x120;" horiz-adv-x="811" 
d="M228.5 33q-85.5 49 -135 135t-49.5 190t49.5 190t135 135t186.5 49q79 0 148.5 -28t114.5 -79l-61 -61q-34 42 -87.5 64.5t-114.5 22.5q-75 0 -140.5 -36.5t-105 -103t-39.5 -153.5t39.5 -153.5t105 -103t140.5 -36.5q72 0 120.5 22.5t84.5 59.5q26 28 42 68t19 87h-264
v79h344q5 -28 5 -52q0 -66 -21 -128.5t-67 -109.5q-101 -107 -263 -107q-101 0 -186.5 49zM381 822q-15 15 -15 34q0 20 15 34.5t34 14.5q22 0 36 -14t14 -35q0 -20 -14.5 -34.5t-35.5 -14.5q-19 0 -34 15z" />
    <glyph glyph-name="gdotaccent" unicode="&#x121;" horiz-adv-x="588" 
d="M133 -189q-57 43 -77 100l79 33q15 -44 53.5 -71.5t91.5 -27.5q79 0 121.5 46.5t42.5 129.5v53h-4q-24 -38 -69 -63t-102 -25q-63 0 -117 34t-86 94t-32 135t32 135t86 94t117 34q57 0 102 -25t69 -63h4v72h81v-476q0 -82 -32 -139t-87.5 -85t-125.5 -28q-90 0 -147 43z
M363 85.5q37 22.5 59.5 64.5t22.5 99t-22.5 99.5t-59.5 64.5t-81 22t-81 -22.5t-59.5 -64.5t-22.5 -99t22.5 -99t59.5 -64.5t81 -22.5t81 22.5zM250 627.5q-16 16.5 -16 37.5q0 23 16 38.5t38 15.5q23 0 38 -15.5t15 -38.5q0 -22 -15 -38t-38 -16q-22 0 -38 16.5z" />
    <glyph glyph-name="Gcommaaccent" unicode="&#x122;" horiz-adv-x="811" 
d="M228.5 33q-85.5 49 -135 135t-49.5 190t49.5 190t135 135t186.5 49q79 0 148.5 -28t114.5 -79l-61 -61q-34 42 -87.5 64.5t-114.5 22.5q-75 0 -140.5 -36.5t-105 -103t-39.5 -153.5t39.5 -153.5t105 -103t140.5 -36.5q72 0 120.5 22.5t84.5 59.5q26 28 42 68t19 87h-264
v79h344q5 -28 5 -52q0 -66 -21 -128.5t-67 -109.5q-101 -107 -263 -107q-101 0 -186.5 49zM351 -212l40 57q-18 4 -29.5 18.5t-11.5 33.5q0 21 16 38t40 17q25 0 40.5 -16.5t15.5 -41.5q0 -19 -12 -43l-61 -89z" />
    <glyph glyph-name="gcommaaccent" unicode="&#x123;" horiz-adv-x="588" 
d="M133 -189q-57 43 -77 100l79 33q15 -44 53.5 -71.5t91.5 -27.5q79 0 121.5 46.5t42.5 129.5v53h-4q-24 -38 -69 -63t-102 -25q-63 0 -117 34t-86 94t-32 135t32 135t86 94t117 34q57 0 102 -25t69 -63h4v72h81v-476q0 -82 -32 -139t-87.5 -85t-125.5 -28q-90 0 -147 43z
M363 85.5q37 22.5 59.5 64.5t22.5 99t-22.5 99.5t-59.5 64.5t-81 22t-81 -22.5t-59.5 -64.5t-22.5 -99t22.5 -99t59.5 -64.5t81 -22.5t81 22.5zM341 742l-40 -57q18 -4 29.5 -18.5t11.5 -33.5q0 -21 -16 -38t-40 -17q-25 0 -40.5 16.5t-15.5 41.5q0 19 12 43l61 89z" />
    <glyph glyph-name="Hcircumflex" unicode="&#x124;" horiz-adv-x="697" 
d="M79 716h85v-310h369v310h85v-716h-85v326h-369v-326h-85v716zM210 784l102 116h75l102 -116v-5h-82l-54 63h-8l-53 -63h-82v5z" />
    <glyph glyph-name="hcircumflex" unicode="&#x125;" horiz-adv-x="554" 
d="M62 716h85v-224l-4 -71h4q21 39 65.5 65t96.5 26q93 0 140 -54t47 -144v-314h-84v301q0 69 -33.5 101.5t-89.5 32.5q-40 0 -72.5 -23.5t-51 -62t-18.5 -79.5v-270h-85v716zM147 784l102 116h75l102 -116v-5h-82l-54 63h-8l-53 -63h-82v5z" />
    <glyph glyph-name="Hbar" unicode="&#x126;" horiz-adv-x="697" 
d="M682 509h-64v-509h-85v326h-369v-326h-85v509h-64v66h64v141h85v-141h369v141h85v-141h64v-66zM533 509h-369v-103h369v103z" />
    <glyph glyph-name="hbar" unicode="&#x127;" horiz-adv-x="554" 
d="M449 458q47 -54 47 -144v-314h-84v301q0 69 -33.5 101.5t-89.5 32.5q-40 0 -72.5 -23.5t-51 -62t-18.5 -79.5v-270h-85v577h-64v67h64v72h85v-72h150v-67h-150v-85l-4 -71h4q21 39 65.5 65t96.5 26q93 0 140 -54z" />
    <glyph glyph-name="Itilde" unicode="&#x128;" horiz-adv-x="243" 
d="M79 716h85v-716h-85v716zM144.5 787.5q-17.5 7.5 -42.5 21.5q-29 18 -40 18q-33 0 -36 -37h-70q0 38 16 63.5t41 38t50 12.5q31 0 80 -30q30 -17 39 -17q33 0 36 37h70q0 -55 -33.5 -84.5t-74.5 -29.5q-18 0 -35.5 7.5z" />
    <glyph glyph-name="itilde" unicode="&#x129;" horiz-adv-x="224" 
d="M70 496h84v-496h-84v496zM133.5 610q-18.5 8 -41.5 22q-29 18 -40 18q-33 0 -36 -38h-70q0 56 33 85t74 29q31 0 80 -30q30 -17 39 -17q33 0 36 37h70q0 -55 -33.5 -84.5t-74.5 -29.5q-18 0 -36.5 8z" />
    <glyph glyph-name="Imacron" unicode="&#x12a;" horiz-adv-x="243" 
d="M-1 876h246v-66h-246v66zM79 716h85v-716h-85v716z" />
    <glyph glyph-name="imacron" unicode="&#x12b;" horiz-adv-x="224" 
d="M70 496h84v-496h-84v496zM-26 698h277v-66h-277v66z" />
    <glyph glyph-name="Ibreve" unicode="&#x12c;" horiz-adv-x="243" 
d="M79 716h85v-716h-85v716zM60.5 788.5q-29.5 16.5 -47.5 45t-18 62.5h69q0 -25 16 -42.5t43 -17.5q25 0 41 17.5t16 42.5h68q0 -34 -17.5 -62.5t-46.5 -45t-61 -16.5q-33 0 -62.5 16.5z" />
    <glyph glyph-name="ibreve" unicode="&#x12d;" horiz-adv-x="224" 
d="M70 496h84v-496h-84v496zM50.5 610.5q-29.5 16.5 -47.5 45t-18 62.5h69q0 -24 16 -42t43 -18q25 0 41 18t16 42h68q0 -34 -17.5 -62.5t-46.5 -45t-61 -16.5q-33 0 -62.5 16.5z" />
    <glyph glyph-name="Iogonek" unicode="&#x12e;" horiz-adv-x="243" 
d="M47.5 -191.5q-32.5 32.5 -32.5 79.5q0 63 64 112v716h85v-716q-36 -28 -54.5 -50t-18.5 -50q0 -23 14 -38.5t37 -15.5q20 0 40 10v-72q-19 -8 -48 -8q-54 0 -86.5 32.5z" />
    <glyph glyph-name="iogonek" unicode="&#x12f;" horiz-adv-x="224" 
d="M69 618q-18 18 -18 43t18 43t43 18t43 -18t18 -43t-17.5 -43t-43.5 -18q-25 0 -43 18zM38.5 -191.5q-32.5 32.5 -32.5 79.5q0 63 64 112v496h84v-496q-36 -28 -54 -50t-18 -50q0 -23 13.5 -38.5t36.5 -15.5q21 0 40 10v-72q-18 -8 -47 -8q-54 0 -86.5 32.5z" />
    <glyph glyph-name="Idotaccent" unicode="&#x130;" horiz-adv-x="243" 
d="M79 716h85v-716h-85v716zM88 822q-15 15 -15 34q0 20 15 34.5t34 14.5q22 0 36 -14t14 -35q0 -20 -14.5 -34.5t-35.5 -14.5q-19 0 -34 15z" />
    <glyph glyph-name="dotlessi" unicode="&#x131;" horiz-adv-x="224" 
d="M70 496h84v-496h-84v496z" />
    <glyph glyph-name="Jcircumflex" unicode="&#x134;" horiz-adv-x="529" 
d="M109 27.5q-59 43.5 -83 122.5l79 33q36 -118 142 -118q59 0 94.5 41t35.5 108v502h85v-495q0 -75 -27.5 -128.5t-76 -81t-111.5 -27.5q-79 0 -138 43.5zM281 784l102 116h75l102 -116v-5h-82l-54 63h-8l-53 -63h-82v5z" />
    <glyph glyph-name="jcircumflex" unicode="&#x135;" horiz-adv-x="224" 
d="M-30 -220v81q22 -10 41 -10q31 0 45 19.5t14 57.5v568h84v-568q0 -77 -37 -115.5t-103 -38.5q-24 0 -44 6zM-27 606l102 116h75l102 -116v-5h-82l-54 63h-8l-53 -63h-82v5z" />
    <glyph glyph-name="Kcommaaccent" unicode="&#x136;" horiz-adv-x="624" 
d="M79 716h85v-377h4l323 377h108v-4l-264 -306l284 -402v-4h-104l-238 341l-113 -131v-210h-85v716zM257 -212l40 57q-18 4 -29.5 18.5t-11.5 33.5q0 21 16 38t40 17q25 0 40.5 -16.5t15.5 -41.5q0 -19 -12 -43l-61 -89z" />
    <glyph glyph-name="kcommaaccent" unicode="&#x137;" horiz-adv-x="494" 
d="M62 716h85v-450l227 230h109v-4l-193 -193l202 -295v-4h-101l-161 240l-83 -83v-157h-85v716zM203 -212l40 57q-18 4 -29.5 18.5t-11.5 33.5q0 21 16 38t40 17q25 0 40.5 -16.5t15.5 -41.5q0 -19 -12 -43l-61 -89z" />
    <glyph glyph-name="kgreenlandic" unicode="&#x138;" horiz-adv-x="480" 
d="M62 496h85v-224h4l209 224h107v-4l-223 -231l234 -257v-4h-105l-222 250h-4v-250h-85v496z" />
    <glyph glyph-name="Lacute" unicode="&#x139;" horiz-adv-x="507" 
d="M79 716h85v-635h314v-81h-399v716zM137 900h93l-71 -127h-74z" />
    <glyph glyph-name="lacute" unicode="&#x13a;" horiz-adv-x="209" 
d="M62 716h85v-716h-85v716zM120 900h93l-71 -127h-74z" />
    <glyph glyph-name="Lcommaaccent" unicode="&#x13b;" horiz-adv-x="507" 
d="M79 716h85v-635h314v-81h-399v716zM224 -212l40 57q-18 4 -29.5 18.5t-11.5 33.5q0 21 16 38t40 17q25 0 40.5 -16.5t15.5 -41.5q0 -19 -12 -43l-61 -89z" />
    <glyph glyph-name="lcommaaccent" unicode="&#x13c;" horiz-adv-x="209" 
d="M62 716h85v-716h-85v716zM50 -212l40 57q-18 4 -29.5 18.5t-11.5 33.5q0 21 16 38t40 17q25 0 40.5 -16.5t15.5 -41.5q0 -19 -12 -43l-61 -89z" />
    <glyph glyph-name="Lcaron" unicode="&#x13d;" horiz-adv-x="507" 
d="M79 716h85v-635h314v-81h-399v716zM316 716h91l-32 -202h-59v202z" />
    <glyph glyph-name="lcaron" unicode="&#x13e;" horiz-adv-x="307" 
d="M62 716h85v-716h-85v716zM231 716h91l-32 -202h-59v202z" />
    <glyph glyph-name="Ldot" unicode="&#x13f;" horiz-adv-x="507" 
d="M79 716h85v-635h314v-81h-399v716zM283.5 298.5q-18.5 18.5 -18.5 45.5t18.5 45.5t45.5 18.5q26 0 44.5 -18.5t18.5 -45.5t-18.5 -45.5t-44.5 -18.5q-27 0 -45.5 18.5z" />
    <glyph glyph-name="Lslash" unicode="&#x141;" horiz-adv-x="580" 
d="M152 281l-65 -40l-39 62l104 65v348h85v-289l130 81l39 -63l-169 -105v-259h314v-81h-399v281z" />
    <glyph glyph-name="lslash" unicode="&#x142;" horiz-adv-x="367" 
d="M138 302l-59 -42l-44 58l103 75v323h84v-265l74 54l44 -59l-118 -86v-360h-84v302z" />
    <glyph glyph-name="Nacute" unicode="&#x143;" horiz-adv-x="707" 
d="M79 716h105l359 -570h4l-4 138v432h84v-716h-88l-375 597h-4l4 -138v-459h-85v716zM378 900h93l-71 -127h-74z" />
    <glyph glyph-name="nacute" unicode="&#x144;" horiz-adv-x="554" 
d="M62 496h81v-74h4q21 38 66 64t96 26q91 0 138.5 -53t47.5 -145v-314h-84v301q0 134 -125 134q-40 0 -72 -23t-49.5 -60t-17.5 -78v-274h-85v496zM302 722h93l-71 -127h-74z" />
    <glyph glyph-name="Ncommaaccent" unicode="&#x145;" horiz-adv-x="707" 
d="M79 716h105l359 -570h4l-4 138v432h84v-716h-88l-375 597h-4l4 -138v-459h-85v716zM298 -212l40 57q-18 4 -29.5 18.5t-11.5 33.5q0 21 16 38t40 17q25 0 40.5 -16.5t15.5 -41.5q0 -19 -12 -43l-61 -89z" />
    <glyph glyph-name="ncommaaccent" unicode="&#x146;" horiz-adv-x="554" 
d="M62 496h81v-74h4q21 38 66 64t96 26q91 0 138.5 -53t47.5 -145v-314h-84v301q0 134 -125 134q-40 0 -72 -23t-49.5 -60t-17.5 -78v-274h-85v496zM223 -212l40 57q-18 4 -29.5 18.5t-11.5 33.5q0 21 16 38t40 17q25 0 40.5 -16.5t15.5 -41.5q0 -19 -12 -43l-61 -89z" />
    <glyph glyph-name="Ncaron" unicode="&#x147;" horiz-adv-x="707" 
d="M79 716h105l359 -570h4l-4 138v432h84v-716h-88l-375 597h-4l4 -138v-459h-85v716zM224 895v5h82l53 -63h8l54 63h82v-5l-102 -116h-75z" />
    <glyph glyph-name="ncaron" unicode="&#x148;" horiz-adv-x="554" 
d="M62 496h81v-74h4q21 38 66 64t96 26q91 0 138.5 -53t47.5 -145v-314h-84v301q0 134 -125 134q-40 0 -72 -23t-49.5 -60t-17.5 -78v-274h-85v496zM148 717v5h82l53 -63h8l54 63h82v-5l-102 -116h-75z" />
    <glyph glyph-name="Eng" unicode="&#x14a;" horiz-adv-x="707" 
d="M444 -220v81q18 -10 40 -10q31 0 45 19.5t14 57.5v75l-379 594h-4l4 -138v-459h-85v716h105l359 -570h4l-4 138v432h84v-788q0 -77 -37 -115.5t-103 -38.5q-25 0 -43 6z" />
    <glyph glyph-name="eng" unicode="&#x14b;" horiz-adv-x="554" 
d="M311 -220v81q22 -10 41 -10q31 0 45 19.5t14 57.5v373q0 134 -125 134q-40 0 -72 -23t-49.5 -60t-17.5 -78v-274h-85v496h81v-74h4q21 38 66 64t96 26q91 0 138.5 -53t47.5 -145v-386q0 -77 -37 -115.5t-103 -38.5q-24 0 -44 6z" />
    <glyph glyph-name="Omacron" unicode="&#x14c;" horiz-adv-x="822" 
d="M223.5 34q-83.5 50 -131.5 135.5t-48 188.5t48 188.5t132 135.5t187 50t187 -50t132 -136t48 -188q0 -103 -48 -188.5t-132 -135.5t-187 -50q-104 0 -187.5 50zM552.5 102.5q64.5 37.5 102 104t37.5 151.5t-37.5 151.5t-102 104t-141.5 37.5t-141.5 -37.5t-102 -104
t-37.5 -151.5t37.5 -151.5t102 -104t141.5 -37.5t141.5 37.5zM273 876h277v-66h-277v66z" />
    <glyph glyph-name="omacron" unicode="&#x14d;" horiz-adv-x="577" 
d="M157 18.5q-58 34.5 -90.5 95t-32.5 134.5t32.5 134.5t90.5 95t131 34.5t131.5 -34.5t91 -95t32.5 -134.5t-32.5 -134.5t-91 -95t-131.5 -34.5t-131 34.5zM372 84q39 23 62.5 65.5t23.5 98.5t-23.5 98.5t-62.5 65.5t-84 23q-44 0 -83 -23t-62.5 -65.5t-23.5 -98.5
t23.5 -98.5t62.5 -65.5t83 -23q45 0 84 23zM150 698h277v-66h-277v66z" />
    <glyph glyph-name="Obreve" unicode="&#x14e;" horiz-adv-x="822" 
d="M223.5 34q-83.5 50 -131.5 135.5t-48 188.5t48 188.5t132 135.5t187 50t187 -50t132 -136t48 -188q0 -103 -48 -188.5t-132 -135.5t-187 -50q-104 0 -187.5 50zM552.5 102.5q64.5 37.5 102 104t37.5 151.5t-37.5 151.5t-102 104t-141.5 37.5t-141.5 -37.5t-102 -104
t-37.5 -151.5t37.5 -151.5t102 -104t141.5 -37.5t141.5 37.5zM349.5 788.5q-29.5 16.5 -47.5 45t-18 62.5h69q0 -25 16 -42.5t43 -17.5q25 0 41 17.5t16 42.5h68q0 -34 -17.5 -62.5t-46.5 -45t-61 -16.5q-33 0 -62.5 16.5z" />
    <glyph glyph-name="obreve" unicode="&#x14f;" horiz-adv-x="577" 
d="M157 18.5q-58 34.5 -90.5 95t-32.5 134.5t32.5 134.5t90.5 95t131 34.5t131.5 -34.5t91 -95t32.5 -134.5t-32.5 -134.5t-91 -95t-131.5 -34.5t-131 34.5zM372 84q39 23 62.5 65.5t23.5 98.5t-23.5 98.5t-62.5 65.5t-84 23q-44 0 -83 -23t-62.5 -65.5t-23.5 -98.5
t23.5 -98.5t62.5 -65.5t83 -23q45 0 84 23zM226.5 610.5q-29.5 16.5 -47.5 45t-18 62.5h69q0 -24 16 -42t43 -18q25 0 41 18t16 42h68q0 -34 -17.5 -62.5t-46.5 -45t-61 -16.5q-33 0 -62.5 16.5z" />
    <glyph glyph-name="Ohungarumlaut" unicode="&#x150;" horiz-adv-x="822" 
d="M223.5 34q-83.5 50 -131.5 135.5t-48 188.5t48 188.5t132 135.5t187 50t187 -50t132 -136t48 -188q0 -103 -48 -188.5t-132 -135.5t-187 -50q-104 0 -187.5 50zM552.5 102.5q64.5 37.5 102 104t37.5 151.5t-37.5 151.5t-102 104t-141.5 37.5t-141.5 -37.5t-102 -104
t-37.5 -151.5t37.5 -151.5t102 -104t141.5 -37.5t141.5 37.5zM363 900h93l-71 -127h-74zM490 900h93l-71 -127h-74z" />
    <glyph glyph-name="ohungarumlaut" unicode="&#x151;" horiz-adv-x="577" 
d="M157 18.5q-58 34.5 -90.5 95t-32.5 134.5t32.5 134.5t90.5 95t131 34.5t131.5 -34.5t91 -95t32.5 -134.5t-32.5 -134.5t-91 -95t-131.5 -34.5t-131 34.5zM372 84q39 23 62.5 65.5t23.5 98.5t-23.5 98.5t-62.5 65.5t-84 23q-44 0 -83 -23t-62.5 -65.5t-23.5 -98.5
t23.5 -98.5t62.5 -65.5t83 -23q45 0 84 23zM224 722h93l-71 -127h-74zM383 722h93l-71 -127h-74z" />
    <glyph glyph-name="OE" unicode="&#x152;" horiz-adv-x="1162" 
d="M223.5 34q-83.5 50 -131.5 135.5t-48 188.5t48 188.5t132 135.5t187 50q89 0 161.5 -36.5t119.5 -101.5v122h414v-81h-330v-237h298v-80h-298v-237h330v-81h-414v121q-47 -64 -119.5 -100.5t-161.5 -36.5q-104 0 -187.5 50zM552.5 102.5q64.5 37.5 102 104t37.5 151.5
t-37.5 151.5t-102 104t-141.5 37.5t-141.5 -37.5t-102 -104t-37.5 -151.5t37.5 -151.5t102 -104t141.5 -37.5t141.5 37.5z" />
    <glyph glyph-name="oe" unicode="&#x153;" horiz-adv-x="976" 
d="M157 18.5q-58 34.5 -90.5 95t-32.5 134.5t32.5 134.5t90.5 95t131 34.5q71 0 126.5 -33t86.5 -91q30 57 82.5 90.5t120.5 33.5q72 0 126 -32.5t83 -91.5t29 -136l-1 -20h-395q1 -56 26.5 -94.5t63.5 -57.5t78 -19q94 0 145 92l74 -36q-31 -60 -87.5 -96.5t-135.5 -36.5
q-69 0 -123.5 32.5t-85.5 90.5q-32 -58 -87 -90.5t-126 -32.5q-73 0 -131 34.5zM372 84q39 23 62.5 65.5t23.5 98.5t-23.5 98.5t-62.5 65.5t-84 23q-44 0 -83 -23t-62.5 -65.5t-23.5 -98.5t23.5 -98.5t62.5 -65.5t83 -23q45 0 84 23zM853 303q-2 30 -17 60t-48.5 51
t-85.5 21q-57 0 -98 -36t-53 -96h302z" />
    <glyph glyph-name="Racute" unicode="&#x154;" horiz-adv-x="585" 
d="M79 716h243q59 0 110 -27t81.5 -75.5t30.5 -109.5q0 -50 -23 -93t-62 -72t-87 -39l-2 -3l201 -293v-4h-99l-195 292h-113v-292h-85v716zM316 371q38 0 70 17t51.5 47.5t19.5 68.5q0 33 -16.5 63t-47 49t-70.5 19h-159v-264h152zM295 900h93l-71 -127h-74z" />
    <glyph glyph-name="racute" unicode="&#x155;" horiz-adv-x="366" 
d="M62 496h81v-81h4q14 41 57.5 68.5t86.5 27.5q31 0 58 -9v-92q-27 15 -70 15q-35 0 -65.5 -20.5t-48.5 -54.5t-18 -74v-276h-85v496zM217 722h93l-71 -127h-74z" />
    <glyph glyph-name="Rcommaaccent" unicode="&#x156;" horiz-adv-x="585" 
d="M79 716h243q59 0 110 -27t81.5 -75.5t30.5 -109.5q0 -50 -23 -93t-62 -72t-87 -39l-2 -3l201 -293v-4h-99l-195 292h-113v-292h-85v716zM316 371q38 0 70 17t51.5 47.5t19.5 68.5q0 33 -16.5 63t-47 49t-70.5 19h-159v-264h152zM237 -212l40 57q-18 4 -29.5 18.5
t-11.5 33.5q0 21 16 38t40 17q25 0 40.5 -16.5t15.5 -41.5q0 -19 -12 -43l-61 -89z" />
    <glyph glyph-name="rcommaaccent" unicode="&#x157;" horiz-adv-x="366" 
d="M62 496h81v-81h4q14 41 57.5 68.5t86.5 27.5q31 0 58 -9v-92q-27 15 -70 15q-35 0 -65.5 -20.5t-48.5 -54.5t-18 -74v-276h-85v496zM50 -212l40 57q-18 4 -29.5 18.5t-11.5 33.5q0 21 16 38t40 17q25 0 40.5 -16.5t15.5 -41.5q0 -19 -12 -43l-61 -89z" />
    <glyph glyph-name="Rcaron" unicode="&#x158;" horiz-adv-x="585" 
d="M79 716h243q59 0 110 -27t81.5 -75.5t30.5 -109.5q0 -50 -23 -93t-62 -72t-87 -39l-2 -3l201 -293v-4h-99l-195 292h-113v-292h-85v716zM316 371q38 0 70 17t51.5 47.5t19.5 68.5q0 33 -16.5 63t-47 49t-70.5 19h-159v-264h152zM141 895v5h82l53 -63h8l54 63h82v-5
l-102 -116h-75z" />
    <glyph glyph-name="rcaron" unicode="&#x159;" horiz-adv-x="366" 
d="M62 496h81v-81h4q14 41 57.5 68.5t86.5 27.5q31 0 58 -9v-92q-27 15 -70 15q-35 0 -65.5 -20.5t-48.5 -54.5t-18 -74v-276h-85v496zM63 717v5h82l53 -63h8l54 63h82v-5l-102 -116h-75z" />
    <glyph glyph-name="Sacute" unicode="&#x15a;" horiz-adv-x="559" 
d="M173.5 6.5q-50.5 22.5 -89 66t-55.5 105.5l81 33q17 -64 63 -105t107 -41q63 0 106 33.5t43 91.5q0 50 -36.5 82.5t-119.5 60.5l-45 16q-76 27 -124 71t-48 122q0 51 28 94.5t77.5 69.5t111.5 26t108.5 -23t74 -56t37.5 -65l-79 -34q-11 38 -46 67.5t-93 29.5
q-55 0 -94 -31t-39 -78q0 -42 33 -68.5t100 -49.5l46 -16q91 -33 142.5 -82.5t51.5 -134.5q0 -69 -35.5 -116t-89.5 -69t-112 -22q-54 0 -104.5 22.5zM289 900h93l-71 -127h-74z" />
    <glyph glyph-name="sacute" unicode="&#x15b;" horiz-adv-x="463" 
d="M103 24q-55 40 -77 99l75 33q20 -47 56.5 -72t79.5 -25q48 0 79.5 21t31.5 51q0 29 -23.5 48t-80.5 33l-68 17q-56 13 -95.5 47t-39.5 90q0 46 26.5 79t70.5 50t96 17q64 0 116.5 -29.5t74.5 -83.5l-75 -32q-16 36 -48.5 53t-72.5 17q-39 0 -70.5 -19t-31.5 -49
q0 -26 20.5 -41t65.5 -27l74 -18q74 -19 110.5 -56.5t36.5 -89.5q0 -43 -25 -78t-70 -55t-102 -20q-79 0 -134 40zM249 722h93l-71 -127h-74z" />
    <glyph glyph-name="Scircumflex" unicode="&#x15c;" horiz-adv-x="559" 
d="M173.5 6.5q-50.5 22.5 -89 66t-55.5 105.5l81 33q17 -64 63 -105t107 -41q63 0 106 33.5t43 91.5q0 50 -36.5 82.5t-119.5 60.5l-45 16q-76 27 -124 71t-48 122q0 51 28 94.5t77.5 69.5t111.5 26t108.5 -23t74 -56t37.5 -65l-79 -34q-11 38 -46 67.5t-93 29.5
q-55 0 -94 -31t-39 -78q0 -42 33 -68.5t100 -49.5l46 -16q91 -33 142.5 -82.5t51.5 -134.5q0 -69 -35.5 -116t-89.5 -69t-112 -22q-54 0 -104.5 22.5zM135 784l102 116h75l102 -116v-5h-82l-54 63h-8l-53 -63h-82v5z" />
    <glyph glyph-name="scircumflex" unicode="&#x15d;" horiz-adv-x="463" 
d="M103 24q-55 40 -77 99l75 33q20 -47 56.5 -72t79.5 -25q48 0 79.5 21t31.5 51q0 29 -23.5 48t-80.5 33l-68 17q-56 13 -95.5 47t-39.5 90q0 46 26.5 79t70.5 50t96 17q64 0 116.5 -29.5t74.5 -83.5l-75 -32q-16 36 -48.5 53t-72.5 17q-39 0 -70.5 -19t-31.5 -49
q0 -26 20.5 -41t65.5 -27l74 -18q74 -19 110.5 -56.5t36.5 -89.5q0 -43 -25 -78t-70 -55t-102 -20q-79 0 -134 40zM95 606l102 116h75l102 -116v-5h-82l-54 63h-8l-53 -63h-82v5z" />
    <glyph glyph-name="Scedilla" unicode="&#x15e;" horiz-adv-x="559" 
d="M482.5 79.5q-32.5 -45.5 -83 -69t-106.5 -26.5l-15 -33q18 3 23 3q38 0 64.5 -27t26.5 -68q0 -40 -29 -68t-72 -28q-32 0 -57.5 19t-36.5 48l50 22q5 -15 16.5 -25.5t27.5 -10.5q20 0 32 12.5t12 30.5q0 19 -12 32t-32 13q-21 0 -35 -17l-44 20l30 80q-73 10 -132 60
t-81 131l81 33q17 -64 63 -105t107 -41q63 0 106 33.5t43 91.5q0 50 -36.5 82.5t-119.5 60.5l-45 16q-76 27 -124 71t-48 122q0 51 28 94.5t77.5 69.5t111.5 26t108.5 -23t74 -56t37.5 -65l-79 -34q-11 38 -46 67.5t-93 29.5q-55 0 -94 -31t-39 -78q0 -42 33 -68.5
t100 -49.5l46 -16q91 -33 142.5 -82.5t51.5 -134.5q0 -66 -32.5 -111.5z" />
    <glyph glyph-name="scedilla" unicode="&#x15f;" horiz-adv-x="463" 
d="M411.5 62.5q-22.5 -33.5 -63 -54t-92.5 -23.5l-15 -34q18 3 23 3q38 0 64.5 -27t26.5 -68q0 -40 -29 -68t-72 -28q-32 0 -57.5 19t-36.5 48l50 22q5 -15 16.5 -25.5t27.5 -10.5q20 0 32 12.5t12 30.5q0 19 -12 32t-32 13q-21 0 -35 -17l-44 20l30 79q-67 8 -113.5 46
t-65.5 91l75 33q20 -47 56.5 -72t79.5 -25q48 0 79.5 21t31.5 51q0 29 -23.5 48t-80.5 33l-68 17q-56 13 -95.5 47t-39.5 90q0 46 26.5 79t70.5 50t96 17q64 0 116.5 -29.5t74.5 -83.5l-75 -32q-16 36 -48.5 53t-72.5 17q-39 0 -70.5 -19t-31.5 -49q0 -26 20.5 -41t65.5 -27
l74 -18q74 -19 110.5 -56.5t36.5 -89.5q0 -41 -22.5 -74.5z" />
    <glyph glyph-name="Scaron" unicode="&#x160;" horiz-adv-x="559" 
d="M173.5 6.5q-50.5 22.5 -89 66t-55.5 105.5l81 33q17 -64 63 -105t107 -41q63 0 106 33.5t43 91.5q0 50 -36.5 82.5t-119.5 60.5l-45 16q-76 27 -124 71t-48 122q0 51 28 94.5t77.5 69.5t111.5 26t108.5 -23t74 -56t37.5 -65l-79 -34q-11 38 -46 67.5t-93 29.5
q-55 0 -94 -31t-39 -78q0 -42 33 -68.5t100 -49.5l46 -16q91 -33 142.5 -82.5t51.5 -134.5q0 -69 -35.5 -116t-89.5 -69t-112 -22q-54 0 -104.5 22.5zM135 895v5h82l53 -63h8l54 63h82v-5l-102 -116h-75z" />
    <glyph glyph-name="scaron" unicode="&#x161;" horiz-adv-x="463" 
d="M103 24q-55 40 -77 99l75 33q20 -47 56.5 -72t79.5 -25q48 0 79.5 21t31.5 51q0 29 -23.5 48t-80.5 33l-68 17q-56 13 -95.5 47t-39.5 90q0 46 26.5 79t70.5 50t96 17q64 0 116.5 -29.5t74.5 -83.5l-75 -32q-16 36 -48.5 53t-72.5 17q-39 0 -70.5 -19t-31.5 -49
q0 -26 20.5 -41t65.5 -27l74 -18q74 -19 110.5 -56.5t36.5 -89.5q0 -43 -25 -78t-70 -55t-102 -20q-79 0 -134 40zM95 717v5h82l53 -63h8l54 63h82v-5l-102 -116h-75z" />
    <glyph glyph-name="uni0162" unicode="&#x162;" horiz-adv-x="538" 
d="M226.5 -218q-25.5 19 -35.5 48l49 22q6 -16 17.5 -26t27.5 -10q19 0 31 12.5t12 30.5q0 19 -12 32t-31 13q-21 0 -36 -17l-44 20l35 93h-13v635h-201v81h486v-81h-201v-635h-18l-21 -49q15 3 22 3q38 0 64.5 -27t26.5 -68q0 -40 -28.5 -68t-71.5 -28q-33 0 -58.5 19z" />
    <glyph glyph-name="uni0163" unicode="&#x163;" horiz-adv-x="358" 
d="M298.5 -73q26.5 -27 26.5 -68q0 -40 -28.5 -68t-71.5 -28q-32 0 -57.5 19t-36.5 48l50 22q5 -15 16.5 -26t27.5 -11q20 0 32 13t12 31q0 19 -12 32t-31 13q-22 0 -36 -17l-44 20l41 99q-20 10 -33 23q-20 19 -29.5 44.5t-9.5 60.5v285h-88v77h88v148h84v-148h122v-77
h-122v-264q0 -42 17 -62q17 -22 52 -22q31 0 54 14v-82q-16 -6 -30.5 -8.5t-38.5 -2.5q-14 0 -20 1l-21 -42q18 3 23 3q37 0 63.5 -27z" />
    <glyph glyph-name="Tcaron" unicode="&#x164;" horiz-adv-x="538" 
d="M227 635h-201v81h486v-81h-201v-635h-84v635zM130 895v5h82l53 -63h8l54 63h82v-5l-102 -116h-75z" />
    <glyph glyph-name="tcaron" unicode="&#x165;" horiz-adv-x="356" 
d="M266 716h85l-26 -156h-59v156zM197.5 2q-25.5 10 -43.5 27q-20 19 -29.5 44.5t-9.5 60.5v285h-88v77h88v148h84v-148h122v-77h-122v-264q0 -42 17 -62q17 -22 52 -22q31 0 54 14v-82q-16 -6 -30.5 -8.5t-38.5 -2.5q-30 0 -55.5 10z" />
    <glyph glyph-name="Tbar" unicode="&#x166;" horiz-adv-x="538" 
d="M311 635v-228h130v-66h-130v-341h-84v341h-130v66h130v228h-201v81h486v-81h-201z" />
    <glyph glyph-name="tbar" unicode="&#x167;" horiz-adv-x="358" 
d="M322 85v-82q-16 -6 -30.5 -8.5t-38.5 -2.5q-30 0 -55.5 10t-43.5 27q-20 19 -29.5 44.5t-9.5 60.5v94h-88v77h88v114h-88v77h88v148h84v-148h122v-77h-122v-114h122v-77h-122v-73q0 -42 17 -62q17 -22 52 -22q31 0 54 14z" />
    <glyph glyph-name="Utilde" unicode="&#x168;" horiz-adv-x="655" 
d="M191 19.5q-60 35.5 -93 99t-33 146.5v451h85v-455q0 -87 46 -141.5t132 -54.5t132.5 54.5t46.5 141.5v455h85v-451q0 -83 -31.5 -147t-91.5 -99t-141 -35q-77 0 -137 35.5zM350.5 787.5q-17.5 7.5 -42.5 21.5q-29 18 -40 18q-33 0 -36 -37h-70q0 38 16 63.5t41 38
t50 12.5q31 0 80 -30q30 -17 39 -17q33 0 36 37h70q0 -55 -33.5 -84.5t-74.5 -29.5q-18 0 -35.5 7.5z" />
    <glyph glyph-name="utilde" unicode="&#x169;" horiz-adv-x="554" 
d="M105.5 37q-47.5 53 -47.5 147v312h85v-298q0 -137 123 -137q41 0 73.5 23t50 60t17.5 78v274h84v-496h-80v74h-4q-22 -38 -66.5 -64t-95.5 -26q-92 0 -139.5 53zM296.5 610q-18.5 8 -41.5 22q-29 18 -40 18q-33 0 -36 -38h-70q0 56 33 85t74 29q31 0 80 -30
q30 -17 39 -17q33 0 36 37h70q0 -55 -33.5 -84.5t-74.5 -29.5q-18 0 -36.5 8z" />
    <glyph glyph-name="Umacron" unicode="&#x16a;" horiz-adv-x="655" 
d="M191 19.5q-60 35.5 -93 99t-33 146.5v451h85v-455q0 -87 46 -141.5t132 -54.5t132.5 54.5t46.5 141.5v455h85v-451q0 -83 -31.5 -147t-91.5 -99t-141 -35q-77 0 -137 35.5zM190 876h277v-66h-277v66z" />
    <glyph glyph-name="umacron" unicode="&#x16b;" horiz-adv-x="554" 
d="M105.5 37q-47.5 53 -47.5 147v312h85v-298q0 -137 123 -137q41 0 73.5 23t50 60t17.5 78v274h84v-496h-80v74h-4q-22 -38 -66.5 -64t-95.5 -26q-92 0 -139.5 53zM137 698h277v-66h-277v66z" />
    <glyph glyph-name="Ubreve" unicode="&#x16c;" horiz-adv-x="655" 
d="M191 19.5q-60 35.5 -93 99t-33 146.5v451h85v-455q0 -87 46 -141.5t132 -54.5t132.5 54.5t46.5 141.5v455h85v-451q0 -83 -31.5 -147t-91.5 -99t-141 -35q-77 0 -137 35.5zM266.5 788.5q-29.5 16.5 -47.5 45t-18 62.5h69q0 -25 16 -42.5t43 -17.5q25 0 41 17.5t16 42.5
h68q0 -34 -17.5 -62.5t-46.5 -45t-61 -16.5q-33 0 -62.5 16.5z" />
    <glyph glyph-name="ubreve" unicode="&#x16d;" horiz-adv-x="554" 
d="M105.5 37q-47.5 53 -47.5 147v312h85v-298q0 -137 123 -137q41 0 73.5 23t50 60t17.5 78v274h84v-496h-80v74h-4q-22 -38 -66.5 -64t-95.5 -26q-92 0 -139.5 53zM213.5 610.5q-29.5 16.5 -47.5 45t-18 62.5h69q0 -24 16 -42t43 -18q25 0 41 18t16 42h68
q0 -34 -17.5 -62.5t-46.5 -45t-61 -16.5q-33 0 -62.5 16.5z" />
    <glyph glyph-name="Uring" unicode="&#x16e;" horiz-adv-x="655" 
d="M191 19.5q-60 35.5 -93 99t-33 146.5v451h85v-455q0 -87 46 -141.5t132 -54.5t132.5 54.5t46.5 141.5v455h85v-451q0 -83 -31.5 -147t-91.5 -99t-141 -35q-77 0 -137 35.5zM255 783q-30 30 -30 73q0 44 29.5 73.5t73.5 29.5q43 0 73.5 -30t30.5 -73t-30.5 -73t-73.5 -30
t-73 30zM361 822q14 14 14 34t-14 33.5t-33 13.5t-33 -14t-14 -33t14 -33.5t33 -14.5t33 14z" />
    <glyph glyph-name="uring" unicode="&#x16f;" horiz-adv-x="554" 
d="M105.5 37q-47.5 53 -47.5 147v312h85v-298q0 -137 123 -137q41 0 73.5 23t50 60t17.5 78v274h84v-496h-80v74h-4q-22 -38 -66.5 -64t-95.5 -26q-92 0 -139.5 53zM202 605q-30 30 -30 73q0 44 30 74t73 30t73.5 -30.5t30.5 -73.5t-30.5 -73t-73.5 -30t-73 30zM308 644
q14 14 14 34t-14 33.5t-33 13.5t-33 -14t-14 -33t14 -33.5t33 -14.5t33 14z" />
    <glyph glyph-name="Uhungarumlaut" unicode="&#x170;" horiz-adv-x="655" 
d="M191 19.5q-60 35.5 -93 99t-33 146.5v451h85v-455q0 -87 46 -141.5t132 -54.5t132.5 54.5t46.5 141.5v455h85v-451q0 -83 -31.5 -147t-91.5 -99t-141 -35q-77 0 -137 35.5zM280 900h93l-71 -127h-74zM407 900h93l-71 -127h-74z" />
    <glyph glyph-name="uhungarumlaut" unicode="&#x171;" horiz-adv-x="554" 
d="M105.5 37q-47.5 53 -47.5 147v312h85v-298q0 -137 123 -137q41 0 73.5 23t50 60t17.5 78v274h84v-496h-80v74h-4q-22 -38 -66.5 -64t-95.5 -26q-92 0 -139.5 53zM211 722h93l-71 -127h-74zM370 722h93l-71 -127h-74z" />
    <glyph glyph-name="Uogonek" unicode="&#x172;" horiz-adv-x="657" 
d="M331.5 -192q-32.5 32 -32.5 80q0 30 15 55t37 42q-7 -1 -23 -1q-77 0 -137 35.5t-93 99t-33 146.5v451h85v-455q0 -87 46 -141.5t132 -54.5t132.5 54.5t46.5 141.5v455h85v-451q0 -77 -28 -138.5t-79 -96.5q-111 -75 -111 -130q0 -23 14 -38.5t37 -15.5q20 0 40 10v-72
q-18 -8 -47 -8q-54 0 -86.5 32z" />
    <glyph glyph-name="uogonek" unicode="&#x173;" horiz-adv-x="554" 
d="M375.5 -192q-32.5 32 -32.5 80q0 35 18 63.5t50 48.5v74h-4q-22 -38 -66.5 -64t-95.5 -26q-92 0 -139.5 53t-47.5 147v312h85v-298q0 -137 123 -137q41 0 73.5 23t50 60t17.5 78v274h84v-496q-36 -28 -54 -50t-18 -50q0 -23 13.5 -38.5t36.5 -15.5q21 0 40 10v-72
q-18 -8 -47 -8q-54 0 -86.5 32z" />
    <glyph glyph-name="Wcircumflex" unicode="&#x174;" horiz-adv-x="944" 
d="M17 716h94l130 -526l12 -49h4l15 49l160 526h88l153 -526l15 -49h4l141 575h94l-193 -716h-88l-152 518l-16 56h-4l-17 -56l-158 -518h-88zM337 784l102 116h75l102 -116v-5h-82l-54 63h-8l-53 -63h-82v5z" />
    <glyph glyph-name="wcircumflex" unicode="&#x175;" horiz-adv-x="759" 
d="M6 496h88l116 -386h1l126 386h88l126 -386h1l116 386h85l-161 -496h-85l-128 393l-127 -393h-85zM241 606l102 116h75l102 -116v-5h-82l-54 63h-8l-53 -63h-82v5z" />
    <glyph glyph-name="Ycircumflex" unicode="&#x176;" horiz-adv-x="594" 
d="M257 331l-243 385h99l184 -300h4l180 300h99l-239 -385v-331h-84v331zM158 784l102 116h75l102 -116v-5h-82l-54 63h-8l-53 -63h-82v5z" />
    <glyph glyph-name="ycircumflex" unicode="&#x177;" horiz-adv-x="503" 
d="M213 32l-206 464h92l154 -365h2l149 365h92l-310 -712h-87zM113 606l102 116h75l102 -116v-5h-82l-54 63h-8l-53 -63h-82v5z" />
    <glyph glyph-name="Ydieresis" unicode="&#x178;" horiz-adv-x="594" 
d="M257 331l-243 385h99l184 -300h4l180 300h99l-239 -385v-331h-84v331zM177 805.5q-16 16.5 -16 37.5q0 23 16 38.5t38 15.5q23 0 38 -15.5t15 -38.5q0 -22 -15 -38t-38 -16q-22 0 -38 16.5zM341.5 805.5q-16.5 16.5 -16.5 37.5q0 23 16 38.5t38 15.5q23 0 38.5 -15.5
t15.5 -38.5q0 -22 -15.5 -38t-38.5 -16q-21 0 -37.5 16.5z" />
    <glyph glyph-name="Zacute" unicode="&#x179;" horiz-adv-x="570" 
d="M37 89l386 546h-370v81h468v-89l-386 -546h390v-81h-488v89zM302 900h93l-71 -127h-74z" />
    <glyph glyph-name="zacute" unicode="&#x17a;" horiz-adv-x="471" 
d="M36 73l290 346h-282v77h386v-73l-290 -346h295v-77h-399v73zM252 722h93l-71 -127h-74z" />
    <glyph glyph-name="Zdotaccent" unicode="&#x17b;" horiz-adv-x="570" 
d="M37 89l386 546h-370v81h468v-89l-386 -546h390v-81h-488v89zM253 822q-15 15 -15 34q0 20 15 34.5t34 14.5q22 0 36 -14t14 -35q0 -20 -14.5 -34.5t-35.5 -14.5q-19 0 -34 15z" />
    <glyph glyph-name="zdotaccent" unicode="&#x17c;" horiz-adv-x="471" 
d="M36 73l290 346h-282v77h386v-73l-290 -346h295v-77h-399v73zM199 627.5q-16 16.5 -16 37.5q0 23 16 38.5t38 15.5q23 0 38 -15.5t15 -38.5q0 -22 -15 -38t-38 -16q-22 0 -38 16.5z" />
    <glyph glyph-name="Zcaron" unicode="&#x17d;" horiz-adv-x="570" 
d="M37 89l386 546h-370v81h468v-89l-386 -546h390v-81h-488v89zM148 895v5h82l53 -63h8l54 63h82v-5l-102 -116h-75z" />
    <glyph glyph-name="zcaron" unicode="&#x17e;" horiz-adv-x="471" 
d="M36 73l290 346h-282v77h386v-73l-290 -346h295v-77h-399v73zM98 717v5h82l53 -63h8l54 63h82v-5l-102 -116h-75z" />
    <glyph glyph-name="florin" unicode="&#x192;" horiz-adv-x="570" 
d="M426 626q-22 -17 -29 -49l-35 -174h130v-78h-145l-82 -412q-12 -59 -53 -96t-101 -37q-31 0 -60 10v82q33 -15 61 -15t47.5 18.5t26.5 50.5l79 399h-106v78h121l37 185q11 59 55.5 95.5t107.5 36.5q21 0 32 -2t26 -7v-83q-25 15 -58 15q-32 0 -54 -17z" />
    <glyph glyph-name="Aringacute" unicode="&#x1fa;" horiz-adv-x="668" 
d="M654 0h-94l-71 197h-309l-72 -197h-94l256 674q-18 15 -29 36.5t-11 45.5q0 35 20 61.5t52 36.5l33 78h86l-44 -82q27 -12 43.5 -37.5t16.5 -56.5q0 -24 -10.5 -45.5t-28.5 -35.5zM303 787q-13 -13 -13 -31t13 -31t31 -13t30.5 13t12.5 31t-12.5 31t-30.5 13t-31 -13z
M459 277l-95 258l-28 77h-4l-29 -77l-94 -258h250z" />
    <glyph glyph-name="aringacute" unicode="&#x1fb;" horiz-adv-x="522" 
d="M260 906h93l-59 -105h-77zM181 605q-30 30 -30 73q0 44 30 74t73 30t73.5 -30.5t30.5 -73.5t-30.5 -73t-73.5 -30t-73 30zM287 644q14 14 14 34t-13.5 33.5t-33.5 13.5q-19 0 -33 -14t-14 -33t14 -33.5t33 -14.5t33 14zM125.5 5.5q-43.5 21.5 -68 60t-24.5 86.5
q0 79 59.5 123t152.5 44q46 0 83 -10t59 -22v26q0 36 -18.5 64.5t-49.5 44t-67 15.5q-85 0 -130 -69l-71 47q31 46 82 71.5t115 25.5q102 0 161 -55t59 -148v-309h-81v73h-4q-24 -38 -65 -63.5t-95 -25.5t-97.5 21.5zM306 80q36 21 58.5 57t22.5 78q-56 36 -129 36
q-63 0 -100.5 -28.5t-37.5 -72.5q0 -40 33 -65.5t77 -25.5q40 0 76 21z" />
    <glyph glyph-name="AEacute" unicode="&#x1fc;" horiz-adv-x="959" 
d="M438 716h465v-81h-330v-237h298v-80h-298v-237h330v-81h-415v197h-264l-118 -197h-100zM488 277v358h-4l-29 -50l-184 -308h217zM681 900h93l-71 -127h-74z" />
    <glyph glyph-name="aeacute" unicode="&#x1fd;" horiz-adv-x="904" 
d="M125.5 5.5q-43.5 21.5 -68 60t-24.5 86.5q0 79 59.5 123t152.5 44q46 0 84 -10t60 -22v26q0 54 -39 89t-94 35q-42 0 -73 -18.5t-49 -53.5l-75 37q24 50 73.5 80t120.5 30q65 0 114 -27.5t74 -75.5q32 48 80.5 75.5t109.5 27.5q72 0 126.5 -32.5t83.5 -91.5t29 -136
q0 -14 -2 -20h-395q2 -56 27 -94.5t63 -57.5t78 -19q51 0 86 24.5t60 67.5l74 -36q-32 -60 -88.5 -96.5t-135.5 -36.5q-69 0 -123 32.5t-84 89.5q-33 -59 -86 -90.5t-121 -31.5q-54 0 -97.5 21.5zM780 303q-2 30 -17 60t-48 51t-85 21q-57 0 -98.5 -36t-52.5 -96h301z
M306.5 80q36.5 21 59.5 57t23 78q-59 36 -131 36q-63 0 -100.5 -28.5t-37.5 -72.5q0 -40 33 -65.5t77 -25.5q40 0 76.5 21zM456 722h93l-71 -127h-74z" />
    <glyph glyph-name="Oslashacute" unicode="&#x1fe;" horiz-adv-x="822" 
d="M740.5 525.5q37.5 -77.5 37.5 -167.5q0 -103 -48 -188.5t-132 -135.5t-187 -50q-91 0 -167 39l-37 -59l-59 37l37 59q-66 52 -103.5 130t-37.5 168q0 103 48 188.5t132 135.5t187 50q91 0 168 -40l38 61l58 -38l-37 -60q65 -52 102.5 -129.5zM156 229q26 -58 73 -98
l307 492q-59 28 -125 28q-77 0 -141.5 -37.5t-102 -104t-37.5 -151.5q0 -71 26 -129zM552.5 102.5q64.5 37.5 102 104t37.5 151.5q0 70 -26 128t-72 98l-307 -491q59 -28 124 -28q77 0 141.5 37.5zM426 900h93l-71 -127h-74z" />
    <glyph glyph-name="oslashacute" unicode="&#x1ff;" horiz-adv-x="577" 
d="M519.5 363.5q23.5 -53.5 23.5 -115.5q0 -74 -32.5 -134.5t-91 -95t-131.5 -34.5q-58 0 -111 24l-25 -40l-55 31l27 43q-43 37 -66.5 90t-23.5 116q0 74 32.5 134.5t90.5 95t131 34.5q61 0 114 -25l26 42l54 -32l-28 -44q42 -36 65.5 -89.5zM168 113l191 306
q-35 16 -71 16q-44 0 -83 -23t-62.5 -65.5t-23.5 -98.5q0 -83 49 -135zM372 84q39 23 62.5 65.5t23.5 98.5q0 80 -48 133l-191 -305q33 -15 69 -15q45 0 84 23zM303 722h93l-71 -127h-74z" />
    <glyph glyph-name="Scommaaccent" unicode="&#x218;" horiz-adv-x="559" 
d="M173.5 6.5q-50.5 22.5 -89 66t-55.5 105.5l81 33q17 -64 63 -105t107 -41q63 0 106 33.5t43 91.5q0 50 -36.5 82.5t-119.5 60.5l-45 16q-76 27 -124 71t-48 122q0 51 28 94.5t77.5 69.5t111.5 26t108.5 -23t74 -56t37.5 -65l-79 -34q-11 38 -46 67.5t-93 29.5
q-55 0 -94 -31t-39 -78q0 -42 33 -68.5t100 -49.5l46 -16q91 -33 142.5 -82.5t51.5 -134.5q0 -69 -35.5 -116t-89.5 -69t-112 -22q-54 0 -104.5 22.5zM225 -212l40 57q-18 4 -29.5 18.5t-11.5 33.5q0 21 16 38t40 17q25 0 40.5 -16.5t15.5 -41.5q0 -19 -12 -43l-61 -89z" />
    <glyph glyph-name="scommaaccent" unicode="&#x219;" horiz-adv-x="463" 
d="M103 24q-55 40 -77 99l75 33q20 -47 56.5 -72t79.5 -25q48 0 79.5 21t31.5 51q0 29 -23.5 48t-80.5 33l-68 17q-56 13 -95.5 47t-39.5 90q0 46 26.5 79t70.5 50t96 17q64 0 116.5 -29.5t74.5 -83.5l-75 -32q-16 36 -48.5 53t-72.5 17q-39 0 -70.5 -19t-31.5 -49
q0 -26 20.5 -41t65.5 -27l74 -18q74 -19 110.5 -56.5t36.5 -89.5q0 -43 -25 -78t-70 -55t-102 -20q-79 0 -134 40zM181 -212l40 57q-18 4 -29.5 18.5t-11.5 33.5q0 21 16 38t40 17q25 0 40.5 -16.5t15.5 -41.5q0 -19 -12 -43l-61 -89z" />
    <glyph glyph-name="uni021A" unicode="&#x21a;" horiz-adv-x="538" 
d="M227 635h-201v81h486v-81h-201v-635h-84v635zM214 -212l40 57q-18 4 -29.5 18.5t-11.5 33.5q0 21 16 38t40 17q25 0 40.5 -16.5t15.5 -41.5q0 -19 -12 -43l-61 -89z" />
    <glyph glyph-name="uni021B" unicode="&#x21b;" horiz-adv-x="358" 
d="M197.5 2q-25.5 10 -43.5 27q-20 19 -29.5 44.5t-9.5 60.5v285h-88v77h88v148h84v-148h122v-77h-122v-264q0 -42 17 -62q17 -22 52 -22q31 0 54 14v-82q-16 -6 -30.5 -8.5t-38.5 -2.5q-30 0 -55.5 10zM174 -212l40 57q-18 4 -29.5 18.5t-11.5 33.5q0 21 16 38t40 17
q25 0 40.5 -16.5t15.5 -41.5q0 -19 -12 -43l-61 -89z" />
    <glyph glyph-name="uni0237" unicode="&#x237;" horiz-adv-x="224" 
d="M-30 -220v81q22 -10 41 -10q31 0 45 19.5t14 57.5v568h84v-568q0 -77 -37 -115.5t-103 -38.5q-24 0 -44 6z" />
    <glyph glyph-name="uni0259" unicode="&#x259;" horiz-adv-x="550" 
d="M395.5 478q56.5 -34 88.5 -94t32 -136q0 -72 -30 -132.5t-85.5 -96t-127.5 -35.5t-126.5 32.5t-83.5 91.5t-29 136q0 14 2 20h394q-2 56 -27 94.5t-62.5 57.5t-77.5 19q-94 0 -145 -92l-75 36q32 60 88.5 96.5t135.5 36.5q72 0 128.5 -34zM124 193q2 -30 17 -60t48.5 -51
t85.5 -21q56 0 97 36t52 96h-300z" />
    <glyph glyph-name="circumflex" unicode="&#x2c6;" horiz-adv-x="395" 
d="M58 600l102 116h75l102 -116v-5h-82l-54 63h-8l-53 -63h-82v5z" />
    <glyph glyph-name="caron" unicode="&#x2c7;" horiz-adv-x="395" 
d="M58 711v5h82l53 -63h8l54 63h82v-5l-102 -116h-75z" />
    <glyph glyph-name="breve" unicode="&#x2d8;" horiz-adv-x="399" 
d="M138.5 604.5q-29.5 16.5 -47.5 45t-18 62.5h69q0 -25 16 -42.5t43 -17.5q25 0 41 17.5t16 42.5h68q0 -34 -17.5 -62.5t-46.5 -45t-61 -16.5q-33 0 -62.5 16.5z" />
    <glyph glyph-name="dotaccent" unicode="&#x2d9;" horiz-adv-x="227" 
d="M76 621.5q-16 16.5 -16 37.5q0 23 16 38.5t38 15.5q23 0 38 -15.5t15 -38.5q0 -22 -15 -38t-38 -16q-22 0 -38 16.5z" />
    <glyph glyph-name="ring" unicode="&#x2da;" horiz-adv-x="402" 
d="M128 599q-30 30 -30 73q0 44 30 73.5t73 29.5t73.5 -30t30.5 -73t-30.5 -73t-73.5 -30t-73 30zM234 638q14 14 14 34t-13.5 33.5t-33.5 13.5q-19 0 -33 -14t-14 -33t14 -33.5t33 -14.5t33 14z" />
    <glyph glyph-name="ogonek" unicode="&#x2db;" horiz-adv-x="401" 
d="M122.5 -192q-32.5 32 -32.5 80q0 64 63 112h85q-36 -28 -54.5 -50t-18.5 -50q0 -23 14 -38.5t37 -15.5q20 0 40 10v-72q-18 -8 -47 -8q-54 0 -86.5 32z" />
    <glyph glyph-name="tilde" unicode="&#x2dc;" horiz-adv-x="398" 
d="M221.5 603.5q-17.5 7.5 -42.5 21.5q-29 18 -40 18q-33 0 -36 -37h-70q0 38 16 63.5t41 38t50 12.5q31 0 80 -30q30 -17 39 -17q33 0 36 37h70q0 -55 -33.5 -84.5t-74.5 -29.5q-18 0 -35.5 7.5z" />
    <glyph glyph-name="hungarumlaut" unicode="&#x2dd;" horiz-adv-x="389" 
d="M126 716h93l-71 -127h-74zM285 716h93l-71 -127h-74z" />
    <glyph glyph-name="gravecomb" unicode="&#x300;" horiz-adv-x="0" 
d="M-299 722h93l52 -127h-75z" />
    <glyph glyph-name="acutecomb" unicode="&#x301;" horiz-adv-x="0" 
d="M-190 722h93l-71 -127h-74z" />
    <glyph glyph-name="uni0302" unicode="&#x302;" horiz-adv-x="0" 
d="M-337 606l102 116h75l102 -116v-5h-82l-54 63h-8l-53 -63h-82v5z" />
    <glyph glyph-name="tildecomb" unicode="&#x303;" horiz-adv-x="0" 
d="M-177.5 610q-18.5 8 -41.5 22q-29 18 -40 18q-33 0 -36 -38h-70q0 56 33 85t74 29q31 0 80 -30q30 -17 39 -17q33 0 36 37h70q0 -55 -33.5 -84.5t-74.5 -29.5q-18 0 -36.5 8z" />
    <glyph glyph-name="uni0304" unicode="&#x304;" horiz-adv-x="0" 
d="M-338 698h277v-66h-277v66z" />
    <glyph glyph-name="uni0306" unicode="&#x306;" horiz-adv-x="0" 
d="M-260.5 610.5q-29.5 16.5 -47.5 45t-18 62.5h69q0 -24 16 -42t43 -18q25 0 41 18t16 42h68q0 -34 -17.5 -62.5t-46.5 -45t-61 -16.5q-33 0 -62.5 16.5z" />
    <glyph glyph-name="uni0307" unicode="&#x307;" horiz-adv-x="0" 
d="M-151 627.5q-16 16.5 -16 37.5q0 23 16 38.5t38 15.5q23 0 38 -15.5t15 -38.5q0 -22 -15 -38t-38 -16q-22 0 -38 16.5z" />
    <glyph glyph-name="uni0308" unicode="&#x308;" horiz-adv-x="0" 
d="M-316 627.5q-16 16.5 -16 37.5q0 23 16 38.5t38 15.5q23 0 38 -15.5t15 -38.5q0 -22 -15 -38t-38 -16q-22 0 -38 16.5zM-151.5 627.5q-16.5 16.5 -16.5 37.5q0 23 16 38.5t38 15.5q23 0 38.5 -15.5t15.5 -38.5q0 -22 -15.5 -38t-38.5 -16q-21 0 -37.5 16.5z" />
    <glyph glyph-name="uni030A" unicode="&#x30a;" horiz-adv-x="0" 
d="M-274 605q-30 30 -30 73q0 44 30 74t73 30t73.5 -30.5t30.5 -73.5t-30.5 -73t-73.5 -30t-73 30zM-168 644q14 14 14 34t-14 33.5t-33 13.5t-33 -14t-14 -33t14 -33.5t33 -14.5t33 14z" />
    <glyph glyph-name="uni030B" unicode="&#x30b;" horiz-adv-x="0" 
d="M-263 722h93l-71 -127h-74zM-104 722h93l-71 -127h-74z" />
    <glyph glyph-name="uni030C" unicode="&#x30c;" horiz-adv-x="0" 
d="M-337 717v5h82l53 -63h8l54 63h82v-5l-102 -116h-75z" />
    <glyph glyph-name="uni0312" unicode="&#x312;" horiz-adv-x="0" 
d="M-147 742l-40 -57q18 -4 29.5 -18.5t11.5 -33.5q0 -21 -16 -38t-40 -17q-25 0 -40.5 16.5t-15.5 41.5q0 19 12 43l61 89z" />
    <glyph glyph-name="uni0326" unicode="&#x326;" horiz-adv-x="0" 
d="M-259 -212l40 57q-18 4 -29.5 18.5t-11.5 33.5q0 21 16 38t40 17q25 0 40.5 -16.5t15.5 -41.5q0 -19 -12 -43l-61 -89z" />
    <glyph glyph-name="uni0327" unicode="&#x327;" horiz-adv-x="0" 
d="M-294.5 -218q-25.5 19 -36.5 48l50 22q5 -15 16.5 -25.5t27.5 -10.5q20 0 32 12.5t12 30.5q0 19 -12 32t-32 13q-21 0 -35 -17l-44 20l35 93h53l-22 -49q18 3 23 3q38 0 64.5 -27t26.5 -68q0 -40 -29 -68t-72 -28q-32 0 -57.5 19z" />
    <glyph glyph-name="uni0328" unicode="&#x328;" horiz-adv-x="0" 
d="M-279 -192q-32 32 -32 80q0 64 63 112h85q-36 -28 -54.5 -50t-18.5 -50q0 -23 14 -38.5t37 -15.5q20 0 40 10v-72q-18 -8 -47 -8q-55 0 -87 32z" />
    <glyph glyph-name="uni0374" unicode="&#x374;" horiz-adv-x="270" 
d="M122 716h107l-118 -209h-71z" />
    <glyph glyph-name="uni0375" unicode="&#x375;" horiz-adv-x="270" 
d="M155 122h74l-82 -209h-106z" />
    <glyph glyph-name="uni037E" unicode="&#x37e;" horiz-adv-x="234" 
d="M71.5 393.5q-18.5 18.5 -18.5 45.5q0 26 18.5 44.5t45.5 18.5q26 0 44.5 -18.5t18.5 -44.5q0 -27 -18.5 -45.5t-44.5 -18.5q-27 0 -45.5 18.5zM46 -67l53 83q-18 3 -32 19t-14 39q0 26 18.5 44.5t45.5 18.5t45.5 -18.5t18.5 -44.5q0 -17 -7 -32.5t-21 -35.5l-66 -100z
" />
    <glyph glyph-name="tonos" unicode="&#x384;" horiz-adv-x="397" 
d="M182 722h93l-70 -127h-74z" />
    <glyph glyph-name="dieresistonos" unicode="&#x385;" horiz-adv-x="393" 
d="M166 738h60v-144h-60v144zM48 631q-15 15 -15 34q0 21 14.5 35t34.5 14q21 0 35 -13.5t14 -35.5q0 -20 -14 -34.5t-35 -14.5q-19 0 -34 15zM276 631q-15 15 -15 34q0 21 15 35t35 14q21 0 35 -13.5t14 -35.5q0 -20 -14 -34.5t-35 -14.5q-20 0 -35 15z" />
    <glyph glyph-name="Alphatonos" unicode="&#x386;" horiz-adv-x="668" 
d="M111 716h93l-71 -127h-74zM286 716h96l272 -716h-94l-71 197h-309l-72 -197h-94zM459 277l-95 258l-28 77h-4l-29 -77l-94 -258h250z" />
    <glyph glyph-name="anoteleia" unicode="&#x387;" horiz-adv-x="179" 
d="M44.5 278.5q-18.5 18.5 -18.5 45.5t18.5 45.5t45.5 18.5q26 0 44.5 -18.5t18.5 -45.5t-18.5 -45.5t-44.5 -18.5q-27 0 -45.5 18.5z" />
    <glyph glyph-name="Epsilontonos" unicode="&#x388;" horiz-adv-x="583" 
d="M-22 716h93l-71 -127h-74zM112 716h415v-81h-330v-237h298v-80h-298v-237h330v-81h-415v716z" />
    <glyph glyph-name="Etatonos" unicode="&#x389;" horiz-adv-x="730" 
d="M-22 716h93l-71 -127h-74zM112 716h85v-310h369v310h85v-716h-85v326h-369v-326h-85v716z" />
    <glyph glyph-name="Iotatonos" unicode="&#x38a;" horiz-adv-x="276" 
d="M-22 716h93l-71 -127h-74zM112 716h85v-716h-85v716z" />
    <glyph glyph-name="Omicrontonos" unicode="&#x38c;" horiz-adv-x="780" 
d="M-22 716h93l-71 -127h-74zM182.5 34q-83.5 50 -131.5 135.5t-48 188.5t48 188.5t132 135.5t187 50t187 -50t132 -136t48 -188q0 -103 -48 -188.5t-132 -135.5t-187 -50q-104 0 -187.5 50zM511.5 102.5q64.5 37.5 102 104t37.5 151.5t-37.5 151.5t-102 104t-141.5 37.5
t-141.5 -37.5t-102 -104t-37.5 -151.5t37.5 -151.5t102 -104t141.5 -37.5t141.5 37.5z" />
    <glyph glyph-name="Upsilontonos" unicode="&#x38e;" horiz-adv-x="663" 
d="M-22 716h93l-71 -127h-74zM326 331l-243 385h99l184 -300h4l180 300h99l-239 -385v-331h-84v331z" />
    <glyph glyph-name="Omegatonos" unicode="&#x38f;" horiz-adv-x="755" 
d="M-22 716h93l-71 -127h-74zM21 81h166v4q-86 44 -133.5 122t-47.5 176q0 93 45.5 173t126 128t178.5 48t178 -48t126 -128.5t46 -172.5q0 -97 -48 -175.5t-133 -122.5v-4h165v-81h-275v120q58 14 105 51t73.5 92t26.5 120q0 75 -35.5 136t-96 96.5t-132.5 35.5
t-132.5 -35.5t-96 -96.5t-35.5 -136q0 -65 26.5 -120t73.5 -92t105 -51v-120h-276v81z" />
    <glyph glyph-name="iotadieresistonos" unicode="&#x390;" horiz-adv-x="224" 
d="M70 496h84v-496h-84v496zM82 738h60v-144h-60v144zM-36 631q-15 15 -15 34q0 21 14.5 35t34.5 14q21 0 35 -13.5t14 -35.5q0 -20 -14 -34.5t-35 -14.5q-19 0 -34 15zM192 631q-15 15 -15 34q0 21 15 35t35 14q21 0 35 -13.5t14 -35.5q0 -20 -14 -34.5t-35 -14.5
q-20 0 -35 15z" />
    <glyph glyph-name="Alpha" unicode="&#x391;" horiz-adv-x="668" 
d="M286 716h96l272 -716h-94l-71 197h-309l-72 -197h-94zM459 277l-95 258l-28 77h-4l-29 -77l-94 -258h250z" />
    <glyph glyph-name="Beta" unicode="&#x392;" horiz-adv-x="604" 
d="M79 716h258q54 0 101 -25t75.5 -69t28.5 -99q0 -52 -27 -91t-72 -60v-4q54 -18 88.5 -62.5t34.5 -102.5t-30 -104.5t-79 -72.5t-106 -26h-272v716zM337 406q36 0 63.5 17t42 43.5t14.5 54.5q0 27 -14 53.5t-40.5 43.5t-61.5 17h-177v-229h173zM355 81q37 0 65 18
t43.5 46.5t15.5 58.5t-15.5 58.5t-45 46t-67.5 17.5h-187v-245h191z" />
    <glyph glyph-name="Gamma" unicode="&#x393;" horiz-adv-x="504" 
d="M79 716h399v-81h-314v-635h-85v716z" />
    <glyph glyph-name="uni0394" unicode="&#x394;" horiz-adv-x="658" 
d="M281 716h96l267 -716h-630zM521 81l-190 531h-4l-191 -531h385z" />
    <glyph glyph-name="Epsilon" unicode="&#x395;" horiz-adv-x="550" 
d="M79 716h415v-81h-330v-237h298v-80h-298v-237h330v-81h-415v716z" />
    <glyph glyph-name="Zeta" unicode="&#x396;" horiz-adv-x="570" 
d="M37 89l386 546h-370v81h468v-89l-386 -546h390v-81h-488v89z" />
    <glyph glyph-name="Eta" unicode="&#x397;" horiz-adv-x="697" 
d="M79 716h85v-310h369v310h85v-716h-85v326h-369v-326h-85v716z" />
    <glyph glyph-name="Theta" unicode="&#x398;" horiz-adv-x="836" 
d="M223.5 34q-83.5 50 -131.5 135.5t-48 188.5t48 188.5t132 135.5t187 50t187 -50t132 -136t48 -188q0 -103 -48 -188.5t-132 -135.5t-187 -50q-104 0 -187.5 50zM552.5 102.5q64.5 37.5 102 104t37.5 151.5t-37.5 151.5t-102 104t-141.5 37.5t-141.5 -37.5t-102 -104
t-37.5 -151.5t37.5 -151.5t102 -104t141.5 -37.5t141.5 37.5zM259 398h318v-80h-318v80z" />
    <glyph glyph-name="Iota" unicode="&#x399;" horiz-adv-x="243" 
d="M79 716h85v-716h-85v716z" />
    <glyph glyph-name="Kappa" unicode="&#x39a;" horiz-adv-x="613" 
d="M79 716h85v-357h4l315 357h110v-4l-325 -362l339 -346v-4h-117l-322 337h-4v-337h-85v716z" />
    <glyph glyph-name="Lambda" unicode="&#x39b;" horiz-adv-x="649" 
d="M276 716h96l263 -716h-94l-191 543l-24 69h-4l-24 -69l-190 -543h-94z" />
    <glyph glyph-name="Mu" unicode="&#x39c;" horiz-adv-x="865" 
d="M79 716h123l229 -587h4l228 587h123v-716h-85v455l4 136h-4l-233 -591h-71l-233 591h-4l4 -136v-455h-85v716z" />
    <glyph glyph-name="Nu" unicode="&#x39d;" horiz-adv-x="707" 
d="M79 716h105l359 -570h4l-4 138v432h84v-716h-88l-375 597h-4l4 -138v-459h-85v716z" />
    <glyph glyph-name="Xi" unicode="&#x39e;" horiz-adv-x="495" 
d="M32 716h430v-81h-430v81zM64 398h366v-80h-366v80zM32 81h430v-81h-430v81z" />
    <glyph glyph-name="Omicron" unicode="&#x39f;" horiz-adv-x="822" 
d="M223.5 34q-83.5 50 -131.5 135.5t-48 188.5t48 188.5t132 135.5t187 50t187 -50t132 -136t48 -188q0 -103 -48 -188.5t-132 -135.5t-187 -50q-104 0 -187.5 50zM552.5 102.5q64.5 37.5 102 104t37.5 151.5t-37.5 151.5t-102 104t-141.5 37.5t-141.5 -37.5t-102 -104
t-37.5 -151.5t37.5 -151.5t102 -104t141.5 -37.5t141.5 37.5z" />
    <glyph glyph-name="Pi" unicode="&#x3a0;" horiz-adv-x="673" 
d="M79 716h515v-716h-85v635h-345v-635h-85v716z" />
    <glyph glyph-name="Rho" unicode="&#x3a1;" horiz-adv-x="574" 
d="M79 716h241q60 0 111.5 -27t82 -75.5t30.5 -109.5t-30.5 -109.5t-82 -75.5t-111.5 -27h-156v-292h-85v716zM323 373q40 0 70.5 19t47 49t16.5 63t-16.5 63t-47 49t-70.5 19h-159v-262h159z" />
    <glyph glyph-name="Sigma" unicode="&#x3a3;" horiz-adv-x="509" 
d="M47 88l217 278l-217 262v88h431v-81h-338l226 -269l-226 -285h338v-81h-431v88z" />
    <glyph glyph-name="Tau" unicode="&#x3a4;" horiz-adv-x="538" 
d="M227 635h-201v81h486v-81h-201v-635h-84v635z" />
    <glyph glyph-name="Upsilon" unicode="&#x3a5;" horiz-adv-x="594" 
d="M257 331l-243 385h99l184 -300h4l180 300h99l-239 -385v-331h-84v331z" />
    <glyph glyph-name="Phi" unicode="&#x3a6;" horiz-adv-x="796" 
d="M713 212.5q-39 -65.5 -109.5 -106t-163.5 -48.5v-58h-84v58q-93 8 -163.5 48.5t-109.5 106t-39 145.5t39 145.5t109.5 106t163.5 48.5v58h84v-58q93 -8 163.5 -48.5t109.5 -106t39 -145.5t-39 -145.5zM605.5 207.5q60.5 60.5 60.5 150.5q0 91 -60 151t-166 70v-442
q105 10 165.5 70.5zM190.5 208q60.5 -60 165.5 -71v442q-105 -10 -165.5 -70t-60.5 -151q0 -90 60.5 -150z" />
    <glyph glyph-name="Chi" unicode="&#x3a7;" horiz-adv-x="630" 
d="M260 370l-228 346h101l180 -279h4l180 279h101l-228 -346l242 -370h-100l-195 299h-4l-195 -299h-100z" />
    <glyph glyph-name="Psi" unicode="&#x3a8;" horiz-adv-x="745" 
d="M330 156q-74 0 -135 35t-96.5 100.5t-35.5 153.5v271h85v-275q0 -92 47.5 -148t134.5 -56v479h85v-479q87 0 134.5 56t47.5 148v275h85v-271q0 -88 -35.5 -153.5t-96.5 -100.5t-135 -35v-156h-85v156z" />
    <glyph glyph-name="uni03A9" unicode="&#x3a9;" horiz-adv-x="800" 
d="M65 81h166v4q-86 44 -133.5 122t-47.5 176q0 93 45.5 173t126 128t178.5 48t178 -48t126 -128.5t46 -172.5q0 -97 -48 -175.5t-133 -122.5v-4h165v-81h-275v120q58 14 105 51t73.5 92t26.5 120q0 75 -35.5 136t-96 96.5t-132.5 35.5t-132.5 -35.5t-96 -96.5t-35.5 -136
q0 -65 26.5 -120t73.5 -92t105 -51v-120h-276v81z" />
    <glyph glyph-name="Iotadieresis" unicode="&#x3aa;" horiz-adv-x="243" 
d="M14 820q-15 15 -15 34q0 21 14.5 35.5t34.5 14.5q21 0 35 -14t14 -36q0 -20 -14 -34.5t-35 -14.5q-19 0 -34 15zM161 820q-15 15 -15 34q0 21 15 35.5t35 14.5q21 0 35 -14t14 -36q0 -20 -14 -34.5t-35 -14.5q-20 0 -35 15zM79 716h85v-716h-85v716z" />
    <glyph glyph-name="Upsilondieresis" unicode="&#x3ab;" horiz-adv-x="594" 
d="M257 331l-243 385h99l184 -300h4l180 300h99l-239 -385v-331h-84v331zM179 805.5q-16 16.5 -16 37.5q0 23 16 38.5t38 15.5q23 0 38 -15.5t15 -38.5q0 -22 -15 -38t-38 -16q-22 0 -38 16.5zM343.5 805.5q-16.5 16.5 -16.5 37.5q0 23 16 38.5t38 15.5q23 0 38.5 -15.5
t15.5 -38.5q0 -22 -15.5 -38t-38.5 -16q-21 0 -37.5 16.5z" />
    <glyph glyph-name="alphatonos" unicode="&#x3ac;" horiz-adv-x="587" 
d="M152 18q-54 34 -86 94.5t-32 135.5t32 135.5t86 94.5t118 34q58 0 104 -25.5t69 -63.5h4v73h80v-496h-80v74h-4q-23 -39 -69 -64.5t-104 -25.5q-64 0 -118 34zM364.5 83.5q37.5 22.5 60 65.5t22.5 99q0 57 -22.5 99.5t-60 65t-81.5 22.5t-81.5 -23t-60 -65.5t-22.5 -98.5
t22.5 -98.5t60 -65.5t81.5 -23t81.5 22.5zM298 722h93l-70 -127h-74z" />
    <glyph glyph-name="epsilontonos" unicode="&#x3ad;" horiz-adv-x="492" 
d="M99 25.5q-57 41.5 -57 110.5q0 40 24 71t64 47v4q-70 30 -70 108q0 42 26 75.5t69 52t93 18.5q55 0 99 -19t83 -60l-56 -54q-31 31 -60 43.5t-66 12.5q-46 0 -74.5 -22t-28.5 -51q0 -34 24 -54.5t59 -20.5h79v-69h-82q-46 0 -71 -23t-25 -55q0 -34 32.5 -56.5t87.5 -22.5
q41 0 73.5 16.5t66.5 50.5l58 -56q-38 -42 -90 -65t-107 -23q-94 0 -151 41.5zM263 722h93l-70 -127h-74z" />
    <glyph glyph-name="etatonos" unicode="&#x3ae;" horiz-adv-x="554" 
d="M411 296q0 72 -33.5 105.5t-91.5 33.5q-40 0 -72 -23t-49.5 -60t-17.5 -78v-274h-85v496h81v-74h4q21 38 66 64t96 26q90 0 138 -55.5t48 -147.5v-525h-84v512zM301 722h93l-70 -127h-74z" />
    <glyph glyph-name="iotatonos" unicode="&#x3af;" horiz-adv-x="224" 
d="M70 496h84v-496h-84v496zM126 722h93l-70 -127h-74z" />
    <glyph glyph-name="upsilondieresistonos" unicode="&#x3b0;" horiz-adv-x="550" 
d="M164.5 14q-49.5 30 -78 82.5t-28.5 116.5v283h85v-266q0 -81 38.5 -125t98.5 -44q40 0 74.5 21t55.5 61.5t21 94.5q0 121 -84 258h94q75 -134 75 -258q0 -84 -34 -141t-89 -85t-119 -28q-60 0 -109.5 30zM236 738h60v-144h-60v144zM118 631q-15 15 -15 34q0 21 14.5 35
t34.5 14q21 0 35 -13.5t14 -35.5q0 -20 -14 -34.5t-35 -14.5q-19 0 -34 15zM346 631q-15 15 -15 34q0 21 15 35t35 14q21 0 35 -13.5t14 -35.5q0 -20 -14 -34.5t-35 -14.5q-20 0 -35 15z" />
    <glyph glyph-name="alpha" unicode="&#x3b1;" horiz-adv-x="587" 
d="M152 18q-54 34 -86 94.5t-32 135.5t32 135.5t86 94.5t118 34q58 0 104 -25.5t69 -63.5h4v73h80v-496h-80v74h-4q-23 -39 -69 -64.5t-104 -25.5q-64 0 -118 34zM364.5 83.5q37.5 22.5 60 65.5t22.5 99q0 57 -22.5 99.5t-60 65t-81.5 22.5t-81.5 -23t-60 -65.5t-22.5 -98.5
t22.5 -98.5t60 -65.5t81.5 -23t81.5 22.5z" />
    <glyph glyph-name="beta" unicode="&#x3b2;" horiz-adv-x="569" 
d="M78 516q0 62 25 111t73.5 77t114.5 28q60 0 107.5 -25t74 -68.5t26.5 -98.5q0 -106 -89 -151v-4q52 -21 86.5 -68t34.5 -111q0 -63 -30 -113.5t-81.5 -79.5t-115.5 -29q-44 0 -80.5 19t-58.5 53h-4l4 -71v-201h-87v732zM373 84q33 19 52.5 51t19.5 70q0 37 -20.5 69
t-55 51t-74.5 19h-42v78h31q60 0 94.5 32.5t34.5 85.5q0 49 -35.5 80t-86.5 31q-59 0 -92.5 -36.5t-33.5 -98.5v-307q0 -65 35.5 -104.5t100.5 -39.5q39 0 72 19z" />
    <glyph glyph-name="gamma" unicode="&#x3b3;" horiz-adv-x="536" 
d="M225 8l-218 488h92l168 -400h2l170 400h90l-220 -488v-224h-84v224z" />
    <glyph glyph-name="delta" unicode="&#x3b4;" horiz-adv-x="577" 
d="M157 18.5q-58 34.5 -90.5 95t-32.5 134.5q0 69 27.5 124.5t78 91t115.5 43.5l5 -1l-181 145v65h403v-77h-269l231 -180q46 -35 72.5 -89.5t26.5 -121.5q0 -74 -32.5 -134.5t-91 -95t-131.5 -34.5t-131 34.5zM372 84q39 23 62.5 65.5t23.5 98.5t-23.5 98.5t-62.5 65.5
t-84 23q-44 0 -83 -23t-62.5 -65.5t-23.5 -98.5t23.5 -98.5t62.5 -65.5t83 -23q45 0 84 23z" />
    <glyph glyph-name="epsilon" unicode="&#x3b5;" horiz-adv-x="492" 
d="M99 25.5q-57 41.5 -57 110.5q0 40 24 71t64 47v4q-70 30 -70 108q0 42 26 75.5t69 52t93 18.5q55 0 99 -19t83 -60l-56 -54q-31 31 -60 43.5t-66 12.5q-46 0 -74.5 -22t-28.5 -51q0 -34 24 -54.5t59 -20.5h79v-69h-82q-46 0 -71 -23t-25 -55q0 -34 32.5 -56.5t87.5 -22.5
q41 0 73.5 16.5t66.5 50.5l58 -56q-38 -42 -90 -65t-107 -23q-94 0 -151 41.5z" />
    <glyph glyph-name="zeta" unicode="&#x3b6;" horiz-adv-x="484" 
d="M319 -91q26 0 40.5 13t14.5 33t-14 32.5t-42 12.5h-129q-75 0 -117 40t-42 102q0 37 18 69t51 56q51 35 118.5 83.5t94.5 68.5h-265v77h388v-75l-290 -215q-33 -24 -33 -62q0 -29 21.5 -48t56.5 -19h120q68 0 106 -33t38 -89q0 -54 -38 -88.5t-97 -34.5v77z" />
    <glyph glyph-name="eta" unicode="&#x3b7;" horiz-adv-x="554" 
d="M411 296q0 72 -33.5 105.5t-91.5 33.5q-40 0 -72 -23t-49.5 -60t-17.5 -78v-274h-85v496h81v-74h4q21 38 66 64t96 26q90 0 138 -55.5t48 -147.5v-525h-84v512z" />
    <glyph glyph-name="theta" unicode="&#x3b8;" horiz-adv-x="663" 
d="M179.5 31.5q-62.5 47.5 -96 129t-33.5 181.5t33.5 181.5t95.5 129t144 47.5t144 -47.5t96 -129t34 -181.5t-34 -181.5t-96.5 -129t-143.5 -47.5t-143.5 47.5zM508 393q-11 101 -60 163.5t-125 62.5q-75 0 -124 -62.5t-60 -163.5h369zM419.5 99q41.5 34 64.5 93.5
t26 134.5h-373q3 -75 26 -134.5t64.5 -93.5t95.5 -34q55 0 96.5 34z" />
    <glyph glyph-name="iota" unicode="&#x3b9;" horiz-adv-x="224" 
d="M70 496h84v-496h-84v496z" />
    <glyph glyph-name="kappa" unicode="&#x3ba;" horiz-adv-x="480" 
d="M62 496h85v-224h4l209 224h107v-4l-223 -231l234 -257v-4h-105l-222 250h-4v-250h-85v496z" />
    <glyph glyph-name="lambda" unicode="&#x3bb;" horiz-adv-x="498" 
d="M210 458l-114 248h88l307 -706h-92l-146 359h-2l-152 -359h-92z" />
    <glyph glyph-name="uni03BC" unicode="&#x3bc;" horiz-adv-x="554" 
d="M58 496h85v-292q0 -74 33 -108.5t90 -34.5q41 0 73.5 23t50 60.5t17.5 78.5v273h84v-496h-80v74h-4q-23 -39 -64 -64.5t-96 -25.5q-57 0 -104 45h-4l4 -60v-185h-85v712z" />
    <glyph glyph-name="nu" unicode="&#x3bd;" horiz-adv-x="502" 
d="M6 496h92l152 -396h2l154 396h90l-203 -496h-86z" />
    <glyph glyph-name="xi" unicode="&#x3be;" horiz-adv-x="525" 
d="M359 -91q26 0 40.5 13t14.5 33t-14 32.5t-42 12.5h-87q-115 0 -178 56t-63 152q0 64 34 106t88 63v4q-44 22 -71 58t-27 94q0 57 27.5 102.5t77 71t112.5 25.5t113 -24.5t94 -74.5l-59 -57q-33 40 -67.5 57.5t-80.5 17.5q-57 0 -94 -33t-37 -84q0 -54 38 -86.5t98 -32.5
h97v-79h-108q-64 0 -106.5 -36.5t-42.5 -92.5q0 -59 41 -92.5t114 -33.5h79q67 0 106 -34t39 -90t-38.5 -90.5t-97.5 -34.5v77z" />
    <glyph glyph-name="omicron" unicode="&#x3bf;" horiz-adv-x="577" 
d="M157 18.5q-58 34.5 -90.5 95t-32.5 134.5t32.5 134.5t90.5 95t131 34.5t131.5 -34.5t91 -95t32.5 -134.5t-32.5 -134.5t-91 -95t-131.5 -34.5t-131 34.5zM372 84q39 23 62.5 65.5t23.5 98.5t-23.5 98.5t-62.5 65.5t-84 23q-44 0 -83 -23t-62.5 -65.5t-23.5 -98.5
t23.5 -98.5t62.5 -65.5t83 -23q45 0 84 23z" />
    <glyph glyph-name="pi" unicode="&#x3c0;" horiz-adv-x="694" 
d="M494.5 32q-40.5 40 -40.5 112v275h-225v-419h-85v419h-120v77h635v-77h-121v-269q0 -40 17 -60.5t46 -20.5q28 0 55 14v-83q-14 -5 -25.5 -6.5t-29.5 -1.5q-66 0 -106.5 40z" />
    <glyph glyph-name="rho" unicode="&#x3c1;" horiz-adv-x="589" 
d="M61 249q0 75 31.5 135t88 94t126.5 34q71 0 127.5 -34t88.5 -94.5t32 -136.5q0 -74 -32 -134.5t-86 -94.5t-118 -34q-59 0 -104.5 25.5t-68.5 64.5h-4l4 -68v-223h-85v466zM387 84q38 23 60.5 65t22.5 98q0 57 -23 99.5t-60.5 65t-80.5 22.5t-80.5 -22.5t-60.5 -65
t-23 -99.5q0 -56 22.5 -98.5t60 -65t81.5 -22.5q43 0 81 23z" />
    <glyph glyph-name="uni03C2" unicode="&#x3c2;" horiz-adv-x="531" 
d="M364 -107q27 0 41.5 13t14.5 33t-14 32.5t-42 12.5h-43q-92 0 -157 34.5t-97.5 94.5t-32.5 135t32.5 135t90.5 94.5t130 34.5q81 0 136 -39t80 -101l-77 -33q-40 96 -144 96q-42 0 -79.5 -23.5t-60.5 -66t-23 -97.5q0 -84 52.5 -135.5t142.5 -51.5h42q68 0 106 -33
t38 -89q0 -54 -38 -88.5t-98 -34.5v77z" />
    <glyph glyph-name="sigma" unicode="&#x3c3;" horiz-adv-x="602" 
d="M153 17.5q-56 33.5 -87.5 92t-31.5 130.5q0 73 31.5 131.5t87.5 91.5t128 33h305v-77h-68l-71 4v-4q37 -31 58.5 -77t21.5 -102q0 -72 -31.5 -130.5t-87.5 -92t-127 -33.5q-72 0 -128 33.5zM361 82.5q37 21.5 59.5 62t22.5 95.5t-22.5 95.5t-59.5 62t-80 21.5t-80 -21.5
t-59.5 -62t-22.5 -95.5t22.5 -95.5t59.5 -62t80 -21.5t80 21.5z" />
    <glyph glyph-name="tau" unicode="&#x3c4;" horiz-adv-x="460" 
d="M188 419h-161v77h406v-77h-161v-419h-84v419z" />
    <glyph glyph-name="upsilon" unicode="&#x3c5;" horiz-adv-x="550" 
d="M164.5 14q-49.5 30 -78 82.5t-28.5 116.5v283h85v-266q0 -81 38.5 -125t98.5 -44q40 0 74.5 21t55.5 61.5t21 94.5q0 121 -84 258h94q75 -134 75 -258q0 -84 -34 -141t-89 -85t-119 -28q-60 0 -109.5 30z" />
    <glyph glyph-name="phi" unicode="&#x3c6;" horiz-adv-x="730" 
d="M645 124.5q-35 -58.5 -97.5 -94.5t-142.5 -44v-202h-84v202q-77 8 -138.5 43.5t-97 94t-35.5 132.5q0 93 54 156.5t126 99.5l36 -75q-53 -25 -91 -71t-38 -110q0 -84 52 -133t132 -59v301q0 66 38.5 106.5t98.5 40.5q58 0 109 -35t82 -94t31 -127q0 -73 -35 -131.5z
M540.5 123q53.5 48 53.5 133q0 47 -18 87.5t-48 64.5t-65 24q-25 0 -41.5 -18.5t-16.5 -45.5v-304q82 11 135.5 59z" />
    <glyph glyph-name="chi" unicode="&#x3c7;" horiz-adv-x="476" 
d="M188 252l-172 244h96l127 -181l122 181h99l-173 -244l178 -252h-100l-128 190l-126 -190h-99z" />
    <glyph glyph-name="psi" unicode="&#x3c8;" horiz-adv-x="696" 
d="M314 -16h-2q-74 0 -132 31.5t-90 88.5t-32 129v263h85v-262q0 -84 48 -128.5t119 -44.5h4v435h84v-435h3q48 0 88.5 22t64.5 62.5t24 93.5q0 134 -72 257h92q30 -55 47 -121t17 -136q0 -83 -38.5 -140.5t-98.5 -86t-124 -28.5h-3v-200h-84v200z" />
    <glyph glyph-name="omega" unicode="&#x3c9;" horiz-adv-x="789" 
d="M139.5 12.5q-47.5 28.5 -76.5 86t-29 140.5q0 124 71 257h96q-82 -138 -82 -257q0 -83 33.5 -130.5t90.5 -47.5q49 0 80 44.5t31 125.5v144h81v-144q0 -81 31 -125.5t80 -44.5q57 0 90.5 47.5t33.5 130.5q0 119 -82 257h96q71 -133 71 -257q0 -83 -29 -140.5t-76.5 -86
t-104.5 -28.5q-49 0 -87.5 25.5t-63.5 74.5q-24 -49 -62.5 -74.5t-87.5 -25.5q-57 0 -104.5 28.5z" />
    <glyph glyph-name="iotadieresis" unicode="&#x3ca;" horiz-adv-x="224" 
d="M8 627.5q-16 16.5 -16 37.5q0 23 16 38.5t38 15.5q23 0 38 -15.5t15 -38.5q0 -22 -15 -38t-38 -16q-22 0 -38 16.5zM141 627.5q-16 16.5 -16 37.5q0 23 16 38.5t38 15.5q23 0 38 -15.5t15 -38.5q0 -22 -15 -38t-38 -16q-22 0 -38 16.5zM70 496h84v-496h-84v496z" />
    <glyph glyph-name="upsilondieresis" unicode="&#x3cb;" horiz-adv-x="550" 
d="M164.5 14q-49.5 30 -78 82.5t-28.5 116.5v283h85v-266q0 -81 38.5 -125t98.5 -44q40 0 74.5 21t55.5 61.5t21 94.5q0 121 -84 258h94q75 -134 75 -258q0 -84 -34 -141t-89 -85t-119 -28q-60 0 -109.5 30zM146 627.5q-16 16.5 -16 37.5q0 23 16 38.5t38 15.5
q23 0 38 -15.5t15 -38.5q0 -22 -15 -38t-38 -16q-22 0 -38 16.5zM310.5 627.5q-16.5 16.5 -16.5 37.5q0 23 16 38.5t38 15.5q23 0 38.5 -15.5t15.5 -38.5q0 -22 -15.5 -38t-38.5 -16q-21 0 -37.5 16.5z" />
    <glyph glyph-name="omicrontonos" unicode="&#x3cc;" horiz-adv-x="577" 
d="M157 18.5q-58 34.5 -90.5 95t-32.5 134.5t32.5 134.5t90.5 95t131 34.5t131.5 -34.5t91 -95t32.5 -134.5t-32.5 -134.5t-91 -95t-131.5 -34.5t-131 34.5zM372 84q39 23 62.5 65.5t23.5 98.5t-23.5 98.5t-62.5 65.5t-84 23q-44 0 -83 -23t-62.5 -65.5t-23.5 -98.5
t23.5 -98.5t62.5 -65.5t83 -23q45 0 84 23zM302 722h93l-70 -127h-74z" />
    <glyph glyph-name="upsilontonos" unicode="&#x3cd;" horiz-adv-x="550" 
d="M164.5 14q-49.5 30 -78 82.5t-28.5 116.5v283h85v-266q0 -81 38.5 -125t98.5 -44q40 0 74.5 21t55.5 61.5t21 94.5q0 121 -84 258h94q75 -134 75 -258q0 -84 -34 -141t-89 -85t-119 -28q-60 0 -109.5 30zM280 722h93l-70 -127h-74z" />
    <glyph glyph-name="omegatonos" unicode="&#x3ce;" horiz-adv-x="789" 
d="M139.5 12.5q-47.5 28.5 -76.5 86t-29 140.5q0 124 71 257h96q-82 -138 -82 -257q0 -83 33.5 -130.5t90.5 -47.5q49 0 80 44.5t31 125.5v144h81v-144q0 -81 31 -125.5t80 -44.5q57 0 90.5 47.5t33.5 130.5q0 119 -82 257h96q71 -133 71 -257q0 -83 -29 -140.5t-76.5 -86
t-104.5 -28.5q-49 0 -87.5 25.5t-63.5 74.5q-24 -49 -62.5 -74.5t-87.5 -25.5q-57 0 -104.5 28.5zM408 722h93l-70 -127h-74z" />
    <glyph glyph-name="uni03D1" unicode="&#x3d1;" horiz-adv-x="632" 
d="M166.5 13.5q-51.5 29.5 -80 81t-28.5 117.5v284h85v-267q0 -82 38 -125t104 -43t104.5 43.5t38.5 124.5v53q-61 12 -113 52.5t-82.5 99.5t-30.5 125q0 53 20.5 92.5t55.5 60t78 20.5q73 0 115 -48.5t42 -121.5v-204h90v-77h-90v-69q0 -66 -28.5 -117.5t-80 -81
t-119.5 -29.5q-67 0 -118.5 29.5zM428 568q0 36 -19 60.5t-53 24.5q-31 0 -51 -26t-20 -69q0 -67 40.5 -123t102.5 -74v207z" />
    <glyph glyph-name="uni03D2" unicode="&#x3d2;" horiz-adv-x="599" 
d="M257 315l-130 264q-18 35 -32.5 49t-33.5 14q-21 0 -42 -15v87q9 4 23.5 7t26.5 3q42 0 70.5 -22t57.5 -86l100 -216h4l100 216q30 64 58.5 86t70.5 22q12 0 26.5 -3t23.5 -7v-87q-22 15 -43 15q-19 0 -33.5 -14t-31.5 -49l-130 -264v-315h-85v315z" />
    <glyph glyph-name="uni03D3" unicode="&#x3d3;" horiz-adv-x="679" 
d="M-21 716h93l-71 -127h-74zM338 315l-130 264q-18 35 -32.5 49t-33.5 14q-21 0 -42 -15v87q9 4 23.5 7t26.5 3q42 0 70.5 -22t57.5 -86l100 -216h4l100 216q30 64 58.5 86t70.5 22q12 0 26.5 -3t23.5 -7v-87q-22 15 -43 15q-19 0 -33.5 -14t-31.5 -49l-130 -264v-315h-85
v315z" />
    <glyph glyph-name="uni03D4" unicode="&#x3d4;" horiz-adv-x="599" 
d="M257 315l-130 264q-18 35 -32.5 49t-33.5 14q-21 0 -42 -15v87q9 4 23.5 7t26.5 3q42 0 70.5 -22t57.5 -86l100 -216h4l100 216q30 64 58.5 86t70.5 22q12 0 26.5 -3t23.5 -7v-87q-22 15 -43 15q-19 0 -33.5 -14t-31.5 -49l-130 -264v-315h-85v315zM180 805.5
q-16 16.5 -16 37.5q0 23 16 38.5t38 15.5q23 0 38 -15.5t15 -38.5q0 -22 -15 -38t-38 -16q-22 0 -38 16.5zM344.5 805.5q-16.5 16.5 -16.5 37.5q0 23 16 38.5t38 15.5q23 0 38.5 -15.5t15.5 -38.5q0 -22 -15.5 -38t-38.5 -16q-21 0 -37.5 16.5z" />
    <glyph glyph-name="uni03D6" unicode="&#x3d6;" horiz-adv-x="895" 
d="M192.5 12.5q-47.5 28.5 -76.5 86t-29 140.5q0 90 39 180h-81v77h805v-77h-81q39 -94 39 -180q0 -83 -29 -140.5t-76.5 -86t-104.5 -28.5q-49 0 -87.5 25.5t-63.5 74.5q-24 -49 -62.5 -74.5t-87.5 -25.5q-57 0 -104.5 28.5zM376 105q31 44 31 125v90h81v-89
q0 -81 31 -125.5t80 -44.5q57 0 90.5 47.5t33.5 130.5q0 86 -47 180h-458q-46 -95 -46 -180q0 -83 33.5 -130.5t90.5 -47.5q49 0 80 44z" />
    <glyph glyph-name="uni0400" unicode="&#x400;" horiz-adv-x="550" 
d="M79 716h415v-81h-330v-237h298v-80h-298v-237h330v-81h-415v716zM180 900h93l52 -127h-75z" />
    <glyph glyph-name="uni0401" unicode="&#x401;" horiz-adv-x="550" 
d="M79 716h415v-81h-330v-237h298v-80h-298v-237h330v-81h-415v716zM167 805.5q-16 16.5 -16 37.5q0 23 16 38.5t38 15.5q23 0 38 -15.5t15 -38.5q0 -22 -15 -38t-38 -16q-22 0 -38 16.5zM331.5 805.5q-16.5 16.5 -16.5 37.5q0 23 16 38.5t38 15.5q23 0 38.5 -15.5
t15.5 -38.5q0 -22 -15.5 -38t-38.5 -16q-21 0 -37.5 16.5z" />
    <glyph glyph-name="uni0402" unicode="&#x402;" horiz-adv-x="751" 
d="M217 635h-191v81h471v-81h-195v-200l-4 -70h4q73 73 186 73q59 0 111.5 -27.5t84.5 -78.5t32 -117q0 -67 -28.5 -115t-77 -73.5t-105.5 -26.5h-25v81h25q58 0 91.5 38t33.5 96q0 40 -20 72.5t-56 51.5t-82 19q-55 0 -98 -22t-72 -61v-275h-85v635z" />
    <glyph glyph-name="uni0403" unicode="&#x403;" horiz-adv-x="504" 
d="M79 716h399v-81h-314v-635h-85v716zM294 900h93l-71 -127h-74z" />
    <glyph glyph-name="uni0404" unicode="&#x404;" horiz-adv-x="735" 
d="M694 112q-49 -59 -122.5 -93.5t-160.5 -34.5q-104 0 -188 49t-131.5 134.5t-47.5 190.5t47.5 190.5t131.5 134.5t188 49q80 0 146.5 -30t115.5 -87l-61 -59q-76 95 -201 95q-72 0 -133 -31t-100.5 -88.5t-48.5 -133.5h336v-80h-336q9 -76 48.5 -133.5t100.5 -88.5
t133 -31q132 0 222 106z" />
    <glyph glyph-name="uni0405" unicode="&#x405;" horiz-adv-x="559" 
d="M173.5 6.5q-50.5 22.5 -89 66t-55.5 105.5l81 33q17 -64 63 -105t107 -41q63 0 106 33.5t43 91.5q0 50 -36.5 82.5t-119.5 60.5l-45 16q-76 27 -124 71t-48 122q0 51 28 94.5t77.5 69.5t111.5 26t108.5 -23t74 -56t37.5 -65l-79 -34q-11 38 -46 67.5t-93 29.5
q-55 0 -94 -31t-39 -78q0 -42 33 -68.5t100 -49.5l46 -16q91 -33 142.5 -82.5t51.5 -134.5q0 -69 -35.5 -116t-89.5 -69t-112 -22q-54 0 -104.5 22.5z" />
    <glyph glyph-name="uni0406" unicode="&#x406;" horiz-adv-x="243" 
d="M79 716h85v-716h-85v716z" />
    <glyph glyph-name="uni0407" unicode="&#x407;" horiz-adv-x="243" 
d="M12 822q-15 15 -15 34q0 21 15 35t35 14q21 0 35 -14t14 -35q0 -20 -14 -34.5t-35 -14.5q-20 0 -35 15zM163 822q-15 15 -15 34q0 21 14.5 35t34.5 14q21 0 35 -14t14 -35q0 -20 -14 -34.5t-35 -14.5q-19 0 -34 15zM79 716h85v-716h-85v716z" />
    <glyph glyph-name="uni0408" unicode="&#x408;" horiz-adv-x="529" 
d="M109 27.5q-59 43.5 -83 122.5l79 33q36 -118 142 -118q59 0 94.5 41t35.5 108v502h85v-495q0 -75 -27.5 -128.5t-76 -81t-111.5 -27.5q-79 0 -138 43.5z" />
    <glyph glyph-name="uni0409" unicode="&#x409;" horiz-adv-x="1069" 
d="M26 -5v83q13 -5 33 -5q39 0 64 25q20 22 27.5 70.5t7.5 147.5v400h474v-306h183q58 0 107.5 -25t79 -71.5t29.5 -107.5t-29.5 -108t-79 -72.5t-107.5 -25.5h-267v635h-305v-355q0 -100 -15.5 -157t-47.5 -89q-42 -42 -121 -42q-18 0 -33 3zM819 81q37 0 66 17.5t44.5 46
t15.5 60.5t-15.5 61t-44 46.5t-66.5 17.5h-187v-249h187z" />
    <glyph glyph-name="uni040A" unicode="&#x40a;" horiz-adv-x="1015" 
d="M79 716h85v-306h329v306h85v-306h182q58 0 107.5 -25t79 -71.5t29.5 -107.5t-29.5 -108t-79 -72.5t-107.5 -25.5h-267v330h-329v-330h-85v716zM764 81q38 0 66.5 17.5t44 46t15.5 60.5t-15.5 61t-44 46.5t-66.5 17.5h-186v-249h186z" />
    <glyph glyph-name="uni040B" unicode="&#x40b;" horiz-adv-x="748" 
d="M217 635h-191v81h471v-81h-195v-200l-4 -70h4q68 73 177 73q58 0 106.5 -26t77 -74.5t28.5 -113.5v-224h-86v209q0 71 -37.5 110t-107.5 39q-50 0 -89.5 -21.5t-68.5 -61.5v-275h-85v635z" />
    <glyph glyph-name="uni040C" unicode="&#x40c;" horiz-adv-x="613" 
d="M79 716h85v-357h4l315 357h110v-4l-325 -362l339 -346v-4h-117l-322 337h-4v-337h-85v716zM321 900h93l-71 -127h-74z" />
    <glyph glyph-name="uni040D" unicode="&#x40d;" horiz-adv-x="699" 
d="M79 716h85v-432l-4 -138h4l351 570h104v-716h-84v459l4 138h-4l-368 -597h-88v716zM242 900h93l52 -127h-75z" />
    <glyph glyph-name="uni040E" unicode="&#x40e;" horiz-adv-x="600" 
d="M92 -3v85q34 -17 57 -17q31 0 48.5 12.5t33.5 47.5l26 55l-243 536h99l185 -437h4l185 437h99l-274 -604q-30 -65 -69.5 -96.5t-94.5 -31.5q-33 0 -56 13zM238.5 788.5q-29.5 16.5 -47.5 45t-18 62.5h69q0 -25 16 -42.5t43 -17.5q25 0 41 17.5t16 42.5h68
q0 -34 -17.5 -62.5t-46.5 -45t-61 -16.5q-33 0 -62.5 16.5z" />
    <glyph glyph-name="uni040F" unicode="&#x40f;" horiz-adv-x="673" 
d="M296 0h-217v716h85v-635h345v635h85v-716h-217v-152h-81v152z" />
    <glyph glyph-name="uni0410" unicode="&#x410;" horiz-adv-x="668" 
d="M286 716h96l272 -716h-94l-71 197h-309l-72 -197h-94zM459 277l-95 258l-28 77h-4l-29 -77l-94 -258h250z" />
    <glyph glyph-name="uni0411" unicode="&#x411;" horiz-adv-x="604" 
d="M79 716h413v-81h-328v-224h187q57 0 106.5 -25.5t79 -72.5t29.5 -107q0 -61 -29.5 -107.5t-79 -72.5t-106.5 -26h-272v716zM355 81q36 0 64.5 18t44 46.5t15.5 59.5t-15.5 60t-43.5 47t-65 18h-191v-249h191z" />
    <glyph glyph-name="uni0412" unicode="&#x412;" horiz-adv-x="604" 
d="M79 716h258q54 0 101 -25t75.5 -69t28.5 -99q0 -52 -27 -91t-72 -60v-4q54 -18 88.5 -62.5t34.5 -102.5t-30 -104.5t-79 -72.5t-106 -26h-272v716zM337 406q36 0 63.5 17t42 43.5t14.5 54.5q0 27 -14 53.5t-40.5 43.5t-61.5 17h-177v-229h173zM355 81q37 0 65 18
t43.5 46.5t15.5 58.5t-15.5 58.5t-45 46t-67.5 17.5h-187v-245h191z" />
    <glyph glyph-name="uni0413" unicode="&#x413;" horiz-adv-x="504" 
d="M79 716h399v-81h-314v-635h-85v716z" />
    <glyph glyph-name="uni0414" unicode="&#x414;" horiz-adv-x="778" 
d="M733 -152h-81v152h-526v-152h-81v233h65q49 49 73 158.5t24 239.5v237h450v-635h76v-233zM573 81v554h-283v-168q0 -122 -21.5 -221.5t-62.5 -164.5h367z" />
    <glyph glyph-name="uni0415" unicode="&#x415;" horiz-adv-x="550" 
d="M79 716h415v-81h-330v-237h298v-80h-298v-237h330v-81h-415v716z" />
    <glyph glyph-name="uni0416" unicode="&#x416;" horiz-adv-x="892" 
d="M5 4l306 346l-295 362v4h102l282 -350h4v350h84v-350h4l282 350h102v-4l-295 -362l306 -346v-4h-110l-285 330h-4v-330h-84v330h-4l-285 -330h-110v4z" />
    <glyph glyph-name="uni0417" unicode="&#x417;" horiz-adv-x="549" 
d="M179 2.5q-47 18.5 -85 59t-54 102.5l79 32q16 -60 57.5 -95.5t94.5 -35.5q40 0 74.5 18t55 49t20.5 70q0 37 -21 67.5t-56 48t-76 17.5h-61v80h54q58 0 97 33t39 87q0 51 -38 83.5t-93 32.5q-50 0 -84 -30.5t-47 -70.5l-78 33q19 57 72.5 103t136.5 46q62 0 111.5 -25.5
t77.5 -70.5t28 -100q0 -59 -27.5 -96.5t-70.5 -58.5v-4q54 -22 88 -66.5t34 -108.5q0 -63 -31.5 -112.5t-85.5 -77.5t-119 -28q-45 0 -92 18.5z" />
    <glyph glyph-name="uni0418" unicode="&#x418;" horiz-adv-x="699" 
d="M79 716h85v-432l-4 -138h4l351 570h104v-716h-84v459l4 138h-4l-368 -597h-88v716z" />
    <glyph glyph-name="uni0419" unicode="&#x419;" horiz-adv-x="699" 
d="M79 716h85v-432l-4 -138h4l351 570h104v-716h-84v459l4 138h-4l-368 -597h-88v716zM287.5 788.5q-29.5 16.5 -47.5 45t-18 62.5h69q0 -25 16 -42.5t43 -17.5q25 0 41 17.5t16 42.5h68q0 -34 -17.5 -62.5t-46.5 -45t-61 -16.5q-33 0 -62.5 16.5z" />
    <glyph glyph-name="uni041A" unicode="&#x41a;" horiz-adv-x="613" 
d="M79 716h85v-357h4l315 357h110v-4l-325 -362l339 -346v-4h-117l-322 337h-4v-337h-85v716z" />
    <glyph glyph-name="uni041B" unicode="&#x41b;" horiz-adv-x="712" 
d="M26 -5v83q13 -5 33 -5q39 0 64 25q20 22 27.5 70.5t7.5 147.5v400h474v-716h-84v635h-305v-355q0 -100 -15.5 -157t-47.5 -89q-42 -42 -121 -42q-18 0 -33 3z" />
    <glyph glyph-name="uni041C" unicode="&#x41c;" horiz-adv-x="865" 
d="M79 716h123l229 -587h4l228 587h123v-716h-85v455l4 136h-4l-233 -591h-71l-233 591h-4l4 -136v-455h-85v716z" />
    <glyph glyph-name="uni041D" unicode="&#x41d;" horiz-adv-x="697" 
d="M79 716h85v-310h369v310h85v-716h-85v326h-369v-326h-85v716z" />
    <glyph glyph-name="uni041E" unicode="&#x41e;" horiz-adv-x="822" 
d="M223.5 34q-83.5 50 -131.5 135.5t-48 188.5t48 188.5t132 135.5t187 50t187 -50t132 -136t48 -188q0 -103 -48 -188.5t-132 -135.5t-187 -50q-104 0 -187.5 50zM552.5 102.5q64.5 37.5 102 104t37.5 151.5t-37.5 151.5t-102 104t-141.5 37.5t-141.5 -37.5t-102 -104
t-37.5 -151.5t37.5 -151.5t102 -104t141.5 -37.5t141.5 37.5z" />
    <glyph glyph-name="uni041F" unicode="&#x41f;" horiz-adv-x="673" 
d="M79 716h515v-716h-85v635h-345v-635h-85v716z" />
    <glyph glyph-name="uni0420" unicode="&#x420;" horiz-adv-x="574" 
d="M79 716h241q60 0 111.5 -27t82 -75.5t30.5 -109.5t-30.5 -109.5t-82 -75.5t-111.5 -27h-156v-292h-85v716zM323 373q40 0 70.5 19t47 49t16.5 63t-16.5 63t-47 49t-70.5 19h-159v-262h159z" />
    <glyph glyph-name="uni0421" unicode="&#x421;" horiz-adv-x="738" 
d="M226 33q-85 49 -133.5 135t-48.5 190t48.5 190t133.5 135t188 49q81 0 147.5 -30.5t114.5 -86.5l-60 -59q-40 49 -89.5 72t-112.5 23q-77 0 -142 -36.5t-103.5 -103t-38.5 -153.5t38.5 -153.5t103.5 -103t142 -36.5q131 0 222 107l61 -60q-49 -59 -122 -93.5t-161 -34.5
q-103 0 -188 49z" />
    <glyph glyph-name="uni0422" unicode="&#x422;" horiz-adv-x="538" 
d="M227 635h-201v81h486v-81h-201v-635h-84v635z" />
    <glyph glyph-name="uni0423" unicode="&#x423;" horiz-adv-x="600" 
d="M92 -3v85q34 -17 57 -17q31 0 48.5 12.5t33.5 47.5l26 55l-243 536h99l185 -437h4l185 437h99l-274 -604q-30 -65 -69.5 -96.5t-94.5 -31.5q-33 0 -56 13z" />
    <glyph glyph-name="uni0424" unicode="&#x424;" horiz-adv-x="812" 
d="M727.5 211.5q-40.5 -65.5 -113 -106t-166.5 -47.5v-106h-84v106q-94 7 -166.5 47.5t-113 106t-40.5 146.5t40.5 146.5t113 106t166.5 47.5v106h84v-106q94 -7 166.5 -47.5t113 -106t40.5 -146.5t-40.5 -146.5zM618.5 207.5q63.5 59.5 63.5 150.5t-63.5 150.5t-170.5 70.5
v-442q107 11 170.5 70.5zM193.5 207.5q63.5 -59.5 170.5 -70.5v442q-107 -11 -170.5 -70.5t-63.5 -150.5t63.5 -150.5z" />
    <glyph glyph-name="uni0425" unicode="&#x425;" horiz-adv-x="630" 
d="M260 370l-228 346h101l180 -279h4l180 279h101l-228 -346l242 -370h-100l-195 299h-4l-195 -299h-100z" />
    <glyph glyph-name="uni0426" unicode="&#x426;" horiz-adv-x="694" 
d="M565 0h-486v716h85v-635h321v635h85v-635h79v-249h-84v168z" />
    <glyph glyph-name="uni0427" unicode="&#x427;" horiz-adv-x="595" 
d="M452 328q-35 -33 -77.5 -50.5t-101.5 -17.5q-63 0 -114.5 25.5t-82 74t-30.5 114.5v242h87v-227q0 -71 42 -110t114 -39q51 0 93.5 23t69.5 61v292h85v-716h-85v328z" />
    <glyph glyph-name="uni0428" unicode="&#x428;" horiz-adv-x="907" 
d="M79 716h85v-635h247v635h85v-635h247v635h85v-716h-749v716z" />
    <glyph glyph-name="uni0429" unicode="&#x429;" horiz-adv-x="952" 
d="M823 0h-744v716h85v-635h247v635h85v-635h247v635h85v-635h79v-249h-84v168z" />
    <glyph glyph-name="uni042A" unicode="&#x42a;" horiz-adv-x="746" 
d="M214 635h-188v81h273v-265h172q63 0 117 -28t86.5 -79.5t32.5 -117.5q0 -67 -32.5 -118.5t-86.5 -79.5t-117 -28h-257v635zM477 81q43 0 76 20.5t50.5 54t17.5 69.5t-17.5 69.5t-50.5 54.5t-76 21h-178v-289h178z" />
    <glyph glyph-name="uni042B" unicode="&#x42b;" horiz-adv-x="818" 
d="M79 716h85v-265h172q63 0 117.5 -28t87 -79.5t32.5 -117.5q0 -67 -32.5 -118.5t-87 -79.5t-117.5 -28h-257v716zM654 716h85v-716h-85v716zM342 81q43 0 76 20.5t50.5 54t17.5 69.5t-17.5 69.5t-50.5 54.5t-76 21h-178v-289h178z" />
    <glyph glyph-name="uni042C" unicode="&#x42c;" horiz-adv-x="611" 
d="M79 716h85v-265h172q63 0 117.5 -28t87 -79.5t32.5 -117.5q0 -67 -32.5 -118.5t-87 -79.5t-117.5 -28h-257v716zM342 81q43 0 76 20.5t50.5 54t17.5 69.5t-17.5 69.5t-50.5 54.5t-76 21h-178v-289h178z" />
    <glyph glyph-name="uni042D" unicode="&#x42d;" horiz-adv-x="735" 
d="M512 683q84 -49 131.5 -134.5t47.5 -190.5t-47.5 -190.5t-131.5 -134.5t-188 -49q-87 0 -160.5 34.5t-122.5 93.5l61 59q90 -106 222 -106q72 0 133 31t100.5 88.5t48.5 133.5h-336v80h336q-9 76 -48.5 133.5t-100.5 88.5t-133 31q-125 0 -201 -95l-61 59q49 57 115.5 87
t146.5 30q104 0 188 -49z" />
    <glyph glyph-name="uni042E" unicode="&#x42e;" horiz-adv-x="1083" 
d="M859 682q84 -50 132 -136t48 -188q0 -103 -48 -188.5t-132 -135.5t-187 -50q-98 0 -179 45t-130.5 123t-56.5 174h-142v-326h-85v716h85v-310h144q11 92 61 166t129 117t174 43q103 0 187 -50zM813 102.5q64 37.5 102 104.5t38 151t-38 151t-102 104.5t-141 37.5
t-141.5 -37.5t-102 -104t-37.5 -151.5t37.5 -151.5t102 -104t141.5 -37.5t141 37.5z" />
    <glyph glyph-name="uni042F" unicode="&#x42f;" horiz-adv-x="586" 
d="M14 4l202 293l-2 3q-48 10 -87.5 39t-62 72t-22.5 93q0 61 30.5 109.5t81.5 75.5t110 27h242v-716h-84v292h-113l-195 -292h-100v4zM422 371v264h-159q-40 0 -70.5 -19t-47.5 -49t-17 -63q0 -38 19.5 -68.5t52 -47.5t69.5 -17h153z" />
    <glyph glyph-name="uni0430" unicode="&#x430;" horiz-adv-x="522" 
d="M125.5 5.5q-43.5 21.5 -68 60t-24.5 86.5q0 79 59.5 123t152.5 44q46 0 83 -10t59 -22v26q0 36 -18.5 64.5t-49.5 44t-67 15.5q-85 0 -130 -69l-71 47q31 46 82 71.5t115 25.5q102 0 161 -55t59 -148v-309h-81v73h-4q-24 -38 -65 -63.5t-95 -25.5t-97.5 21.5zM306 80
q36 21 58.5 57t22.5 78q-56 36 -129 36q-63 0 -100.5 -28.5t-37.5 -72.5q0 -40 33 -65.5t77 -25.5q40 0 76 21z" />
    <glyph glyph-name="uni0431" unicode="&#x431;" horiz-adv-x="604" 
d="M188 19q-58 35 -92 106t-34 177q0 127 24 201t67 117q80 78 203 78q38 0 57.5 3.5t27.5 10.5t13 21h84q-14 -65 -54.5 -88.5t-122.5 -23.5q-57 0 -90.5 -14t-57.5 -39q-53 -53 -63 -150h4q25 41 71.5 67.5t107.5 26.5q65 0 119 -34.5t86 -95t32 -134.5q0 -76 -32.5 -136
t-90 -94t-129.5 -34t-130 35zM401.5 83.5q38.5 22.5 61.5 65.5t23 99t-23.5 98.5t-62 65.5t-82.5 23q-45 0 -83.5 -22.5t-61.5 -65t-23 -99.5q0 -53 23 -96t62 -67t83 -24q45 0 83.5 22.5z" />
    <glyph glyph-name="uni0432" unicode="&#x432;" horiz-adv-x="502" 
d="M62 496h243q40 0 74.5 -18t55 -49t20.5 -69q0 -36 -17.5 -62.5t-47.5 -40.5v-5q37 -14 60 -42t23 -66q0 -41 -21.5 -74t-56.5 -51.5t-76 -18.5h-257v496zM301 287q28 0 48.5 19t20.5 47q0 29 -20.5 47.5t-49.5 18.5h-153v-132h154zM312 77q30 0 52.5 20t22.5 51
q0 30 -22.5 50t-52.5 20h-165v-141h165z" />
    <glyph glyph-name="uni0433" unicode="&#x433;" horiz-adv-x="421" 
d="M62 496h332v-77h-247v-419h-85v496z" />
    <glyph glyph-name="uni0434" unicode="&#x434;" horiz-adv-x="642" 
d="M32 77h54q23 23 39.5 91.5t16.5 144.5v183h393v-419h76v-229h-81v152h-417v-152h-81v229zM451 77v342h-227v-113q0 -65 -13 -125t-37 -104h277z" />
    <glyph glyph-name="uni0435" unicode="&#x435;" horiz-adv-x="550" 
d="M154.5 18q-56.5 34 -88.5 94t-32 136q0 72 30 132.5t85.5 96t127.5 35.5t126.5 -32.5t83.5 -91.5t29 -136q0 -14 -2 -20h-394q2 -56 27 -94.5t62.5 -57.5t77.5 -19q94 0 145 92l75 -36q-32 -60 -88.5 -96.5t-135.5 -36.5q-72 0 -128.5 34zM426 303q-2 30 -17 60t-48.5 51
t-85.5 21q-56 0 -97 -36t-52 -96h300z" />
    <glyph glyph-name="uni0436" unicode="&#x436;" horiz-adv-x="724" 
d="M2 4l224 259l-213 229v4h106l197 -219h4v219h84v-219h4l196 219h107v-4l-215 -229l225 -259v-4h-105l-208 245h-4v-245h-84v245h-4l-208 -245h-106v4z" />
    <glyph glyph-name="uni0437" unicode="&#x437;" horiz-adv-x="493" 
d="M136 7q-52 23 -90 65l57 56q35 -34 67.5 -50.5t72.5 -16.5q56 0 88.5 22.5t32.5 56.5q0 32 -25.5 55t-70.5 23h-83v69h79q35 0 59.5 20.5t24.5 54.5q0 29 -28.5 51t-74.5 22q-37 0 -66 -12.5t-60 -43.5l-57 54q39 41 83.5 60t99.5 19q50 0 93 -18.5t69 -52t26 -75.5
q0 -78 -70 -108v-4q40 -16 64 -47t24 -71q0 -69 -57 -110.5t-151 -41.5q-55 0 -107 23z" />
    <glyph glyph-name="uni0438" unicode="&#x438;" horiz-adv-x="559" 
d="M62 496h85v-273l-4 -96h4l265 369h85v-496h-85v273l4 96h-4l-265 -369h-85v496z" />
    <glyph glyph-name="uni0439" unicode="&#x439;" horiz-adv-x="559" 
d="M62 496h85v-273l-4 -96h4l265 369h85v-496h-85v273l4 96h-4l-265 -369h-85v496zM218.5 610.5q-29.5 16.5 -47.5 45t-18 62.5h69q0 -24 16 -42t43 -18q25 0 41 18t16 42h68q0 -34 -17.5 -62.5t-46.5 -45t-61 -16.5q-33 0 -62.5 16.5z" />
    <glyph glyph-name="uni043A" unicode="&#x43a;" horiz-adv-x="480" 
d="M62 496h85v-224h4l209 224h107v-4l-223 -231l234 -257v-4h-105l-222 250h-4v-250h-85v496z" />
    <glyph glyph-name="uni043B" unicode="&#x43b;" horiz-adv-x="612" 
d="M47 0l1 76q16 -5 33 -5q23 0 35 15.5t17 51t5 99.5v259h412v-496h-85v419h-244v-206q0 -120 -35.5 -170.5t-92.5 -50.5q-26 0 -46 8z" />
    <glyph glyph-name="uni043C" unicode="&#x43c;" horiz-adv-x="675" 
d="M60 496h102l173 -329h3l174 329h103v-496h-85v271l4 96h-4l-162 -303h-61l-162 303h-4l4 -96v-271h-85v496z" />
    <glyph glyph-name="uni043D" unicode="&#x43d;" horiz-adv-x="560" 
d="M62 496h85v-207h266v207h85v-496h-85v210h-266v-210h-85v496z" />
    <glyph glyph-name="uni043E" unicode="&#x43e;" horiz-adv-x="577" 
d="M157 18.5q-58 34.5 -90.5 95t-32.5 134.5t32.5 134.5t90.5 95t131 34.5t131.5 -34.5t91 -95t32.5 -134.5t-32.5 -134.5t-91 -95t-131.5 -34.5t-131 34.5zM372 84q39 23 62.5 65.5t23.5 98.5t-23.5 98.5t-62.5 65.5t-84 23q-44 0 -83 -23t-62.5 -65.5t-23.5 -98.5
t23.5 -98.5t62.5 -65.5t83 -23q45 0 84 23z" />
    <glyph glyph-name="uni043F" unicode="&#x43f;" horiz-adv-x="541" 
d="M62 496h417v-496h-85v419h-247v-419h-85v496z" />
    <glyph glyph-name="uni0440" unicode="&#x440;" horiz-adv-x="586" 
d="M58 496h81v-73h4q24 38 69 63.5t104 25.5q64 0 118 -34.5t86 -94.5t32 -135t-32 -135t-86 -94.5t-118 -34.5q-59 0 -104.5 25.5t-68.5 64.5h-4l4 -69v-221h-85v712zM384.5 84q37.5 23 60 65.5t22.5 98.5t-22.5 98.5t-60 65.5t-81.5 23t-81.5 -22.5t-60 -65t-22.5 -99.5
q0 -56 22.5 -99t60 -65.5t81.5 -22.5t81.5 23z" />
    <glyph glyph-name="uni0441" unicode="&#x441;" horiz-adv-x="533" 
d="M157 18.5q-58 34.5 -90.5 95t-32.5 134.5q0 75 32.5 135t90.5 94.5t130 34.5q81 0 136 -39t80 -101l-77 -33q-40 96 -144 96q-42 0 -79.5 -23.5t-60.5 -66t-23 -97.5q0 -54 23 -97t60.5 -66.5t79.5 -23.5q53 0 91 25t57 71l75 -32q-25 -62 -81 -101.5t-137 -39.5
q-72 0 -130 34.5z" />
    <glyph glyph-name="uni0442" unicode="&#x442;" horiz-adv-x="460" 
d="M188 419h-161v77h406v-77h-161v-419h-84v419z" />
    <glyph glyph-name="uni0443" unicode="&#x443;" horiz-adv-x="503" 
d="M213 32l-206 464h92l154 -365h2l149 365h92l-310 -712h-87z" />
    <glyph glyph-name="uni0444" unicode="&#x444;" horiz-adv-x="757" 
d="M676 114q-37 -57 -103 -89.5t-152 -38.5v-202h-85v202q-132 10 -212 78.5t-80 183.5q0 114 80 183t212 79v206h85v-206q131 -10 211.5 -79t80.5 -183q0 -77 -37 -134zM576 120.5q56 47.5 56 127.5q0 79 -56 127t-155 56v-366q99 8 155 55.5zM181 120.5
q56 -47.5 155 -55.5v366q-99 -8 -155 -56t-56 -127q0 -80 56 -127.5z" />
    <glyph glyph-name="uni0445" unicode="&#x445;" horiz-adv-x="476" 
d="M188 252l-172 244h96l127 -181l122 181h99l-173 -244l178 -252h-100l-128 190l-126 -190h-99z" />
    <glyph glyph-name="uni0446" unicode="&#x446;" horiz-adv-x="586" 
d="M473 0h-411v496h85v-419h247v419h85v-419h75v-229h-81v152z" />
    <glyph glyph-name="uni0447" unicode="&#x447;" horiz-adv-x="510" 
d="M364 192q-47 -34 -136 -34q-56 0 -99.5 24t-67.5 66t-24 94v154h86v-153q0 -50 32.5 -79t85.5 -29q40 0 72 10.5t51 29.5v221h84v-496h-84v192z" />
    <glyph glyph-name="uni0448" unicode="&#x448;" horiz-adv-x="772" 
d="M62 496h85v-419h187v419h84v-419h187v419h85v-496h-628v496z" />
    <glyph glyph-name="uni0449" unicode="&#x449;" horiz-adv-x="820" 
d="M684 0h-622v496h85v-419h187v419h84v-419h187v419h85v-419h75v-229h-81v152z" />
    <glyph glyph-name="uni044A" unicode="&#x44a;" horiz-adv-x="585" 
d="M141 419h-114v77h199v-171h159q46 0 86 -21t63.5 -58t23.5 -83q0 -47 -23.5 -84t-63.5 -58t-86 -21h-244v419zM383 77q36 0 62.5 24.5t26.5 61.5q0 36 -27 60.5t-62 24.5h-157v-171h157z" />
    <glyph glyph-name="uni044B" unicode="&#x44b;" horiz-adv-x="703" 
d="M62 496h85v-171h159q46 0 86 -21t63.5 -58t23.5 -83q0 -47 -23.5 -84t-63.5 -58t-86 -21h-244v496zM557 496h84v-496h-84v496zM304 77q36 0 62.5 24.5t26.5 61.5q0 36 -27 60.5t-62 24.5h-157v-171h157z" />
    <glyph glyph-name="uni044C" unicode="&#x44c;" horiz-adv-x="506" 
d="M62 496h85v-171h159q46 0 86 -21t63.5 -58t23.5 -83q0 -47 -23.5 -84t-63.5 -58t-86 -21h-244v496zM304 77q36 0 62.5 24.5t26.5 61.5q0 36 -27 60.5t-62 24.5h-157v-171h157z" />
    <glyph glyph-name="uni044D" unicode="&#x44d;" horiz-adv-x="529" 
d="M109 23.5q-55 39.5 -81 101.5l75 32q42 -96 148 -96q59 0 105.5 41.5t56.5 110.5h-221v69h221q-10 70 -56.5 111.5t-105.5 41.5q-104 0 -143 -96l-77 33q25 62 79 101t135 39q73 0 130 -34.5t88.5 -94.5t31.5 -135q0 -74 -31.5 -134.5t-88.5 -95t-130 -34.5
q-81 0 -136 39.5z" />
    <glyph glyph-name="uni044E" unicode="&#x44e;" horiz-adv-x="781" 
d="M372.5 12.5q-54.5 28.5 -89 79.5t-42.5 116h-90v-208h-85v496h85v-209h90q8 65 42.5 116t89 80t120.5 29q73 0 131 -34.5t90.5 -95t32.5 -134.5t-32.5 -134.5t-90.5 -95t-131 -34.5q-66 0 -120.5 28.5zM576 84q39 23 63 65.5t24 98.5t-24 98.5t-63 65.5t-83 23
q-45 0 -84 -23t-62.5 -65.5t-23.5 -98.5t23.5 -98.5t62.5 -65.5t84 -23q44 0 83 23z" />
    <glyph glyph-name="uni044F" unicode="&#x44f;" horiz-adv-x="490" 
d="M3 5l143 178l-2 2q-54 14 -87.5 53.5t-33.5 94.5q0 46 24 83.5t63.5 58.5t85.5 21h232v-496h-85v178h-107l-136 -178h-97v5zM343 251v168h-144q-36 0 -62.5 -23.5t-26.5 -60.5t26 -60.5t63 -23.5h144z" />
    <glyph glyph-name="uni0450" unicode="&#x450;" horiz-adv-x="550" 
d="M154.5 18q-56.5 34 -88.5 94t-32 136q0 72 30 132.5t85.5 96t127.5 35.5t126.5 -32.5t83.5 -91.5t29 -136q0 -14 -2 -20h-394q2 -56 27 -94.5t62.5 -57.5t77.5 -19q94 0 145 92l75 -36q-32 -60 -88.5 -96.5t-135.5 -36.5q-72 0 -128.5 34zM426 303q-2 30 -17 60t-48.5 51
t-85.5 21q-56 0 -97 -36t-52 -96h300zM172 722h93l52 -127h-75z" />
    <glyph glyph-name="uni0451" unicode="&#x451;" horiz-adv-x="550" 
d="M154.5 18q-56.5 34 -88.5 94t-32 136q0 72 30 132.5t85.5 96t127.5 35.5t126.5 -32.5t83.5 -91.5t29 -136q0 -14 -2 -20h-394q2 -56 27 -94.5t62.5 -57.5t77.5 -19q94 0 145 92l75 -36q-32 -60 -88.5 -96.5t-135.5 -36.5q-72 0 -128.5 34zM426 303q-2 30 -17 60t-48.5 51
t-85.5 21q-56 0 -97 -36t-52 -96h300zM159 627.5q-16 16.5 -16 37.5q0 23 16 38.5t38 15.5q23 0 38 -15.5t15 -38.5q0 -22 -15 -38t-38 -16q-22 0 -38 16.5zM323.5 627.5q-16.5 16.5 -16.5 37.5q0 23 16 38.5t38 15.5q23 0 38.5 -15.5t15.5 -38.5q0 -22 -15.5 -38t-38.5 -16
q-21 0 -37.5 16.5z" />
    <glyph glyph-name="uni0452" unicode="&#x452;" horiz-adv-x="554" 
d="M312 -220v81q22 -10 41 -10q31 0 45 19.5t14 57.5v373q0 69 -33.5 101.5t-89.5 32.5q-40 0 -72.5 -23.5t-51 -62t-18.5 -79.5v-270h-85v577h-64v67h64v72h85v-72h150v-67h-150v-85l-4 -71h4q21 39 65.5 65t96.5 26q93 0 140 -54t47 -144v-386q0 -77 -37 -115.5
t-103 -38.5q-26 0 -44 6z" />
    <glyph glyph-name="uni0453" unicode="&#x453;" horiz-adv-x="421" 
d="M62 496h332v-77h-247v-419h-85v496zM243 722h93l-71 -127h-74z" />
    <glyph glyph-name="uni0454" unicode="&#x454;" horiz-adv-x="531" 
d="M155 18.5q-57 34.5 -88.5 95t-31.5 134.5q0 75 31.5 135t88.5 94.5t130 34.5q81 0 135 -39t79 -101l-77 -33q-19 48 -54 72t-89 24q-59 0 -105.5 -41.5t-56.5 -111.5h222v-69h-222q10 -69 56.5 -110.5t105.5 -41.5q106 0 148 96l75 -32q-25 -62 -80.5 -101.5
t-136.5 -39.5q-73 0 -130 34.5z" />
    <glyph glyph-name="uni0455" unicode="&#x455;" horiz-adv-x="463" 
d="M103 24q-55 40 -77 99l75 33q20 -47 56.5 -72t79.5 -25q48 0 79.5 21t31.5 51q0 29 -23.5 48t-80.5 33l-68 17q-56 13 -95.5 47t-39.5 90q0 46 26.5 79t70.5 50t96 17q64 0 116.5 -29.5t74.5 -83.5l-75 -32q-16 36 -48.5 53t-72.5 17q-39 0 -70.5 -19t-31.5 -49
q0 -26 20.5 -41t65.5 -27l74 -18q74 -19 110.5 -56.5t36.5 -89.5q0 -43 -25 -78t-70 -55t-102 -20q-79 0 -134 40z" />
    <glyph glyph-name="uni0456" unicode="&#x456;" horiz-adv-x="224" 
d="M69 618q-18 18 -18 43t18 43t43 18t43 -18t18 -43t-17.5 -43t-43.5 -18q-25 0 -43 18zM70 496h84v-496h-84v496z" />
    <glyph glyph-name="uni0457" unicode="&#x457;" horiz-adv-x="224" 
d="M8 627.5q-16 16.5 -16 37.5q0 23 16 38.5t38 15.5q23 0 38 -15.5t15 -38.5q0 -22 -15 -38t-38 -16q-22 0 -38 16.5zM141 627.5q-16 16.5 -16 37.5q0 23 16 38.5t38 15.5q23 0 38 -15.5t15 -38.5q0 -22 -15 -38t-38 -16q-22 0 -38 16.5zM70 496h84v-496h-84v496z" />
    <glyph glyph-name="uni0458" unicode="&#x458;" horiz-adv-x="224" 
d="M69 618q-18 18 -18 43t18 43t43 18t43 -18t18 -43t-17.5 -43t-43.5 -18q-25 0 -43 18zM-30 -220v81q22 -10 41 -10q31 0 45 19.5t14 57.5v568h84v-568q0 -77 -37 -115.5t-103 -38.5q-24 0 -44 6z" />
    <glyph glyph-name="uni0459" unicode="&#x459;" horiz-adv-x="902" 
d="M47 0l1 76q16 -5 33 -5q23 0 35 15.5t17 51t5 99.5v259h412v-181h157q44 0 82 -20t61 -56t23 -81t-23 -81t-61 -56.5t-82 -20.5h-242v419h-244v-206q0 -120 -35.5 -170.5t-92.5 -50.5q-26 0 -46 8zM703 77q34 0 59 23t25 58q0 34 -25 57t-59 23h-153v-161h153z" />
    <glyph glyph-name="uni045A" unicode="&#x45a;" horiz-adv-x="827" 
d="M62 496h85v-181h241v181h85v-181h158q44 0 82.5 -20t61.5 -56t23 -81t-23 -81t-61.5 -56.5t-82.5 -20.5h-243v238h-241v-238h-85v496zM627 77q35 0 60 23t25 58q0 34 -25 57t-60 23h-154v-161h154z" />
    <glyph glyph-name="uni045B" unicode="&#x45b;" horiz-adv-x="554" 
d="M449 458q47 -54 47 -144v-314h-84v301q0 69 -33.5 101.5t-89.5 32.5q-40 0 -72.5 -23.5t-51 -62t-18.5 -79.5v-270h-85v577h-64v67h64v72h85v-72h150v-67h-150v-85l-4 -71h4q21 39 65.5 65t96.5 26q93 0 140 -54z" />
    <glyph glyph-name="uni045C" unicode="&#x45c;" horiz-adv-x="480" 
d="M62 496h85v-224h4l209 224h107v-4l-223 -231l234 -257v-4h-105l-222 250h-4v-250h-85v496zM255 722h93l-71 -127h-74z" />
    <glyph glyph-name="uni045D" unicode="&#x45d;" horiz-adv-x="559" 
d="M62 496h85v-273l-4 -96h4l265 369h85v-496h-85v273l4 96h-4l-265 -369h-85v496zM173 722h93l52 -127h-75z" />
    <glyph glyph-name="uni045E" unicode="&#x45e;" horiz-adv-x="503" 
d="M213 32l-206 464h92l154 -365h2l149 365h92l-310 -712h-87zM190.5 610.5q-29.5 16.5 -47.5 45t-18 62.5h69q0 -24 16 -42t43 -18q25 0 41 18t16 42h68q0 -34 -17.5 -62.5t-46.5 -45t-61 -16.5q-33 0 -62.5 16.5z" />
    <glyph glyph-name="uni045F" unicode="&#x45f;" horiz-adv-x="561" 
d="M240 0h-178v496h85v-419h267v419h85v-496h-178v-152h-81v152z" />
    <glyph glyph-name="uni0490" unicode="&#x490;" horiz-adv-x="507" 
d="M72 716h330v110h81v-191h-326v-635h-85v716z" />
    <glyph glyph-name="uni0491" unicode="&#x491;" horiz-adv-x="411" 
d="M56 496h249v97h81v-174h-245v-419h-85v496z" />
    <glyph glyph-name="uni04AE" unicode="&#x4ae;" horiz-adv-x="594" 
d="M257 331l-243 385h99l184 -300h4l180 300h99l-239 -385v-331h-84v331z" />
    <glyph glyph-name="uni04AF" unicode="&#x4af;" horiz-adv-x="502" 
d="M208 0l-202 496h92l153 -403l155 403h90l-204 -496v-216h-84v216z" />
    <glyph glyph-name="uni04B0" unicode="&#x4b0;" horiz-adv-x="594" 
d="M256 279h-177v66h168l-233 371h99l184 -300h4l180 300h99l-230 -371h168v-66h-177v-279h-85v279z" />
    <glyph glyph-name="uni04B1" unicode="&#x4b1;" horiz-adv-x="502" 
d="M208 0h-147v65h121l-14 32l-162 399h92l153 -403l155 403h90l-164 -398l-15 -33h122v-65h-147v-216h-84v216z" />
    <glyph glyph-name="uni0E3F" unicode="&#xe3f;" horiz-adv-x="579" 
d="M252 0h-180v684h180v100h71v-100h3q52 0 98 -23.5t73.5 -66t27.5 -94.5q0 -49 -26 -87t-69 -58v-3q51 -17 83.5 -59.5t32.5 -98.5t-29 -100t-77 -69t-102 -25h-15v-100h-71v100zM252 389v214h-95v-214h95zM326 389q34 0 60.5 15.5t40.5 40.5t14 51t-14 51t-39.5 40.5
t-58.5 15.5h-6v-214h3zM252 81v229h-95v-229h95zM342 81q35 0 62 17t41.5 43.5t14.5 55.5q0 28 -15 54t-43 42.5t-64 16.5h-15v-229h19z" />
    <glyph glyph-name="Wgrave" unicode="&#x1e80;" horiz-adv-x="944" 
d="M17 716h94l130 -526l12 -49h4l15 49l160 526h88l153 -526l15 -49h4l141 575h94l-193 -716h-88l-152 518l-16 56h-4l-17 -56l-158 -518h-88zM369 900h93l52 -127h-75z" />
    <glyph glyph-name="wgrave" unicode="&#x1e81;" horiz-adv-x="759" 
d="M6 496h88l116 -386h1l126 386h88l126 -386h1l116 386h85l-161 -496h-85l-128 393l-127 -393h-85zM273 722h93l52 -127h-75z" />
    <glyph glyph-name="Wacute" unicode="&#x1e82;" horiz-adv-x="944" 
d="M17 716h94l130 -526l12 -49h4l15 49l160 526h88l153 -526l15 -49h4l141 575h94l-193 -716h-88l-152 518l-16 56h-4l-17 -56l-158 -518h-88zM491 900h93l-71 -127h-74z" />
    <glyph glyph-name="wacute" unicode="&#x1e83;" horiz-adv-x="759" 
d="M6 496h88l116 -386h1l126 386h88l126 -386h1l116 386h85l-161 -496h-85l-128 393l-127 -393h-85zM395 722h93l-71 -127h-74z" />
    <glyph glyph-name="Wdieresis" unicode="&#x1e84;" horiz-adv-x="944" 
d="M17 716h94l130 -526l12 -49h4l15 49l160 526h88l153 -526l15 -49h4l141 575h94l-193 -716h-88l-152 518l-16 56h-4l-17 -56l-158 -518h-88zM356 805.5q-16 16.5 -16 37.5q0 23 16 38.5t38 15.5q23 0 38 -15.5t15 -38.5q0 -22 -15 -38t-38 -16q-22 0 -38 16.5z
M520.5 805.5q-16.5 16.5 -16.5 37.5q0 23 16 38.5t38 15.5q23 0 38.5 -15.5t15.5 -38.5q0 -22 -15.5 -38t-38.5 -16q-21 0 -37.5 16.5z" />
    <glyph glyph-name="wdieresis" unicode="&#x1e85;" horiz-adv-x="759" 
d="M6 496h88l116 -386h1l126 386h88l126 -386h1l116 386h85l-161 -496h-85l-128 393l-127 -393h-85zM260 627.5q-16 16.5 -16 37.5q0 23 16 38.5t38 15.5q23 0 38 -15.5t15 -38.5q0 -22 -15 -38t-38 -16q-22 0 -38 16.5zM424.5 627.5q-16.5 16.5 -16.5 37.5q0 23 16 38.5
t38 15.5q23 0 38.5 -15.5t15.5 -38.5q0 -22 -15.5 -38t-38.5 -16q-21 0 -37.5 16.5z" />
    <glyph glyph-name="Ygrave" unicode="&#x1ef2;" horiz-adv-x="594" 
d="M257 331l-243 385h99l184 -300h4l180 300h99l-239 -385v-331h-84v331zM190 900h93l52 -127h-75z" />
    <glyph glyph-name="ygrave" unicode="&#x1ef3;" horiz-adv-x="503" 
d="M213 32l-206 464h92l154 -365h2l149 365h92l-310 -712h-87zM145 722h93l52 -127h-75z" />
    <glyph glyph-name="uni2000" unicode="&#x2000;" horiz-adv-x="415" 
d="M0 0z" />
    <glyph glyph-name="uni2001" unicode="&#x2001;" horiz-adv-x="830" 
d="M0 0z" />
    <glyph glyph-name="uni2002" unicode="&#x2002;" horiz-adv-x="415" 
d="M0 0z" />
    <glyph glyph-name="uni2003" unicode="&#x2003;" horiz-adv-x="830" 
d="M0 0z" />
    <glyph glyph-name="uni2004" unicode="&#x2004;" horiz-adv-x="275" 
d="M0 0z" />
    <glyph glyph-name="uni2005" unicode="&#x2005;" horiz-adv-x="207" 
d="M0 0z" />
    <glyph glyph-name="uni2006" unicode="&#x2006;" horiz-adv-x="138" 
d="M0 0z" />
    <glyph glyph-name="uni2007" unicode="&#x2007;" 
d="M0 0z" />
    <glyph glyph-name="uni2008" unicode="&#x2008;" horiz-adv-x="232" 
d="M0 0z" />
    <glyph glyph-name="uni2009" unicode="&#x2009;" horiz-adv-x="138" 
d="M0 0z" />
    <glyph glyph-name="uni200A" unicode="&#x200a;" horiz-adv-x="70" 
d="M0 0z" />
    <glyph glyph-name="endash" unicode="&#x2013;" horiz-adv-x="599" 
d="M61 345h477v-70h-477v70z" />
    <glyph glyph-name="emdash" unicode="&#x2014;" horiz-adv-x="899" 
d="M61 345h776v-70h-776v70z" />
    <glyph glyph-name="uni2015" unicode="&#x2015;" horiz-adv-x="1031" 
d="M61 345h908v-70h-908v70z" />
    <glyph glyph-name="quoteleft" unicode="&#x2018;" horiz-adv-x="227" 
d="M66.5 528.5q-18.5 18.5 -18.5 45.5q0 16 6.5 31t20.5 36l63 91l40 -26l-49 -75q18 -3 32 -18.5t14 -38.5q0 -27 -18.5 -45.5t-44.5 -18.5q-27 0 -45.5 18.5z" />
    <glyph glyph-name="quoteright" unicode="&#x2019;" horiz-adv-x="228" 
d="M49 536l49 75q-18 3 -32 18.5t-14 38.5q0 27 18.5 45.5t44.5 18.5q27 0 45.5 -18.5t18.5 -45.5q0 -16 -6.5 -31t-20.5 -36l-63 -91z" />
    <glyph glyph-name="quotesinglbase" unicode="&#x201a;" horiz-adv-x="227" 
d="M48 -75l53 75q-21 4 -35.5 19t-14.5 38q0 27 18.5 45.5t45.5 18.5q26 0 44.5 -18.5t18.5 -45.5q0 -16 -7 -32t-20 -35l-62 -91z" />
    <glyph glyph-name="quotedblleft" unicode="&#x201c;" horiz-adv-x="395" 
d="M65.5 528.5q-18.5 18.5 -18.5 45.5q0 16 6.5 31t20.5 36l63 91l40 -26l-49 -75q18 -3 32 -18.5t14 -38.5q0 -27 -18.5 -45.5t-44.5 -18.5q-27 0 -45.5 18.5zM234.5 528.5q-18.5 18.5 -18.5 45.5q0 16 6.5 31t20.5 36l63 91l40 -26l-49 -75q18 -3 32 -18.5t14 -38.5
q0 -27 -18.5 -45.5t-44.5 -18.5q-27 0 -45.5 18.5z" />
    <glyph glyph-name="quotedblright" unicode="&#x201d;" horiz-adv-x="395" 
d="M47 536l53 75q-21 4 -35.5 19t-14.5 38q0 27 18.5 45.5t45.5 18.5q26 0 44.5 -18.5t18.5 -45.5q0 -16 -7 -32t-20 -35l-62 -91zM216 536l53 75q-21 4 -35.5 19t-14.5 38q0 27 18.5 45.5t45.5 18.5q26 0 44.5 -18.5t18.5 -45.5q0 -16 -7 -32t-20 -35l-62 -91z" />
    <glyph glyph-name="quotedblbase" unicode="&#x201e;" horiz-adv-x="395" 
d="M47 -75l53 75q-21 4 -35.5 19t-14.5 38q0 27 18.5 45.5t45.5 18.5q26 0 44.5 -18.5t18.5 -45.5q0 -16 -7 -32t-20 -35l-62 -91zM216 -75l53 75q-21 4 -35.5 19t-14.5 38q0 27 18.5 45.5t45.5 18.5q26 0 44.5 -18.5t18.5 -45.5q0 -16 -7 -32t-20 -35l-62 -91z" />
    <glyph glyph-name="dagger" unicode="&#x2020;" horiz-adv-x="436" 
d="M176 493h-144v78h144v145h84v-145h144v-78h-144v-335h-84v335z" />
    <glyph glyph-name="daggerdbl" unicode="&#x2021;" horiz-adv-x="436" 
d="M176 161h-144v78h144v254h-144v78h144v145h84v-145h144v-78h-144v-254h144v-78h-144v-161h-84v161z" />
    <glyph glyph-name="bullet" unicode="&#x2022;" horiz-adv-x="386" 
d="M114 244q-33 33 -33 80t33 80t79 33q47 0 80 -33t33 -80q0 -46 -33 -79.5t-80 -33.5q-46 0 -79 33z" />
    <glyph glyph-name="ellipsis" unicode="&#x2026;" horiz-adv-x="696" 
d="M73.5 12.5q-18.5 18.5 -18.5 45.5q0 26 18.5 44.5t45.5 18.5q26 0 44.5 -18.5t18.5 -44.5q0 -27 -18.5 -45.5t-44.5 -18.5q-27 0 -45.5 18.5zM303.5 12.5q-18.5 18.5 -18.5 45.5q0 26 18.5 44.5t45.5 18.5q26 0 44.5 -18.5t18.5 -44.5q0 -27 -18.5 -45.5t-44.5 -18.5
q-27 0 -45.5 18.5zM533.5 12.5q-18.5 18.5 -18.5 45.5q0 26 18.5 44.5t45.5 18.5q26 0 44.5 -18.5t18.5 -44.5q0 -27 -18.5 -45.5t-44.5 -18.5q-27 0 -45.5 18.5z" />
    <glyph glyph-name="perthousand" unicode="&#x2030;" horiz-adv-x="1105" 
d="M123 381.5q-39 23.5 -62 63t-23 84.5t23 84.5t62 63t85 23.5t85.5 -23.5t62 -63t22.5 -84.5t-22.5 -84.5t-62 -63t-85.5 -23.5t-85 23.5zM163 28l445 663l52 -36l-444 -662zM281 451.5q29 31.5 29 77.5q0 47 -29 78t-73 31q-43 0 -72 -31t-29 -78q0 -46 29 -77.5
t72 -31.5q44 0 73 31.5zM531 7.5q-39 23.5 -62 63t-23 84.5t23 84.5t62 63t85 23.5q44 0 81 -22.5t59 -59.5q23 37 60 59.5t81 22.5q46 0 85 -23.5t62 -63t23 -84.5t-23 -84.5t-62 -63t-85 -23.5q-44 0 -81 22.5t-60 59.5q-22 -37 -59 -59.5t-81 -22.5q-46 0 -85 23.5z
M689 77.5q29 31.5 29 77.5q0 47 -29 78t-73 31q-43 0 -72 -31t-29 -78q0 -46 29 -77.5t72 -31.5q44 0 73 31.5zM969 77.5q29 31.5 29 77.5q0 47 -29 78t-72 31t-72.5 -31t-29.5 -78q0 -46 29.5 -77.5t72.5 -31.5t72 31.5z" />
    <glyph glyph-name="uni2031" unicode="&#x2031;" horiz-adv-x="1374" 
d="M117 381.5q-39 23.5 -62 63t-23 84.5t23 84.5t62 63t85 23.5t85.5 -23.5t62 -63t22.5 -84.5t-22.5 -84.5t-62 -63t-85.5 -23.5t-85 23.5zM157 28l445 663l52 -36l-444 -662zM275 451.5q29 31.5 29 77.5q0 47 -29 78t-73 31q-43 0 -72 -31t-29 -78q0 -46 29 -77.5
t72 -31.5q44 0 73 31.5zM525 7.5q-39 23.5 -62 63t-23 84.5t23 84.5t62 63t85 23.5q44 0 81 -22.5t59 -59.5q23 37 60 59.5t81 22.5t81 -22.5t59 -59.5q22 37 59 59.5t81 22.5q46 0 85.5 -23.5t62 -63t22.5 -84.5t-22.5 -84.5t-62 -63t-85.5 -23.5q-44 0 -81 22.5t-59 59.5
q-22 -37 -59 -59.5t-81 -22.5t-81 22.5t-60 59.5q-22 -37 -59 -59.5t-81 -22.5q-46 0 -85 23.5zM683 77.5q29 31.5 29 77.5q0 47 -29 78t-73 31q-43 0 -72 -31t-29 -78q0 -46 29 -77.5t72 -31.5q44 0 73 31.5zM963 77.5q29 31.5 29 77.5q0 47 -29 78t-72 31t-72.5 -31
t-29.5 -78q0 -46 29.5 -77.5t72.5 -31.5t72 31.5zM1243.5 77.5q29.5 31.5 29.5 77.5q0 47 -29.5 78t-72.5 31t-72 -31t-29 -78q0 -46 29 -77.5t72 -31.5t72.5 31.5z" />
    <glyph glyph-name="guilsinglleft" unicode="&#x2039;" horiz-adv-x="351" 
d="M40 271l200 217l50 -46l-161 -171l161 -171l-50 -46z" />
    <glyph glyph-name="guilsinglright" unicode="&#x203a;" horiz-adv-x="351" 
d="M60 100l161 171l-161 171l50 46l200 -217l-200 -217z" />
    <glyph glyph-name="exclamdbl" unicode="&#x203c;" horiz-adv-x="456" 
d="M76 473v243h84v-243l-10 -262h-65zM72.5 12.5q-18.5 18.5 -18.5 45.5q0 26 18.5 44.5t45.5 18.5q26 0 44.5 -18.5t18.5 -44.5q0 -27 -18.5 -45.5t-44.5 -18.5q-27 0 -45.5 18.5zM297 473v243h84v-243l-10 -262h-65zM293.5 12.5q-18.5 18.5 -18.5 45.5q0 26 18.5 44.5
t45.5 18.5q26 0 44.5 -18.5t18.5 -44.5q0 -27 -18.5 -45.5t-44.5 -18.5q-27 0 -45.5 18.5z" />
    <glyph glyph-name="uni2042" unicode="&#x2042;" horiz-adv-x="870" 
d="M307 437l71 95l-2 7l-103 36l21 63l103 -37l4 2v111h67v-111l4 -2l104 37l20 -63l-103 -36l-2 -7l71 -95l-54 -40l-70 96h-7l-69 -96zM74 35l71 95l-2 7l-103 36l21 63l103 -37l4 2v111h67v-111l4 -2l104 37l20 -63l-103 -36l-2 -7l71 -95l-54 -40l-70 96h-7l-69 -96z
M540 35l71 95l-2 7l-103 36l21 63l103 -37l4 2v111h67v-111l4 -2l104 37l20 -63l-103 -36l-2 -7l71 -95l-54 -40l-70 96h-7l-69 -96z" />
    <glyph glyph-name="uni2043" unicode="&#x2043;" horiz-adv-x="397" 
d="M72 349h253v-78h-253v78z" />
    <glyph glyph-name="fraction" unicode="&#x2044;" horiz-adv-x="173" 
d="M-173 28l466 695l53 -36l-466 -694z" />
    <glyph glyph-name="uni2047" unicode="&#x2047;" horiz-adv-x="964" 
d="M200 259q0 50 18.5 83.5t68.5 78.5q39 36 56.5 61.5t17.5 61.5q0 48 -31 77.5t-86 29.5q-50 0 -79 -28.5t-44 -70.5l-79 33q20 58 71 102.5t131 44.5q60 0 106.5 -24.5t72 -67.5t25.5 -96q0 -38 -16 -70.5t-34.5 -53t-47.5 -47.5q-33 -30 -48.5 -57t-15.5 -63v-42h-86v48
zM198.5 12.5q-18.5 18.5 -18.5 45.5q0 26 18.5 44.5t44.5 18.5q27 0 45.5 -18.5t18.5 -44.5q0 -27 -18.5 -45.5t-45.5 -18.5q-26 0 -44.5 18.5zM662 259q0 50 18.5 83.5t68.5 78.5q39 36 56.5 61.5t17.5 61.5q0 48 -31 77.5t-86 29.5q-50 0 -79 -28.5t-44 -70.5l-79 33
q20 58 71 102.5t131 44.5q60 0 106.5 -24.5t72 -67.5t25.5 -96q0 -38 -16 -70.5t-34.5 -53t-47.5 -47.5q-33 -30 -48.5 -57t-15.5 -63v-42h-86v48zM660.5 12.5q-18.5 18.5 -18.5 45.5q0 26 18.5 44.5t44.5 18.5q27 0 45.5 -18.5t18.5 -44.5q0 -27 -18.5 -45.5t-45.5 -18.5
q-26 0 -44.5 18.5z" />
    <glyph glyph-name="uni2048" unicode="&#x2048;" horiz-adv-x="701" 
d="M200 259q0 50 18.5 83.5t68.5 78.5q39 36 56.5 61.5t17.5 61.5q0 48 -31 77.5t-86 29.5q-50 0 -79 -28.5t-44 -70.5l-79 33q20 58 71 102.5t131 44.5q60 0 106.5 -24.5t72 -67.5t25.5 -96q0 -38 -16 -70.5t-34.5 -53t-47.5 -47.5q-33 -30 -48.5 -57t-15.5 -63v-42h-86v48
zM198.5 12.5q-18.5 18.5 -18.5 45.5q0 26 18.5 44.5t44.5 18.5q27 0 45.5 -18.5t18.5 -44.5q0 -27 -18.5 -45.5t-45.5 -18.5q-26 0 -44.5 18.5zM541 473v243h84v-243l-10 -262h-65zM537.5 12.5q-18.5 18.5 -18.5 45.5q0 26 18.5 44.5t45.5 18.5q26 0 44.5 -18.5t18.5 -44.5
q0 -27 -18.5 -45.5t-44.5 -18.5q-27 0 -45.5 18.5z" />
    <glyph glyph-name="uni2049" unicode="&#x2049;" horiz-adv-x="708" 
d="M406 259q0 50 18.5 83.5t68.5 78.5q39 36 56.5 61.5t17.5 61.5q0 48 -31 77.5t-86 29.5q-50 0 -79 -28.5t-44 -70.5l-79 33q20 58 71 102.5t131 44.5q60 0 106.5 -24.5t72 -67.5t25.5 -96q0 -38 -16 -70.5t-34.5 -53t-47.5 -47.5q-33 -30 -48.5 -57t-15.5 -63v-42h-86v48
zM404.5 12.5q-18.5 18.5 -18.5 45.5q0 26 18.5 44.5t44.5 18.5q27 0 45.5 -18.5t18.5 -44.5q0 -27 -18.5 -45.5t-45.5 -18.5q-26 0 -44.5 18.5zM76 473v243h84v-243l-10 -262h-65zM72.5 12.5q-18.5 18.5 -18.5 45.5q0 26 18.5 44.5t45.5 18.5q26 0 44.5 -18.5t18.5 -44.5
q0 -27 -18.5 -45.5t-44.5 -18.5q-27 0 -45.5 18.5z" />
    <glyph glyph-name="uni204E" unicode="&#x204e;" horiz-adv-x="393" 
d="M60 38l77 103l-3 8l-112 38l23 67l111 -39l5 2v119h71v-119l5 -2l111 39l23 -67l-112 -38l-2 -8l76 -103l-58 -42l-75 103h-7l-75 -103z" />
    <glyph glyph-name="uni2051" unicode="&#x2051;" horiz-adv-x="404" 
d="M74 437l71 95l-2 7l-103 36l21 63l103 -37l4 2v111h67v-111l4 -2l104 37l20 -63l-103 -36l-2 -7l71 -95l-54 -40l-70 96h-7l-69 -96zM74 35l71 95l-2 7l-103 36l21 63l103 -37l4 2v111h67v-111l4 -2l104 37l20 -63l-103 -36l-2 -7l71 -95l-54 -40l-70 96h-7l-69 -96z" />
    <glyph glyph-name="uni2055" unicode="&#x2055;" horiz-adv-x="655" 
d="M292 242l-131 -132l-49 49l133 131h-189v70h189l-133 131l49 49l131 -132v188h71v-188l131 132l49 -49l-133 -131h189v-70h-189l133 -131l-49 -49l-131 132v-188h-71v188z" />
    <glyph glyph-name="uni2074" unicode="&#x2074;" horiz-adv-x="342" 
d="M200 424h-172v44l176 248h60v-236h49v-56h-49v-74h-64v74zM200 480v137h-4l-99 -137h103z" />
    <glyph glyph-name="franc" unicode="&#x20a3;" horiz-adv-x="553" 
d="M188 603v-229h292v-80h-292v-107h137v-70h-137v-117h-85v117h-76v70h76v497h409v-81h-324z" />
    <glyph glyph-name="lira" unicode="&#x20a4;" horiz-adv-x="524" 
d="M505 111q-42 -111 -158 -111h-309v73q34 15 58.5 40t37.5 56h-95v70h107q-3 46 -24 90h-83v70h48q-14 28 -21.5 52.5t-7.5 51.5q0 52 25 97.5t71.5 72.5t106.5 27q79 0 128 -42t68 -99l-77 -32q-12 38 -41.5 65t-77.5 27q-55 0 -86.5 -35t-31.5 -81q0 -25 7.5 -49.5
t21.5 -54.5h166v-70h-135q18 -43 19 -90h116v-70h-126q-17 -49 -54 -85l4 -3h185q37 0 57 14.5t31 44.5z" />
    <glyph glyph-name="uni20A9" unicode="&#x20a9;" horiz-adv-x="980" 
d="M152 329h-115v70h96l-76 285h92l68 -285h147l87 285h87l83 -285h142l69 285h91l-76 -285h95v-70h-114l-88 -329h-84l-96 329h-136l-100 -329h-83zM540 399l-27 93l-17 57h-4l-17 -57l-28 -93h93zM284 136l19 61l40 132h-108l31 -132l15 -61h3zM699 136l15 61l32 132h-105
l38 -132l17 -61h3z" />
    <glyph glyph-name="dong" unicode="&#x20ab;" horiz-adv-x="577" 
d="M150.5 16q-53.5 32 -85 90t-31.5 131t31.5 131t85 90t115.5 32q58 0 99 -24.5t65 -63.5h4l-4 68v73h-144v66h144v75h84v-75h65v-66h-65v-543h-80v72h-4q-24 -39 -65 -63.5t-99 -24.5q-62 0 -115.5 32zM390.5 107.5q43.5 46.5 43.5 129.5t-43.5 129.5t-110.5 46.5
q-43 0 -80 -21t-59 -61t-22 -94t22 -94t59 -61t80 -21q67 0 110.5 46.5zM76 -84h438v-70h-438v70z" />
    <glyph glyph-name="Euro" unicode="&#x20ac;" horiz-adv-x="634" 
d="M606 25q-71 -41 -163 -41q-75 0 -140 29.5t-111.5 84.5t-67.5 129h-96v70h82q-2 30 -2 45t2 45h-82v70h96q21 74 68 129t112 84.5t139 29.5q39 0 78 -11t70 -31l-40 -68q-28 15 -53.5 21.5t-55.5 6.5q-77 0 -139.5 -41.5t-90.5 -119.5h228v-70h-243q-3 -21 -3 -45t3 -45
h243v-70h-227q28 -78 90.5 -119.5t140.5 -41.5q65 0 123 32z" />
    <glyph glyph-name="uni20AE" unicode="&#x20ae;" horiz-adv-x="526" 
d="M221 136l-130 -81v86l130 81v104l-130 -81v86l130 81v191h-195v81h474v-81h-195v-142l130 81v-86l-130 -82v-103l130 82v-86l-130 -83v-184h-84v136z" />
    <glyph glyph-name="uni20B1" unicode="&#x20b1;" horiz-adv-x="636" 
d="M616 444h-62q-13 -76 -75 -122t-144 -46h-145v-276h-84v444h-77v70h77v170h229q55 0 102 -21t78 -59.5t39 -89.5h62v-70zM190 514h276q-11 39 -45 64t-84 25h-147v-89zM419.5 381.5q33.5 24.5 45.5 62.5h-275v-87h147q49 0 82.5 24.5z" />
    <glyph glyph-name="uni20B8" unicode="&#x20b8;" horiz-adv-x="526" 
d="M26 684h474v-70h-474v70zM221 451h-195v70h474v-70h-195v-451h-84v451z" />
    <glyph glyph-name="uni20B9" unicode="&#x20b9;" horiz-adv-x="557" 
d="M530 614h-114q43 -39 53 -93h61v-71h-60q-9 -49 -40 -88t-78 -60.5t-100 -21.5h-28l-3 -3l271 -273v-4h-117l-264 273v85h141q46 0 82 25t48 67h-356v71h356q-12 40 -45 66.5t-80 26.5h-231v70h504v-70z" />
    <glyph glyph-name="uni20BA" unicode="&#x20ba;" horiz-adv-x="536" 
d="M510 261q0 -73 -36.5 -132.5t-99 -94t-140.5 -34.5h-78v192l-130 -81v85l130 81v104l-130 -81v86l130 82v216h84v-168l130 82v-87l-130 -82v-103l130 83v-87l-130 -82v-159q55 1 98 26t66.5 66t23.5 88h82z" />
    <glyph glyph-name="uni20BD" unicode="&#x20bd;" horiz-adv-x="585" 
d="M104 117h-77v70h77v89h-77v71h77v337h229q60 0 111 -25.5t81 -72t30 -106.5t-30 -106.5t-81 -72t-111 -25.5h-145v-89h137v-70h-137v-117h-84v117zM335 357q40 0 70 17t46.5 45.5t16.5 60.5t-16.5 60.5t-46.5 45.5t-70 17h-147v-246h147z" />
    <glyph glyph-name="uni2103" unicode="&#x2103;" horiz-adv-x="972" 
d="M97.5 459.5q-30.5 17.5 -48 47t-17.5 64.5t17.5 65t48 47t65.5 17t64.5 -17t47 -47t17.5 -65t-17.5 -64.5t-47 -47t-64.5 -17.5t-65.5 17.5zM485 31q-81 47 -127.5 129t-46.5 182t46.5 182t127.5 129t180 47q76 0 139.5 -30t110.5 -84l-58 -58q-70 90 -192 90
q-74 0 -135 -33.5t-96.5 -96.5t-35.5 -146t36 -146t97 -96.5t135 -33.5q126 0 211 100l59 -58q-48 -57 -117.5 -90.5t-152.5 -33.5q-100 0 -181 47zM209.5 521.5q19.5 20.5 19.5 49.5t-19.5 49.5t-46.5 20.5q-28 0 -48 -20.5t-20 -49.5t20 -49.5t48 -20.5q27 0 46.5 20.5z
" />
    <glyph glyph-name="uni2109" unicode="&#x2109;" horiz-adv-x="812" 
d="M97.5 459.5q-30.5 17.5 -48 47t-17.5 64.5t17.5 65t48 47t65.5 17t64.5 -17t47 -47t17.5 -65t-17.5 -64.5t-47 -47t-64.5 -17.5t-65.5 17.5zM379 684h401v-81h-316v-229h285v-80h-285v-294h-85v684zM209.5 521.5q19.5 20.5 19.5 49.5t-19.5 49.5t-46.5 20.5
q-28 0 -48 -20.5t-20 -49.5t20 -49.5t48 -20.5q27 0 46.5 20.5z" />
    <glyph glyph-name="uni2113" unicode="&#x2113;" horiz-adv-x="425" 
d="M150 34.5q-44 42.5 -44 114.5v133h-90v77h90v210q0 71 37 117t106 46q39 0 72 -22t52 -64t19 -98q0 -64 -25.5 -120t-71.5 -94t-104 -49v-126q0 -44 21 -67t56 -23q37 0 69 22v-86q-26 -13 -69 -13q-74 0 -118 42.5zM278.5 428q31.5 49 31.5 120q0 49 -18 77t-44 28
q-29 0 -43 -23t-14 -65v-201q56 15 87.5 64z" />
    <glyph glyph-name="uni2114" unicode="&#x2114;" horiz-adv-x="801" 
d="M655.5 472q53.5 -34 85.5 -93.5t32 -133.5t-32 -133.5t-85.5 -93.5t-115.5 -34q-58 0 -103.5 25t-67.5 64h-4v-73h-81v575h-109v-575h-85v575h-66v66h66v75h85v-75h109v75h85v-75h147v-66h-147v-90l-4 -68h4q22 39 67.5 64t103.5 25q62 0 115.5 -34zM607 83.5
q37 22.5 59 64.5t22 97t-22 97t-59 64.5t-80 22.5q-44 0 -81 -22t-59 -64t-22 -98t22 -98t59 -64t81 -22q43 0 80 22.5z" />
    <glyph glyph-name="uni2116" unicode="&#x2116;" horiz-adv-x="1077" 
d="M789 413.5q-39 23.5 -62 63t-23 84.5t23 84.5t62 63t85 23.5t85.5 -23.5t62.5 -63t23 -84.5t-23 -84.5t-62.5 -63t-85.5 -23.5t-85 23.5zM73 716h104l360 -570h4l-4 138v432h84v-716h-88l-375 597h-4l4 -138v-459h-85v716zM947 483.5q29 31.5 29 77.5q0 47 -29 78t-73 31
q-42 0 -71.5 -31t-29.5 -78q0 -46 29.5 -77.5t71.5 -31.5q44 0 73 31.5zM734 305h280v-67h-280v67z" />
    <glyph glyph-name="uni2117" unicode="&#x2117;" horiz-adv-x="532" 
d="M151 303q-53 31 -84 84t-31 115t31 115t84 84t115 31t115 -31t84 -84t31 -115t-31 -115t-84 -84t-115 -31t-115 31zM358.5 343q42.5 25 67.5 67.5t25 91.5q0 50 -24.5 92.5t-67 67t-93.5 24.5q-49 0 -91.5 -24.5t-67.5 -67t-25 -92.5q0 -49 25 -91.5t67.5 -67.5t91.5 -25
q50 0 92.5 25zM198 615h94q30 0 52 -21t22 -51t-22 -50.5t-52 -20.5h-50v-83h-44v226zM288 514q14 0 23.5 8t9.5 21q0 12 -9 21t-23 9h-47v-59h46z" />
    <glyph glyph-name="prescription" unicode="&#x211e;" horiz-adv-x="687" 
d="M260 -156l159 226l-153 222h-109v-292h-85v716h243q59 0 110 -27t81.5 -75.5t30.5 -109.5q0 -50 -23 -93t-62 -72t-87 -39l-2 -3l107 -155l103 148h93v-4l-147 -214l160 -228v-4h-100l-111 160l-110 -160h-98v4zM309 371q38 0 70 17t51.5 47.5t19.5 68.5q0 33 -16.5 63
t-47 49t-70.5 19h-159v-264h152z" />
    <glyph glyph-name="uni2120" unicode="&#x2120;" horiz-adv-x="496" 
d="M49.5 502q-24.5 16 -33.5 44l39 17q5 -16 19 -26.5t29 -10.5t26 7.5t11 19.5q0 13 -12 21.5t-40 15.5q-29 7 -46.5 23.5t-17.5 41.5q0 29 23 47t56 18q25 0 47 -14.5t30 -37.5l-38 -15q-3 9 -14 18t-25 9q-16 0 -25.5 -6.5t-9.5 -17.5q0 -18 40 -30q35 -11 55.5 -26.5
t20.5 -46.5q0 -32 -25.5 -49.5t-55.5 -17.5q-29 0 -53.5 16zM222 716h60l64 -164h2l64 164h60v-226h-42v122l2 44h-2l-68 -166h-30l-68 166h-2l2 -44v-122h-42v226z" />
    <glyph glyph-name="trademark" unicode="&#x2122;" horiz-adv-x="500" 
d="M77 676h-69v40h180v-40h-67v-186h-44v186zM225 716h60l64 -164h2l64 164h61v-226h-43v122l2 44h-2l-67 -166h-31l-68 166h-2l2 -44v-122h-42v226z" />
    <glyph glyph-name="uni2126" unicode="&#x2126;" horiz-adv-x="800" 
d="M65 81h166v4q-86 44 -133.5 122t-47.5 176q0 93 45.5 173t126 128t178.5 48t178 -48t126 -128.5t46 -172.5q0 -97 -48 -175.5t-133 -122.5v-4h165v-81h-275v120q58 14 105 51t73.5 92t26.5 120q0 75 -35.5 136t-96 96.5t-132.5 35.5t-132.5 -35.5t-96 -96.5t-35.5 -136
q0 -65 26.5 -120t73.5 -92t105 -51v-120h-276v81z" />
    <glyph glyph-name="estimated" unicode="&#x212e;" horiz-adv-x="786" 
d="M219.5 33q-82.5 49 -128.5 134.5t-46 190.5q0 100 44.5 185.5t124 137t179.5 51.5q104 0 182.5 -46.5t122 -131t43.5 -196.5l-1 -23l-556 1v-186q37 -52 96.5 -79t127.5 -27q81 0 146.5 38t100.5 120l63 -26q-34 -82 -115.5 -137t-195.5 -55q-105 0 -187.5 49zM602 393
v196q-34 40 -89 61.5t-120 21.5q-62 0 -116.5 -24t-92.5 -70v-185h418z" />
    <glyph glyph-name="uni2153" unicode="&#x2153;" horiz-adv-x="805" 
d="M137 632l-52 -43l-36 48l98 79h55v-366h-65v282zM106 28l466 695l53 -36l-466 -694zM518 17q-37 25 -49 74l60 23q8 -33 28 -48t45 -15q27 0 46 16t19 42q0 24 -18.5 38.5t-45.5 14.5h-40v56h36q24 0 40 14t16 36q0 21 -15.5 34t-38.5 13q-43 0 -61 -45l-57 23
q13 37 43.5 59t74.5 22q54 0 87.5 -29.5t33.5 -75.5q0 -47 -47 -76q59 -31 59 -84t-39 -85t-93 -32q-47 0 -84 25z" />
    <glyph glyph-name="uni2154" unicode="&#x2154;" horiz-adv-x="876" 
d="M51 406l65 65t69 70q21 21 33 38.5t12 37.5t-16 34t-40 14t-41 -15t-24 -46l-60 25q9 44 44 69.5t80 25.5q50 0 86.5 -29.5t36.5 -77.5q0 -31 -18 -58t-44 -53l-98 -97h162v-59h-247v56zM177 28l466 695l53 -36l-466 -694zM586 17q-37 25 -49 74l60 23q8 -33 28 -48
t45 -15q27 0 46 16t19 42q0 24 -18.5 38.5t-45.5 14.5h-40v56h36q24 0 40 14t16 36q0 21 -15.5 34t-38.5 13q-43 0 -61 -45l-57 23q13 37 43.5 59t74.5 22q54 0 87.5 -29.5t33.5 -75.5q0 -47 -47 -76q59 -31 59 -84t-39 -85t-93 -32q-47 0 -84 25z" />
    <glyph glyph-name="oneeighth" unicode="&#x215b;" horiz-adv-x="795" 
d="M137 632l-52 -43l-36 48l98 79h55v-366h-65v282zM104 28l466 695l53 -36l-466 -694zM512 23.5q-40 31.5 -40 81.5q0 26 14 49t39 39q-18 12 -29.5 32t-11.5 41q0 48 36 78t85 30t85 -30t36 -78q0 -21 -11.5 -41.5t-29.5 -31.5q25 -16 39 -39t14 -49q0 -51 -40 -82
t-93 -31t-93 31.5zM643.5 232q16.5 14 16.5 34t-16 34.5t-39 14.5q-24 0 -39 -14t-15 -35t16 -34.5t38 -13.5t38.5 14zM651 67.5q21 16.5 21 40.5q0 23 -21 39.5t-46 16.5t-45.5 -16t-20.5 -40q0 -25 20 -41t46 -16q25 0 46 16.5z" />
    <glyph glyph-name="threeeighths" unicode="&#x215c;" horiz-adv-x="842" 
d="M98 367q-37 25 -49 74l60 23q8 -33 28 -48t45 -15q27 0 46 16t19 42q0 24 -18.5 38.5t-45.5 14.5h-40v56h36q24 0 40 14t16 36q0 21 -15.5 34t-38.5 13q-43 0 -61 -45l-57 23q13 37 43.5 59t74.5 22q54 0 87.5 -29.5t33.5 -75.5q0 -47 -47 -76q59 -31 59 -84t-39 -85
t-93 -32q-47 0 -84 25zM159 28l466 695l53 -36l-466 -694zM560 23.5q-40 31.5 -40 81.5q0 26 14 49t39 39q-18 12 -29.5 32t-11.5 41q0 48 36 78t85 30t85 -30t36 -78q0 -21 -11.5 -41.5t-29.5 -31.5q25 -16 39 -39t14 -49q0 -51 -40 -82t-93 -31t-93 31.5zM691.5 232
q16.5 14 16.5 34t-16 34.5t-39 14.5q-24 0 -39 -14t-15 -35t16 -34.5t38 -13.5t38.5 14zM699 67.5q21 16.5 21 40.5q0 23 -21 39.5t-46 16.5t-45.5 -16t-20.5 -40q0 -25 20 -41t46 -16q25 0 46 16.5z" />
    <glyph glyph-name="fiveeighths" unicode="&#x215d;" horiz-adv-x="843" 
d="M99 365.5q-37 22.5 -50 68.5l61 23q6 -26 25 -40.5t46 -14.5q28 0 47 20t19 49t-19 48.5t-47 19.5q-39 0 -64 -35l-57 23l25 189h207v-56h-152l-13 -86q11 10 28 15.5t35 5.5q52 0 88 -34.5t36 -90.5q0 -36 -18.5 -65t-49 -45.5t-65.5 -16.5q-45 0 -82 22.5zM156 28
l466 695l53 -36l-466 -694zM561 23.5q-40 31.5 -40 81.5q0 26 14 49t39 39q-18 12 -29.5 32t-11.5 41q0 48 36 78t85 30t85 -30t36 -78q0 -21 -11.5 -41.5t-29.5 -31.5q25 -16 39 -39t14 -49q0 -51 -40 -82t-93 -31t-93 31.5zM692.5 232q16.5 14 16.5 34t-16 34.5t-39 14.5
q-24 0 -39 -14t-15 -35t16 -34.5t38 -13.5t38.5 14zM700 67.5q21 16.5 21 40.5q0 23 -21 39.5t-46 16.5t-45.5 -16t-20.5 -40q0 -25 20 -41t46 -16q25 0 46 16.5z" />
    <glyph glyph-name="seveneighths" unicode="&#x215e;" horiz-adv-x="768" 
d="M64 366l157 291h-172v59h248v-55l-176 -326zM66 28l466 695l53 -36l-466 -694zM485 23.5q-40 31.5 -40 81.5q0 26 14 49t39 39q-18 12 -29.5 32t-11.5 41q0 48 36 78t85 30t85 -30t36 -78q0 -21 -11.5 -41.5t-29.5 -31.5q25 -16 39 -39t14 -49q0 -51 -40 -82t-93 -31
t-93 31.5zM616.5 232q16.5 14 16.5 34t-16 34.5t-39 14.5q-24 0 -39 -14t-15 -35t16 -34.5t38 -13.5t38.5 14zM624 67.5q21 16.5 21 40.5q0 23 -21 39.5t-46 16.5t-45.5 -16t-20.5 -40q0 -25 20 -41t46 -16q25 0 46 16.5z" />
    <glyph glyph-name="uni2160" unicode="&#x2160;" horiz-adv-x="440" 
d="M24 81h154v522h-154v81h392v-81h-154v-522h154v-81h-392v81z" />
    <glyph glyph-name="uni2161" unicode="&#x2161;" horiz-adv-x="700" 
d="M24 81h154v522h-154v81h652v-81h-154v-522h154v-81h-652v81zM438 81v522h-176v-522h176z" />
    <glyph glyph-name="uni2162" unicode="&#x2162;" horiz-adv-x="960" 
d="M24 81h154v522h-154v81h912v-81h-154v-522h154v-81h-912v81zM438 81v522h-176v-522h176zM698 81v522h-176v-522h176z" />
    <glyph glyph-name="uni2163" unicode="&#x2163;" horiz-adv-x="982" 
d="M24 81h154v522h-154v81h934v-81h-119l-164 -522h283v-81h-934v81zM551 81l-164 522h-125v-522h289zM615 143l15 52l121 408h-276l120 -408l16 -52h4z" />
    <glyph glyph-name="uni2164" unicode="&#x2164;" horiz-adv-x="738" 
d="M24 81h283l-164 522h-119v81h690v-81h-119l-164 -522h283v-81h-690v81zM371 143l15 52l121 408h-276l120 -408l16 -52h4z" />
    <glyph glyph-name="uni2165" unicode="&#x2165;" horiz-adv-x="1010" 
d="M24 81h283l-164 522h-119v81h934v-81h-154v-522h154v-81h-934v81zM371 143l15 52l121 408h-276l120 -408l16 -52h4zM720 81v522h-125l-164 -522h289z" />
    <glyph glyph-name="uni2166" unicode="&#x2166;" horiz-adv-x="1250" 
d="M24 81h283l-164 522h-119v81h1194v-81h-154v-522h154v-81h-1194v81zM371 143l15 52l121 408h-276l120 -408l16 -52h4zM720 81v522h-125l-164 -522h289zM980 81v522h-176v-522h176z" />
    <glyph glyph-name="uni2167" unicode="&#x2167;" horiz-adv-x="1502" 
d="M24 81h283l-165 522h-118v81h1454v-81h-154v-522h154v-81h-1454v81zM371 143l15 52l121 408h-276l120 -408l16 -52h4zM720 81v522h-125l-164 -522h289zM980 81v522h-176v-522h176zM1240 81v522h-176v-522h176z" />
    <glyph glyph-name="uni2168" unicode="&#x2168;" horiz-adv-x="930" 
d="M24 81h154v522h-154v81h882v-81h-101l-170 -258l175 -264h96v-81h-882v81zM361 81l176 264l-171 258h-104v-522h99zM602 444l105 159h-242l105 -159l16 -24zM711 81l-111 168l-14 21l-14 -21l-111 -168h250z" />
    <glyph glyph-name="uni2169" unicode="&#x2169;" horiz-adv-x="687" 
d="M24 81h94l176 264l-171 258h-99v81h639v-81h-101l-170 -258l175 -264h96v-81h-639v81zM359 444l105 159h-242l105 -159l16 -24zM468 81l-111 168l-14 21l-14 -21l-111 -168h250z" />
    <glyph glyph-name="uni216A" unicode="&#x216a;" horiz-adv-x="930" 
d="M24 81h95l175 264l-170 258h-100v81h882v-81h-154v-522h154v-81h-882v81zM360 444l105 159h-243l122 -183zM668 81v522h-105l-170 -258l175 -264h100zM469 81l-111 168l-14 21l-14 -21l-111 -168h250z" />
    <glyph glyph-name="uni216B" unicode="&#x216b;" horiz-adv-x="1190" 
d="M24 81h95l175 264l-170 258h-100v81h1142v-81h-154v-522h154v-81h-1142v81zM360 444l105 159h-243l122 -183zM668 81v522h-105l-170 -258l175 -264h100zM928 81v522h-176v-522h176zM469 81l-111 168l-14 21l-14 -21l-111 -168h250z" />
    <glyph glyph-name="uni216C" unicode="&#x216c;" horiz-adv-x="617" 
d="M24 81h130v522h-130v81h344v-81h-129v-522h265v147h84v-228h-564v81z" />
    <glyph glyph-name="uni216D" unicode="&#x216d;" horiz-adv-x="730" 
d="M219.5 30q-81.5 46 -128.5 128t-47 184q0 101 47.5 183t127 128.5t173.5 46.5q63 0 117 -24.5t91 -65.5h4v74h81v-201h-81q-30 64 -83.5 100t-124.5 36q-69 0 -130 -33.5t-98 -96t-37 -147.5t37 -148t99 -96t133 -33q76 0 132 32.5t99 99.5l71 -44q-51 -81 -127 -125
t-175 -44t-180.5 46z" />
    <glyph glyph-name="uni216E" unicode="&#x216e;" horiz-adv-x="729" 
d="M24 81h128v522h-128v81h311q105 0 184.5 -43.5t122.5 -121t43 -177.5t-43 -177.5t-122.5 -121t-184.5 -43.5h-311v81zM335 81q122 0 193 68.5t71 192.5t-71 192.5t-193 68.5h-98v-522h98z" />
    <glyph glyph-name="uni216F" unicode="&#x216f;" horiz-adv-x="979" 
d="M24 81h128v522h-128v81h250l213 -554h4l214 554h249v-81h-128v-522h128v-81h-310v81h98v346l4 128h-4l-217 -555h-72l-216 555h-4l4 -128v-346h98v-81h-311v81z" />
    <glyph glyph-name="uni2180" unicode="&#x2180;" horiz-adv-x="1106" 
d="M209.5 43.5q-79.5 43.5 -122.5 121t-43 177.5t43 177.5t122.5 121t184.5 43.5h282q105 0 184.5 -43.5t122.5 -121t43 -177.5t-43 -177.5t-122.5 -121t-184.5 -43.5h-282q-105 0 -184.5 43.5zM493 81v522h-99q-122 0 -192.5 -68.5t-70.5 -192.5t70.5 -192.5t192.5 -68.5
h99zM676 81q122 0 192.5 68.5t70.5 192.5t-70.5 192.5t-192.5 68.5h-99v-522h99z" />
    <glyph glyph-name="uni2181" unicode="&#x2181;" horiz-adv-x="729" 
d="M24 81h128v522h-128v81h311q105 0 184.5 -43.5t122.5 -121t43 -177.5t-43 -177.5t-122.5 -121t-184.5 -43.5h-311v81zM335 81q122 0 193 68.5t71 192.5t-71 192.5t-193 68.5h-98v-95h46q46 0 84.5 -23t61 -61t22.5 -82t-22.5 -82t-61 -61t-84.5 -23h-46v-95h98zM283 243
q42 0 69.5 27.5t27.5 71.5t-27.5 71.5t-69.5 27.5h-46v-198h46z" />
    <glyph glyph-name="uni2182" unicode="&#x2182;" horiz-adv-x="1070" 
d="M209.5 43.5q-79.5 43.5 -122.5 121t-43 177.5t43 177.5t122.5 121t184.5 43.5h282q105 0 184.5 -43.5t122.5 -121t43 -177.5t-43 -177.5t-122.5 -121t-184.5 -43.5h-282q-105 0 -184.5 43.5zM493 81v95h-46q-47 0 -85.5 23t-61 61t-22.5 82t22.5 82t61 61t85.5 23h46v95
h-99q-122 0 -192.5 -68.5t-70.5 -192.5t70.5 -192.5t192.5 -68.5h99zM676 81q122 0 192.5 68.5t70.5 192.5t-70.5 192.5t-192.5 68.5h-99v-95h46q47 0 85.5 -23t61 -61t22.5 -82t-22.5 -82t-61 -61t-85.5 -23h-46v-95h99zM493 243v198h-46q-42 0 -69.5 -27t-27.5 -72
q0 -44 27.5 -71.5t69.5 -27.5h46zM623 243q42 0 69.5 27.5t27.5 71.5q0 45 -27 72t-70 27h-46v-198h46z" />
    <glyph glyph-name="arrowleft" unicode="&#x2190;" horiz-adv-x="1076" 
d="M48 310l187 186v-151h785v-70h-785v-151z" />
    <glyph glyph-name="arrowup" unicode="&#x2191;" horiz-adv-x="453" 
d="M191 631h-151l187 186l186 -186h-151v-748h-71v748z" />
    <glyph glyph-name="arrowright" unicode="&#x2192;" horiz-adv-x="1076" 
d="M842 275h-786v70h786v151l186 -186l-186 -186v151z" />
    <glyph glyph-name="arrowdown" unicode="&#x2193;" horiz-adv-x="453" 
d="M40 41h151v748h71v-748h151l-186 -186z" />
    <glyph glyph-name="uni2196" unicode="&#x2196;" horiz-adv-x="765" 
d="M147 556l-107 -106v263h264l-107 -107l567 -567l-49 -50z" />
    <glyph glyph-name="uni2197" unicode="&#x2197;" horiz-adv-x="765" 
d="M0 39l568 567l-107 107h263v-263l-106 106l-568 -567z" />
    <glyph glyph-name="uni2198" unicode="&#x2198;" horiz-adv-x="765" 
d="M40 266l107 -107l568 568l49 -50l-567 -568l107 -106h-264v263z" />
    <glyph glyph-name="uni2199" unicode="&#x2199;" horiz-adv-x="765" 
d="M568 109l-568 568l50 50l568 -568l106 107v-263h-263z" />
    <glyph glyph-name="uni21C4" unicode="&#x21c4;" horiz-adv-x="1095" 
d="M861 493h-786v70h786v151l186 -186l-186 -186v151zM48 198l187 186v-151h785v-70h-785v-151z" />
    <glyph glyph-name="partialdiff" unicode="&#x2202;" horiz-adv-x="569" 
d="M162 17q-56 33 -89 90t-33 125q0 71 33 126t87.5 85.5t116.5 30.5q47 0 81 -16t52 -37l4 4q-35 89 -108.5 144t-171.5 81l29 74q118 -32 200 -99t124 -160.5t42 -204.5q0 -81 -30.5 -143.5t-86 -97.5t-128.5 -35q-66 0 -122 33zM363 86q36 21 57.5 59t21.5 86t-21 85.5
t-57 58.5t-78 21q-43 0 -79.5 -21t-58 -58.5t-21.5 -85.5t21.5 -86t57.5 -59t78 -21q43 0 79 21z" />
    <glyph glyph-name="uni2206" unicode="&#x2206;" horiz-adv-x="658" 
d="M281 716h96l267 -716h-630zM521 81l-190 531h-4l-191 -531h385z" />
    <glyph glyph-name="product" unicode="&#x220f;" horiz-adv-x="673" 
d="M79 716h515v-716h-85v635h-345v-635h-85v716z" />
    <glyph glyph-name="summation" unicode="&#x2211;" horiz-adv-x="509" 
d="M47 88l217 278l-217 262v88h431v-81h-338l226 -269l-226 -285h338v-81h-431v88z" />
    <glyph glyph-name="minus" unicode="&#x2212;" horiz-adv-x="557" 
d="M61 306h435v-70h-435v70z" />
    <glyph glyph-name="uni2215" unicode="&#x2215;" horiz-adv-x="431" 
d="M327 716h79l-297 -716h-79z" />
    <glyph glyph-name="radical" unicode="&#x221a;" horiz-adv-x="680" 
d="M12 490h94l106 -338l20 -68h4l22 68l214 664h196v-77h-124l-264 -787h-91z" />
    <glyph glyph-name="infinity" unicode="&#x221e;" horiz-adv-x="741" 
d="M107.5 126q-38.5 22 -61 60.5t-22.5 83.5t22.5 83.5t61 60.5t84.5 22q39 0 68.5 -14t50.5 -34.5t58 -62.5q33 39 56 60.5t53.5 36t69.5 14.5q46 0 85 -22.5t61.5 -60.5t22.5 -83t-22.5 -83t-61.5 -60.5t-85 -22.5q-57 0 -95.5 28t-83.5 84q-36 -42 -57.5 -62.5t-51 -35
t-68.5 -14.5q-46 0 -84.5 22zM246.5 182q21.5 16 62.5 63l22 25l-19 21q-41 49 -63.5 66t-55.5 17q-44 0 -71.5 -28.5t-27.5 -75.5t27.5 -75.5t71.5 -28.5q32 0 53.5 16zM619 194.5q28 28.5 28 75.5t-28 75.5t-71 28.5q-26 0 -46 -10.5t-39 -30.5t-55 -63q40 -47 57.5 -65
t37 -28.5t45.5 -10.5q43 0 71 28.5z" />
    <glyph glyph-name="integral" unicode="&#x222b;" horiz-adv-x="345" 
d="M32 -149h15q37 0 60 21.5t23 63.5v693q0 75 43.5 119t118.5 44h21v-77h-15q-37 0 -60 -21.5t-23 -63.5v-694q0 -74 -43.5 -118t-117.5 -44h-22v77z" />
    <glyph glyph-name="approxequal" unicode="&#x2248;" horiz-adv-x="566" 
d="M343.5 351.5q-28.5 9.5 -70.5 27.5q-37 16 -60 23.5t-40 7.5q-23 0 -37.5 -16.5t-16.5 -38.5h-67q0 39 17 69t44.5 46t57.5 16q25 0 53 -9.5t72 -27.5q36 -16 58 -23.5t39 -7.5q23 0 37.5 16.5t16.5 38.5h67q0 -39 -17 -69t-44.5 -46t-57.5 -16q-23 0 -51.5 9.5z
M343.5 161.5q-28.5 9.5 -70.5 27.5q-37 16 -60 23.5t-40 7.5q-23 0 -37.5 -16.5t-16.5 -38.5h-67q0 39 17 69t44.5 46t57.5 16q25 0 53 -9.5t72 -27.5q36 -16 58 -23.5t39 -7.5q23 0 37.5 16.5t16.5 38.5h67q0 -39 -17 -69t-44.5 -46t-57.5 -16q-23 0 -51.5 9.5z" />
    <glyph glyph-name="notequal" unicode="&#x2260;" horiz-adv-x="559" 
d="M355 379l-75 -120h223v-70h-267l-84 -135l-54 33l64 102h-106v70h149l75 120h-224v70h268l85 136l53 -34l-64 -102h105v-70h-148z" />
    <glyph glyph-name="lessequal" unicode="&#x2264;" horiz-adv-x="500" 
d="M56 303v62l384 184v-78l-294 -135v-4l294 -135v-78zM56 70h384v-70h-384v70z" />
    <glyph glyph-name="greaterequal" unicode="&#x2265;" horiz-adv-x="500" 
d="M60 197l294 135v4l-294 135v78l384 -184v-62l-384 -184v78zM60 70h384v-70h-384v70z" />
    <glyph glyph-name="filledbox" unicode="&#x25a0;" horiz-adv-x="861" 
d="M72 716h716v-716h-716v716z" />
    <glyph glyph-name="uni25A1" unicode="&#x25a1;" horiz-adv-x="861" 
d="M72 716h716v-716h-716v716zM728 60v596h-596v-596h596z" />
    <glyph glyph-name="triagup" unicode="&#x25b2;" horiz-adv-x="870" 
d="M435 748l431 -748h-862z" />
    <glyph glyph-name="uni25B3" unicode="&#x25b3;" horiz-adv-x="870" 
d="M435 748l431 -748h-862zM762 60l-327 567l-326 -567h653z" />
    <glyph glyph-name="lozenge" unicode="&#x25ca;" horiz-adv-x="530" 
d="M24 358l199 358h85l198 -358l-198 -358h-85zM267 77l150 281l-150 280h-4l-150 -280l150 -281h4z" />
    <glyph glyph-name="circle" unicode="&#x25cb;" horiz-adv-x="837" 
d="M231 34.5q-86 50.5 -136.5 136.5t-50.5 187t50.5 187t136.5 136.5t187 50.5t187 -50.5t136.5 -136.5t50.5 -187t-50.5 -187t-136.5 -136.5t-187 -50.5t-187 50.5zM576 86.5q72 42.5 114 115t42 156.5q0 86 -42 158t-114 114t-158 42q-84 0 -156.5 -42t-115 -114.5
t-42.5 -157.5q0 -84 42.5 -156.5t115 -115t156.5 -42.5q86 0 158 42.5z" />
    <glyph glyph-name="uni25CF" unicode="&#x25cf;" horiz-adv-x="837" 
d="M231 34.5q-86 50.5 -136.5 136.5t-50.5 187t50.5 187t136.5 136.5t187 50.5t187 -50.5t136.5 -136.5t50.5 -187t-50.5 -187t-136.5 -136.5t-187 -50.5t-187 50.5z" />
    <glyph glyph-name="uni2713" unicode="&#x2713;" horiz-adv-x="934" 
d="M8 300l50 50l240 -255l578 625l50 -50l-627 -678z" />
    <glyph glyph-name="uni2715" unicode="&#x2715;" horiz-adv-x="728" 
d="M8 44l308 314l-308 314l50 50l306 -315l306 315l50 -50l-307 -314l307 -314l-50 -50l-306 315l-306 -315z" />
    <glyph glyph-name="uni275B" unicode="&#x275b;" horiz-adv-x="351" 
d="M89 413q-33 47 -49 82.5t-16 77.5t20.5 78.5t55.5 58.5t76 22q42 0 76.5 -19.5t54.5 -54t20 -77.5q0 -42 -22.5 -74t-54 -49.5t-57.5 -19.5l-5 -5l109 -155l-76 -52z" />
    <glyph glyph-name="uni275C" unicode="&#x275c;" horiz-adv-x="351" 
d="M54 278l109 155l-5 5q-26 2 -57.5 19.5t-54 49.5t-22.5 74q0 43 20 77.5t54.5 54t76.5 19.5q41 0 76 -22t55.5 -58.5t20.5 -78.5t-16 -77.5t-49 -82.5l-132 -187z" />
    <glyph glyph-name="uni275D" unicode="&#x275d;" horiz-adv-x="710" 
d="M89 413q-33 47 -49 82.5t-16 77.5t20.5 78.5t55.5 58.5t76 22q42 0 76.5 -19.5t54.5 -54t20 -77.5q0 -42 -22.5 -74t-54 -49.5t-57.5 -19.5l-5 -5l109 -155l-76 -52zM440 413q-33 47 -49 82.5t-16 77.5t20.5 78.5t55.5 58.5t76 22q42 0 76.5 -19.5t54.5 -54t20 -77.5
q0 -42 -22.5 -74t-54 -49.5t-57.5 -19.5l-5 -5l109 -155l-76 -52z" />
    <glyph glyph-name="uni275E" unicode="&#x275e;" horiz-adv-x="710" 
d="M54 278l109 155l-5 5q-26 2 -57.5 19.5t-54 49.5t-22.5 74q0 43 20 77.5t54.5 54t76.5 19.5q41 0 76 -22t55.5 -58.5t20.5 -78.5t-16 -77.5t-49 -82.5l-132 -187zM405 278l109 155l-5 5q-26 2 -57.5 19.5t-54 49.5t-22.5 74q0 43 20 77.5t54.5 54t76.5 19.5q41 0 76 -22
t55.5 -58.5t20.5 -78.5t-16 -77.5t-49 -82.5l-132 -187z" />
    <glyph glyph-name="uni2780" unicode="&#x2780;" horiz-adv-x="849" 
d="M237 34.5q-86 50.5 -136.5 136.5t-50.5 187t50.5 187t136.5 136.5t187 50.5t187 -50.5t136.5 -136.5t50.5 -187t-50.5 -187t-136.5 -136.5t-187 -50.5t-187 50.5zM582 86.5q72 42.5 114 115t42 156.5q0 86 -42 158t-114 114t-158 42q-84 0 -156.5 -42t-115 -114.5
t-42.5 -157.5q0 -84 42.5 -156.5t115 -115t156.5 -42.5q86 0 158 42.5zM405 459l-52 -43l-36 48l98 79h55v-366h-65v282z" />
    <glyph glyph-name="uni2781" unicode="&#x2781;" horiz-adv-x="849" 
d="M237 34.5q-86 50.5 -136.5 136.5t-50.5 187t50.5 187t136.5 136.5t187 50.5t187 -50.5t136.5 -136.5t50.5 -187t-50.5 -187t-136.5 -136.5t-187 -50.5t-187 50.5zM582 86.5q72 42.5 114 115t42 156.5q0 86 -42 158t-114 114t-158 42q-84 0 -156.5 -42t-115 -114.5
t-42.5 -157.5q0 -84 42.5 -156.5t115 -115t156.5 -42.5q86 0 158 42.5zM301 233l65 65t69 70q21 21 33 38.5t12 37.5t-16 34t-40 14t-41 -15t-24 -46l-60 25q9 44 44 69.5t80 25.5q50 0 86.5 -29.5t36.5 -77.5q0 -31 -18 -58t-44 -53l-98 -97h162v-59h-247v56z" />
    <glyph glyph-name="uni2782" unicode="&#x2782;" horiz-adv-x="849" 
d="M237 34.5q-86 50.5 -136.5 136.5t-50.5 187t50.5 187t136.5 136.5t187 50.5t187 -50.5t136.5 -136.5t50.5 -187t-50.5 -187t-136.5 -136.5t-187 -50.5t-187 50.5zM582 86.5q72 42.5 114 115t42 156.5q0 86 -42 158t-114 114t-158 42q-84 0 -156.5 -42t-115 -114.5
t-42.5 -157.5q0 -84 42.5 -156.5t115 -115t156.5 -42.5q86 0 158 42.5zM337 194q-37 25 -49 74l60 23q8 -33 28 -48t45 -15q27 0 46 16t19 42q0 24 -18.5 38.5t-45.5 14.5h-40v56h36q24 0 40 14t16 36q0 21 -15.5 34t-38.5 13q-43 0 -61 -45l-57 23q13 37 43.5 59t74.5 22
q54 0 87.5 -29.5t33.5 -75.5q0 -47 -47 -76q59 -31 59 -84t-39 -85t-93 -32q-47 0 -84 25z" />
    </font>
</defs>
</svg>
