<?xml version="1.0" standalone="no"?>
<!DOCTYPE svg PUBLIC "-//W3C//DTD SVG 1.1//EN" "http://www.w3.org/Graphics/SVG/1.1/DTD/svg11.dtd" >
<svg xmlns="http://www.w3.org/2000/svg" xmlns:xlink="http://www.w3.org/1999/xlink" version="1.1">
<metadata>
Created by FontForge 20170731 at Thu Jul 20 19:12:09 2017
 By Aleksey,,,
Copyright 2017 Google, Inc. All Rights Reserved.
</metadata>
<defs>
<font id="GoogleSansDisplay-Medium" horiz-adv-x="650" >
  <font-face 
    font-family="Google Sans Display Medium"
    font-weight="500"
    font-stretch="normal"
    units-per-em="1000"
    panose-1="2 11 6 3 3 5 2 4 2 3"
    ascent="800"
    descent="-200"
    x-height="496"
    cap-height="716"
    bbox="-377 -263 3284 962"
    underline-thickness="84"
    underline-position="-244"
    unicode-range="U+0002-2792"
  />
<missing-glyph horiz-adv-x="584" 
d="M505 0h-426v716h426v-716zM441 60v596h-298v-596h298z" />
    <glyph glyph-name="f_b" unicode="fb" horiz-adv-x="983" 
d="M615.5 7q-42.5 23 -63.5 58h-6v-65h-104v619h-138q-34 0 -55 -21t-21 -60v-42h123v-97h-123v-399h-110v399h-91v97h91v43q0 85 49.5 133t136.5 48h248v-220l-6 -68h6q21 34 63.5 57t96.5 23q64 0 118.5 -34t86.5 -94.5t32 -135.5t-32 -135.5t-86.5 -94.5t-118.5 -34
q-54 0 -96.5 23zM764.5 105q33.5 20 54 57.5t20.5 85.5t-20.5 85.5t-54 57.5t-72.5 20q-38 0 -71.5 -20t-54 -57t-20.5 -86t20.5 -86t54 -57t71.5 -20q39 0 72.5 20z" />
    <glyph glyph-name="f_f" unicode="ff" horiz-adv-x="713" 
d="M118 399h-91v97h91v54q0 80 49.5 127t126.5 47q34 0 63 -9v-106q-30 12 -58 12q-31 0 -51 -21t-20 -58v-46h214v54q0 80 49 127t127 47q45 0 76 -11v-107q-33 15 -67 15q-33 0 -54 -21t-21 -58v-46h126v-97h-126v-399h-110v399h-214v-399h-110v399z" />
    <glyph glyph-name="f_f_b" unicode="ffb" horiz-adv-x="1307" 
d="M939 7q-42 23 -64 58h-6v-65h-104v619h-137q-34 0 -55 -21t-21 -60v-42h122v-97h-122v-399h-110v399h-214v-399h-110v399h-91v97h91v54q0 80 49.5 127t126.5 47q34 0 63 -9v-106q-30 12 -58 12q-31 0 -51 -21t-20 -58v-46h214v43q0 85 49.5 133t135.5 48h248v-220l-6 -68
h6q22 34 64 57t96 23q64 0 118.5 -34t87 -94.5t32.5 -135.5t-32.5 -135t-87 -94.5t-118.5 -34.5q-54 0 -96 23zM1088.5 105q33.5 20 54 57.5t20.5 85.5t-20.5 85.5t-54 57.5t-72.5 20t-72.5 -20t-54 -57t-20.5 -86t20.5 -86t54 -57t72.5 -20t72.5 20z" />
    <glyph glyph-name="f_f_h" unicode="ffh" horiz-adv-x="1276" 
d="M118 399h-91v97h91v54q0 80 49.5 127t126.5 47q34 0 63 -9v-106q-30 12 -58 12q-31 0 -51 -21t-20 -58v-46h214v43q0 85 49.5 133t135.5 48h248v-229l-6 -68h6q20 39 62.5 64t92.5 25q93 0 140.5 -55t47.5 -148v-309h-110v294q0 59 -29 88t-78 29q-37 0 -65.5 -21
t-44.5 -56t-16 -74v-260h-110v619h-137q-34 0 -55 -21t-21 -60v-42h122v-97h-122v-399h-110v399h-214v-399h-110v399z" />
    <glyph glyph-name="f_f_i" unicode="ffi" horiz-adv-x="945" 
d="M767.5 600.5q-21.5 21.5 -21.5 51.5q0 31 21.5 52.5t52.5 21.5t52.5 -21.5t21.5 -52.5q0 -30 -21.5 -51.5t-52.5 -21.5t-52.5 21.5zM118 399h-91v97h91v54q0 80 49.5 127t126.5 47q34 0 63 -9v-106q-30 12 -58 12q-31 0 -51 -21t-20 -58v-46h214v54q0 80 49 127t127 47
q34 0 63 -9v-106q-32 12 -58 12q-31 0 -51 -21t-20 -58v-46h323v-496h-110v399h-213v-399h-110v399h-214v-399h-110v399z" />
    <glyph glyph-name="f_f_j" unicode="ffj" horiz-adv-x="945" 
d="M767.5 600.5q-21.5 21.5 -21.5 51.5q0 31 21.5 52.5t52.5 21.5t52.5 -21.5t21.5 -52.5q0 -30 -21.5 -51.5t-52.5 -21.5t-52.5 21.5zM667 -219v106q22 -12 46 -12q28 0 40 17t12 51v456h-213v-399h-110v399h-214v-399h-110v399h-91v97h91v54q0 80 49.5 127t126.5 47
q34 0 63 -9v-106q-30 12 -58 12q-31 0 -51 -21t-20 -58v-46h214v54q0 80 49 127t127 47q34 0 63 -9v-106q-32 12 -58 12q-31 0 -51 -21t-20 -58v-46h323v-555q0 -85 -41.5 -126t-111.5 -41q-30 0 -55 7z" />
    <glyph glyph-name="f_f_k" unicode="ffk" horiz-adv-x="1224" 
d="M118 399h-91v97h91v54q0 80 49.5 127t126.5 47q34 0 63 -9v-106q-30 12 -58 12q-31 0 -51 -21t-20 -58v-46h214v43q0 85 49.5 133t135.5 48h248v-421h3l196 197h138v-6l-190 -188l200 -296v-6h-131l-147 226l-69 -68v-158h-110v619h-137q-34 0 -55 -21t-21 -60v-42h122
v-97h-122v-399h-110v399h-214v-399h-110v399z" />
    <glyph glyph-name="f_f_l" unicode="ffl" horiz-adv-x="937" 
d="M118 399h-91v97h91v54q0 80 49.5 127t126.5 47q34 0 63 -9v-106q-30 12 -58 12q-31 0 -51 -21t-20 -58v-46h214v43q0 85 49.5 133t135.5 48h248v-720h-110v619h-137q-34 0 -55 -21t-21 -60v-42h122v-97h-122v-399h-110v399h-214v-399h-110v399z" />
    <glyph glyph-name="f_f_t" unicode="fft" horiz-adv-x="1036" 
d="M808 32q-43 43 -43 117v250h-213v-399h-110v399h-214v-399h-110v399h-91v97h91v54q0 80 49.5 127t126.5 47q34 0 63 -9v-106q-30 12 -58 12q-31 0 -51 -21t-20 -58v-46h214v54q0 80 49 127t127 47q34 0 63 -9v-106q-32 12 -58 12q-31 0 -51 -21t-20 -58v-46h213v148h110
v-148h122v-97h-122v-226q0 -39 16 -58q17 -20 49 -20q29 0 57 17v-107q-19 -7 -36.5 -10t-42.5 -3q-67 0 -110 40z" />
    <glyph glyph-name="f_h" unicode="fh" horiz-adv-x="952" 
d="M118 399h-91v97h91v43q0 85 49.5 133t136.5 48h248v-229l-6 -68h6q19 39 62 64t93 25q93 0 140 -55t47 -148v-309h-110v294q0 59 -29 88t-78 29q-37 0 -65.5 -21t-44 -56t-15.5 -74v-260h-110v619h-138q-34 0 -55 -21t-21 -60v-42h123v-97h-123v-399h-110v399z" />
    <glyph glyph-name="f_i" unicode="fi" horiz-adv-x="622" 
d="M444.5 600.5q-21.5 21.5 -21.5 52.5t21.5 52.5t52.5 21.5t52.5 -21.5t21.5 -52.5t-21.5 -52.5t-52.5 -21.5t-52.5 21.5zM118 399h-91v97h91v54q0 80 49.5 127t126.5 47q34 0 63 -9v-106q-30 12 -58 12q-31 0 -51 -21t-20 -58v-46h324v-496h-110v399h-214v-399h-110v399z
" />
    <glyph glyph-name="f_j" unicode="fj" horiz-adv-x="622" 
d="M444.5 600.5q-21.5 21.5 -21.5 51.5q0 31 21.5 52.5t52.5 21.5t52.5 -21.5t21.5 -52.5q0 -30 -21.5 -51.5t-52.5 -21.5t-52.5 21.5zM343 -219v106q24 -12 47 -12q27 0 39.5 17t12.5 51v456h-214v-399h-110v399h-91v97h91v54q0 80 49.5 127t126.5 47q34 0 63 -9v-106
q-30 12 -58 12q-31 0 -51 -21t-20 -58v-46h324v-555q0 -85 -42 -126t-112 -41q-30 0 -55 7z" />
    <glyph glyph-name="f_k" unicode="fk" horiz-adv-x="900" 
d="M118 399h-91v97h91v43q0 85 49.5 133t136.5 48h248v-421h3l195 197h138v-6l-190 -188l200 -296v-6h-131l-146 226l-69 -68v-158h-110v619h-138q-34 0 -55 -21t-21 -60v-42h123v-97h-123v-399h-110v399z" />
    <glyph glyph-name="f_l" unicode="fl" horiz-adv-x="614" 
d="M118 399h-91v97h91v43q0 85 49.5 133t136.5 48h248v-720h-110v619h-138q-34 0 -55 -21t-21 -60v-42h123v-97h-123v-399h-110v399z" />
    <glyph glyph-name="f_t" unicode="ft" horiz-adv-x="712" 
d="M532.5 2.5q-28.5 10.5 -47.5 29.5q-43 42 -43 117v250h-214v-399h-110v399h-91v97h91v54q0 80 49.5 127t126.5 47q34 0 63 -9v-106q-30 12 -58 12q-31 0 -51 -21t-20 -58v-46h214v148h110v-148h121v-97h-121v-226q0 -41 16 -58q15 -20 49 -20q29 0 57 17v-107
q-35 -13 -80 -13q-33 0 -61.5 10.5z" />
    <glyph glyph-name="r_f" unicode="rf" horiz-adv-x="790" 
d="M519 399h-91v97h91v54q0 80 49 127t127 47q45 0 76 -11v-107q-33 15 -67 15q-33 0 -54 -21t-21 -58v-46h126v-97h-126v-399h-110v399zM62 496h104v-74h6q19 41 60.5 64.5t90.5 23.5q25 0 40 -3v-112q-22 8 -50 8q-63 0 -102 -39.5t-39 -103.5v-260h-110v496z" />
    <glyph glyph-name="r_f_f" unicode="rff" horiz-adv-x="1104" 
d="M62 496h104v-74h6q19 41 60.5 64.5t90.5 23.5q25 0 40 -3v-112q-22 8 -50 8q-63 0 -102 -39.5t-39 -103.5v-260h-110v496zM509 399h-91v97h91v54q0 80 49.5 127t126.5 47q34 0 63 -9v-106q-30 12 -58 12q-31 0 -51 -21t-20 -58v-46h214v54q0 80 49 127t127 47
q45 0 76 -11v-107q-33 15 -67 15q-33 0 -54 -21t-21 -58v-46h126v-97h-126v-399h-110v399h-214v-399h-110v399z" />
    <glyph glyph-name="r_t" unicode="rt" horiz-adv-x="785" 
d="M62 496h104v-74h6q19 41 60.5 64.5t90.5 23.5q25 0 40 -3v-112q-22 8 -50 8q-63 0 -102 -39.5t-39 -103.5v-260h-110v496zM605.5 2.5q-28.5 10.5 -47.5 29.5q-43 42 -43 117v250h-87v97h87v148h110v-148h121v-97h-121v-226q0 -41 16 -58q15 -20 49 -20q29 0 57 17v-107
q-35 -13 -80 -13q-33 0 -61.5 10.5z" />
    <glyph glyph-name="t_f" unicode="tf" horiz-adv-x="715" 
d="M204.5 2.5q-28.5 10.5 -47.5 29.5q-43 42 -43 117v250h-87v97h87v148h110v-148h214v54q0 80 49 127t126 47q45 0 82 -14l-13 -103q-31 14 -63 14q-31 0 -51.5 -21t-20.5 -58v-46h127v-97h-127v-399h-109v399h-214v-226q0 -41 16 -58q15 -20 48 -20q28 0 51 14v-106
q-17 -6 -32.5 -8.5t-40.5 -2.5q-33 0 -61.5 10.5z" />
    <glyph glyph-name="t_t" unicode="tt" horiz-adv-x="708" 
d="M204.5 2.5q-28.5 10.5 -47.5 29.5q-43 42 -43 117v250h-87v97h87v148h110v-148h213v148h110v-148h122v-97h-122v-226q0 -39 16 -58q17 -20 49 -20q29 0 57 17v-107q-19 -7 -36.5 -10t-42.5 -3q-67 0 -110 40q-43 43 -43 117v250h-213v-226q0 -41 16 -58q15 -20 48 -20
q28 0 51 14v-106q-17 -6 -32.5 -8.5t-40.5 -2.5q-33 0 -61.5 10.5z" />
    <glyph glyph-name=".notdef" horiz-adv-x="584" 
d="M505 0h-426v716h426v-716zM441 60v596h-298v-596h298z" />
    <glyph glyph-name=".null" horiz-adv-x="0" 
 />
    <glyph glyph-name="nonmarkingreturn" unicode="&#xd;" horiz-adv-x="0" 
d="M0 0z" />
    <glyph glyph-name="uni0002" horiz-adv-x="0" 
d="M0 0z" />
    <glyph glyph-name="uni0009" unicode="&#x9;" horiz-adv-x="0" 
d="M0 0z" />
    <glyph glyph-name="uni000A" unicode="&#xa;" horiz-adv-x="0" 
d="M0 0z" />
    <glyph glyph-name="space" unicode=" " horiz-adv-x="230" 
d="M0 0z" />
    <glyph glyph-name="exclam" unicode="!" horiz-adv-x="261" 
d="M75 499v217h112v-217l-12 -266h-89zM76.5 16.5q-22.5 22.5 -22.5 54.5t22.5 54t54.5 22t54 -22t22 -54t-22 -54.5t-54 -22.5t-54.5 22.5z" />
    <glyph glyph-name="quotedbl" unicode="&#x22;" horiz-adv-x="359" 
d="M50 716h100v-226h-100v226zM209 716h100v-226h-100v226z" />
    <glyph glyph-name="numbersign" unicode="#" horiz-adv-x="655" 
d="M148 198h-119l14 88h119l17 121h-120l13 88h120l29 189h94l-28 -189h124l29 189h94l-28 -189h119l-14 -88h-118l-18 -121h121l-14 -88h-121l-29 -198h-94l29 198h-125l-29 -198h-94zM381 285l19 123h-127l-18 -123h126z" />
    <glyph glyph-name="dollar" unicode="$" horiz-adv-x="555" 
d="M457 50.5q-53 -50.5 -133 -62.5v-88h-82v86q-74 10 -133 58.5t-80 129.5l98 40q11 -45 42 -78t73 -44v217l-7 3q-85 33 -132 82t-47 120q0 46 22.5 86t64.5 66t99 32v86h82v-88q71 -12 114 -51.5t58 -85.5l-97 -42q-7 24 -26 44t-49 30v-204q91 -38 138.5 -82.5
t47.5 -119.5q0 -84 -53 -134.5zM181 463.5q19 -21.5 61 -41.5v173q-36 -7 -58 -28.5t-22 -52.5q0 -29 19 -50.5zM380 126q21 23 21 58q0 31 -18.5 51.5t-58.5 39.5v-181q35 9 56 32z" />
    <glyph glyph-name="percent" unicode="%" horiz-adv-x="838" 
d="M123.5 381q-39.5 23 -62.5 62.5t-23 85.5t23 85.5t62.5 62.5t87.5 23t88 -23t63 -62.5t23 -85.5t-23 -85.5t-63 -62.5t-88 -23t-87.5 23zM163 33l445 663l66 -45l-444 -663zM271 465q24 25 24 64t-24 64t-60 25q-35 0 -59 -25t-24 -64t24 -64t59 -25q36 0 60 25zM539.5 7
q-39.5 23 -63 62.5t-23.5 85.5t23.5 85.5t63 62.5t87.5 23t87.5 -23t62.5 -62.5t23 -85.5t-23 -85.5t-62.5 -62.5t-87.5 -23t-87.5 23zM687 91q24 25 24 64t-24 64t-60 25t-60 -25t-24 -64t24 -64t60 -25t60 25z" />
    <glyph glyph-name="ampersand" unicode="&#x26;" horiz-adv-x="643" 
d="M535 135l70 -89l-81 -62l-50 64q-72 -64 -169 -64q-72 0 -132.5 33t-95.5 90.5t-35 128.5q0 61 31.5 117t87.5 92q-48 63 -48 116q0 47 23.5 86.5t64.5 62t91 22.5q64 0 106.5 -33.5t61.5 -86.5l-91 -48q-25 68 -76 68q-32 0 -52 -19t-20 -51q0 -31 24 -61l227 -287
l61 101l83 -51zM413 125l-193 244q-35 -22 -55 -57.5t-20 -73.5q0 -44 22 -79.5t59.5 -55t81.5 -19.5q62 0 105 41z" />
    <glyph glyph-name="quotesingle" unicode="'" horiz-adv-x="200" 
d="M50 716h100v-226h-100v226z" />
    <glyph glyph-name="parenleft" unicode="(" horiz-adv-x="343" 
d="M116.5 66q-52.5 121 -52.5 256t52.5 256t124.5 202l82 -57q-67 -82 -108 -186t-41 -215t41 -215t108 -186l-82 -57q-72 81 -124.5 202z" />
    <glyph glyph-name="parenright" unicode=")" horiz-adv-x="343" 
d="M20 -79q67 82 108 186t41 215t-41 215t-108 186l82 57q72 -81 124.5 -202t52.5 -256t-52.5 -256t-124.5 -202z" />
    <glyph glyph-name="asterisk" unicode="*" horiz-adv-x="449" 
d="M78 408l74 101l-2 8l-110 38l27 81l109 -39l6 2v117h85v-117l6 -2l109 39l27 -81l-109 -38l-3 -8l74 -101l-68 -50l-75 103h-7l-75 -103z" />
    <glyph glyph-name="plus" unicode="+" horiz-adv-x="569" 
d="M508 224h-176v-176h-95v176h-176v94h176v176h95v-176h176v-94z" />
    <glyph glyph-name="comma" unicode="," horiz-adv-x="262" 
d="M50 -86l56 87q-21 6 -36 25t-15 45q0 32 22.5 54t54.5 22t54 -22t22 -54q0 -18 -7 -34.5t-21 -36.5l-80 -119z" />
    <glyph glyph-name="hyphen" unicode="-" horiz-adv-x="451" 
d="M61 357h329v-94h-329v94z" />
    <glyph glyph-name="period" unicode="." horiz-adv-x="261" 
d="M76.5 16.5q-22.5 22.5 -22.5 54.5t22.5 54t54.5 22t54 -22t22 -54t-22 -54.5t-54 -22.5t-54.5 22.5z" />
    <glyph glyph-name="slash" unicode="/" horiz-adv-x="463" 
d="M327 716h106l-297 -716h-106z" />
    <glyph glyph-name="zero" unicode="0" horiz-adv-x="658" 
d="M181.5 31q-63.5 47 -98 129t-34.5 182q0 101 34.5 182.5t98 128.5t147.5 47t147.5 -47t98.5 -129t35 -182t-35 -181.5t-98.5 -129t-147.5 -47.5t-147.5 47zM418.5 121.5q38.5 33.5 59 91t20.5 129.5t-20.5 130t-59 91t-89.5 33q-52 0 -90 -33t-58.5 -91t-20.5 -130
t20.5 -129.5t58.5 -91t90 -33.5q51 0 89.5 33.5z" />
    <glyph glyph-name="one" unicode="1" horiz-adv-x="410" 
d="M213 535l-112 -81l-57 85l201 145h78v-684h-110v535z" />
    <glyph glyph-name="two" unicode="2" horiz-adv-x="539" 
d="M47 104q32 32 125.5 126.5t124.5 128.5q43 46 58.5 74t15.5 66q0 39 -30 68t-81 29q-48 0 -77 -27.5t-39 -63.5l-100 41q11 36 38.5 71t73.5 59t106 24q65 0 115.5 -26.5t78 -72t27.5 -100.5q0 -106 -109 -215q-33 -32 -78 -77q-45 -46 -84 -84l-20 -21l1 -4h298v-100
h-444v104z" />
    <glyph glyph-name="three" unicode="3" horiz-adv-x="552" 
d="M130 28.5q-66 44.5 -91 130.5l102 42q14 -53 48.5 -82t83.5 -29q50 0 86 30.5t36 77.5q0 48 -38 78.5t-95 30.5h-59v101h53q49 0 82.5 26.5t33.5 72.5q0 41 -30 65.5t-76 24.5q-45 0 -71.5 -24t-38.5 -59l-101 42q20 57 74 100.5t138 43.5q62 0 111.5 -24t77.5 -66.5
t28 -95.5q0 -54 -26 -91.5t-64 -57.5v-6q50 -21 82 -64t32 -103t-30.5 -107t-84.5 -74t-120 -27q-77 0 -143 44.5z" />
    <glyph glyph-name="four" unicode="4" horiz-adv-x="608" 
d="M365 136h-321v86l311 462h120v-446h86v-102h-86v-136h-110v136zM365 238v283h-6l-192 -283h198z" />
    <glyph glyph-name="five" unicode="5" horiz-adv-x="573" 
d="M182 4.5q-49 20.5 -86 62t-52 102.5l99 39q13 -54 49 -87t87 -33q57 0 93.5 35.5t36.5 91.5t-36 92.5t-93 36.5q-33 0 -60 -14t-46 -39l-109 48l42 345h371v-100h-280l-25 -180l6 -1q52 41 122 41q58 0 108.5 -29t80.5 -81t30 -118t-31 -119t-85.5 -83t-122.5 -30
q-50 0 -99 20.5z" />
    <glyph glyph-name="six" unicode="6" horiz-adv-x="566" 
d="M159 16.5q-55 32.5 -85 86.5t-30 115q0 59 23 111.5t69 118.5l172 254l87 -60l-156 -217l4 -4q27 16 68 16q52 0 101 -29t79.5 -79.5t30.5 -113.5t-33 -116t-87.5 -84t-117.5 -31q-70 0 -125 32.5zM347 103.5q30 16.5 47.5 45.5t17.5 65t-17.5 65.5t-47.5 46t-64 16.5
t-64 -16.5t-48 -46t-18 -65.5t17.5 -65t47.5 -45.5t65 -16.5q34 0 64 16.5z" />
    <glyph glyph-name="seven" unicode="7" horiz-adv-x="542" 
d="M75 35l302 542l-2 3h-331v104h454v-110l-328 -590z" />
    <glyph glyph-name="eight" unicode="8" horiz-adv-x="567" 
d="M160.5 11q-54.5 27 -85.5 74.5t-31 104.5q0 56 30.5 99.5t78.5 67.5v6q-38 25 -62 62.5t-24 81.5q0 54 27.5 98.5t77 69.5t111.5 25t111.5 -25t77.5 -69.5t28 -98.5q0 -44 -24 -81.5t-62 -62.5v-6q48 -24 78.5 -67.5t30.5 -99.5q0 -57 -31 -104.5t-86 -74.5t-123 -27
t-122.5 27zM360.5 433.5q30.5 26.5 30.5 70.5q0 43 -30.5 68.5t-77.5 25.5q-46 0 -76.5 -25.5t-30.5 -68.5t30.5 -70t76.5 -27q47 0 77.5 26.5zM375.5 118.5q36.5 30.5 36.5 79.5q0 48 -37 79t-92 31q-54 0 -91 -31t-37 -79q0 -49 36.5 -79.5t91.5 -30.5q56 0 92.5 30.5z
" />
    <glyph glyph-name="nine" unicode="9" horiz-adv-x="566" 
d="M171 42l155 217l-3 4q-29 -16 -69 -16q-52 0 -100.5 29t-79 79.5t-30.5 113.5t33 116t87.5 84t116.5 31q71 0 126 -32.5t85 -86.5t30 -115q0 -59 -23 -111t-69 -119l-173 -254zM347 358.5q30 16.5 47.5 46t17.5 65.5t-17.5 65t-47.5 45.5t-64 16.5q-35 0 -65 -16.5
t-47.5 -45.5t-17.5 -65t18 -65.5t48 -46t64 -16.5t64 16.5z" />
    <glyph glyph-name="colon" unicode=":" horiz-adv-x="261" 
d="M76.5 374.5q-22.5 22.5 -22.5 54.5t22.5 54t54.5 22t54 -22t22 -54t-22 -54.5t-54 -22.5t-54.5 22.5zM76.5 16.5q-22.5 22.5 -22.5 54.5t22.5 54t54.5 22t54 -22t22 -54t-22 -54.5t-54 -22.5t-54.5 22.5z" />
    <glyph glyph-name="semicolon" unicode=";" horiz-adv-x="262" 
d="M77.5 374.5q-22.5 22.5 -22.5 54.5t22.5 54t54.5 22t54 -22t22 -54t-22 -54.5t-54 -22.5t-54.5 22.5zM50 -73l56 87q-21 6 -36 25t-15 45q0 32 22.5 54t54.5 22t54 -22t22 -54q0 -18 -7 -34.5t-21 -36.5l-80 -119z" />
    <glyph glyph-name="less" unicode="&#x3c;" horiz-adv-x="518" 
d="M56 229v84l402 188v-105l-277 -122v-6l277 -122v-105z" />
    <glyph glyph-name="equal" unicode="=" horiz-adv-x="581" 
d="M61 464h459v-95h-459v95zM61 269h459v-95h-459v95z" />
    <glyph glyph-name="greater" unicode="&#x3e;" horiz-adv-x="518" 
d="M60 146l277 122v6l-277 122v105l402 -188v-84l-402 -188v105z" />
    <glyph glyph-name="question" unicode="?" horiz-adv-x="515" 
d="M196 274q0 46 19.5 79.5t69.5 78.5q35 32 50 54t15 53q0 39 -26.5 64t-71.5 25q-44 0 -71 -26t-40 -64l-99 42q20 60 73 106t135 46q61 0 109.5 -24.5t75 -68t26.5 -97.5q0 -53 -25.5 -90.5t-67.5 -77.5q-33 -30 -46.5 -55t-13.5 -57v-29h-112v41zM197 16.5
q-22 22.5 -22 54.5t22.5 54t53.5 22q32 0 54.5 -22t22.5 -54t-22.5 -54.5t-54.5 -22.5t-54 22.5z" />
    <glyph glyph-name="at" unicode="@" horiz-adv-x="886" 
d="M244 -30.5q-90 51.5 -141.5 140t-51.5 194.5q0 105 51.5 193.5t141.5 140.5t201 52q110 0 199.5 -52t140 -140t50.5 -192q0 -92 -40.5 -151t-114.5 -59q-38 0 -68.5 19.5t-46.5 53.5q-47 -73 -138 -73q-54 0 -98 26t-70 72.5t-26 105.5q0 58 26 105t69.5 73t94.5 26
q37 0 67 -15t51 -41h6v42h84v-254q0 -26 14 -45.5t41 -19.5q36 0 51.5 39.5t15.5 95.5q0 82 -40.5 151.5t-111 110.5t-156.5 41q-85 0 -155 -39.5t-111 -109.5t-41 -156t42 -156t112.5 -109.5t152.5 -39.5q73 0 130 30l30 -77q-71 -34 -160 -34q-111 0 -201 51.5zM512.5 214
q32.5 32 32.5 86t-32.5 86t-78.5 32q-47 0 -79.5 -32t-32.5 -86t32.5 -86t79.5 -32q46 0 78.5 32z" />
    <glyph glyph-name="A" unicode="A" horiz-adv-x="694" 
d="M283 716h128l269 -716h-123l-65 183h-289l-65 -183h-124zM454 287l-76 213l-28 83h-6l-28 -83l-76 -213h214z" />
    <glyph glyph-name="B" unicode="B" horiz-adv-x="623" 
d="M79 716h269q57 0 106 -25t78 -69t29 -97t-27 -92t-70 -59v-6q55 -19 88 -63t33 -103t-30.5 -105t-82 -71.5t-112.5 -25.5h-281v716zM343 416q48 0 77.5 30t29.5 69t-28.5 68.5t-74.5 29.5h-156v-197h152zM360 104q51 0 81.5 31.5t30.5 74.5t-31.5 74.5t-84.5 31.5h-165
v-212h169z" />
    <glyph glyph-name="C" unicode="C" horiz-adv-x="743" 
d="M227.5 33q-85.5 49 -134.5 134.5t-49 190.5t49 190.5t134.5 134.5t189.5 49q161 0 265 -117l-79 -77q-37 44 -82.5 65.5t-103.5 21.5q-72 0 -131.5 -33t-94 -93.5t-34.5 -140.5t34.5 -140.5t94 -93.5t131.5 -33q120 0 204 100l81 -78q-51 -61 -124.5 -95t-160.5 -34
q-104 0 -189.5 49z" />
    <glyph glyph-name="D" unicode="D" horiz-adv-x="718" 
d="M79 716h230q111 0 193.5 -45t127 -126.5t44.5 -186.5t-44.5 -186.5t-127 -126.5t-193.5 -45h-230v716zM306 107q120 0 187.5 66.5t67.5 184.5q0 117 -67.5 184t-187.5 67h-115v-502h115z" />
    <glyph glyph-name="E" unicode="E" horiz-adv-x="570" 
d="M79 716h435v-107h-323v-198h291v-106h-291v-198h323v-107h-435v716z" />
    <glyph glyph-name="F" unicode="F" horiz-adv-x="550" 
d="M79 716h435v-107h-323v-206h291v-106h-291v-297h-112v716z" />
    <glyph glyph-name="G" unicode="G" horiz-adv-x="817" 
d="M230 33q-86 49 -136 134.5t-50 190.5t50 190.5t136 134.5t188 49q81 0 151 -29t117 -81l-78 -78q-35 39 -83 60t-107 21q-70 0 -130 -33t-95.5 -94t-35.5 -140t36 -140t96 -94t130 -33q63 0 106 19t77 51q22 21 37.5 54.5t21.5 72.5h-244v100h349q6 -34 6 -58
q0 -68 -21.5 -130.5t-66.5 -108.5q-102 -107 -266 -107q-102 0 -188 49z" />
    <glyph glyph-name="H" unicode="H" horiz-adv-x="714" 
d="M79 716h112v-297h332v297h112v-716h-112v313h-332v-313h-112v716z" />
    <glyph glyph-name="I" unicode="I" horiz-adv-x="270" 
d="M79 716h112v-716h-112v716z" />
    <glyph glyph-name="J" unicode="J" horiz-adv-x="548" 
d="M112.5 28.5q-61.5 44.5 -86.5 124.5l104 43q31 -105 126 -105q51 0 82 35.5t31 93.5v496h112v-492q0 -76 -29 -130t-80 -82t-116 -28q-82 0 -143.5 44.5z" />
    <glyph glyph-name="K" unicode="K" horiz-adv-x="654" 
d="M79 716h112v-340h6l290 340h140v-6l-263 -302l285 -402v-6h-137l-224 321l-97 -112v-209h-112v716z" />
    <glyph glyph-name="L" unicode="L" horiz-adv-x="527" 
d="M79 716h112v-609h307v-107h-419v716z" />
    <glyph glyph-name="M" unicode="M" horiz-adv-x="880" 
d="M79 716h153l205 -543h6l206 543h152v-716h-111v401l6 129h-6l-205 -530h-90l-205 530h-6l6 -129v-401h-111v716z" />
    <glyph glyph-name="N" unicode="N" horiz-adv-x="722" 
d="M79 716h133l320 -521h6l-6 138v383h111v-716h-117l-336 548h-6l6 -138v-410h-111v716z" />
    <glyph glyph-name="O" unicode="O" horiz-adv-x="829" 
d="M225.5 33.5q-84.5 49.5 -133 135.5t-48.5 189t48.5 188.5t133 135.5t188.5 50t189 -50t133.5 -135.5t48.5 -188.5t-48.5 -189t-133.5 -135.5t-189 -49.5t-188.5 49.5zM544 125q59 34 93.5 94.5t34.5 138.5t-34.5 138.5t-93.5 94.5t-130 34t-129.5 -34t-93 -94.5
t-34.5 -138.5t34.5 -138.5t93 -94.5t129.5 -34t130 34z" />
    <glyph glyph-name="P" unicode="P" horiz-adv-x="590" 
d="M79 716h248q63 0 116.5 -28t85 -78t31.5 -113t-31.5 -113t-85 -78t-116.5 -28h-136v-278h-112v716zM330 384q36 0 63 16.5t41 42.5t14 54t-14 54t-41 42t-63 16h-139v-225h139z" />
    <glyph glyph-name="Q" unicode="Q" horiz-adv-x="829" 
d="M579 21q-77 -37 -165 -37q-104 0 -188.5 49.5t-133 135.5t-48.5 189t48.5 188.5t133 135.5t188.5 50t189 -50t133.5 -135.5t48.5 -188.5q0 -83 -32 -155.5t-90 -124.5l53 -79l-85 -56zM517 112l-82 122l86 58l80 -122q34 35 52.5 83t18.5 105q0 78 -34.5 138.5
t-93.5 94.5t-130 34t-129.5 -34t-93 -94.5t-34.5 -138.5t34.5 -138.5t93 -94.5t129.5 -34q53 0 103 21z" />
    <glyph glyph-name="R" unicode="R" horiz-adv-x="608" 
d="M79 716h252q64 0 117 -28t83.5 -78t30.5 -113q0 -72 -46.5 -128t-116.5 -75l-1 -5l197 -283v-6h-131l-189 280h-84v-280h-112v716zM328 384q51 0 86 32t35 82q0 28 -14 54t-40.5 42.5t-62.5 16.5h-141v-227h137z" />
    <glyph glyph-name="S" unicode="S" horiz-adv-x="573" 
d="M127 36q-71 52 -98 146l106 43q16 -59 56.5 -96.5t97.5 -37.5q53 0 90 27.5t37 75.5q0 44 -32.5 72.5t-113.5 57.5l-45 16q-72 25 -121 72t-49 124q0 53 29 98t80.5 71.5t116.5 26.5q94 0 150 -45.5t75 -102.5l-101 -43q-11 34 -42 60t-80 26t-82.5 -25t-33.5 -64
q0 -37 30 -61t94 -46l45 -15q92 -32 142.5 -83.5t50.5 -137.5q0 -70 -36 -117.5t-91.5 -70.5t-114.5 -23q-89 0 -160 52z" />
    <glyph glyph-name="T" unicode="T" horiz-adv-x="564" 
d="M226 609h-200v107h512v-107h-200v-609h-112v609z" />
    <glyph glyph-name="U" unicode="U" horiz-adv-x="672" 
d="M194.5 20q-61.5 36 -95.5 102t-34 153v441h112v-447q0 -80 41 -129t118 -49t118.5 49.5t41.5 128.5v447h111v-441q0 -86 -33 -152t-94 -102.5t-144 -36.5q-80 0 -141.5 36z" />
    <glyph glyph-name="V" unicode="V" horiz-adv-x="657" 
d="M14 716h122l160 -473l26 -81h6l26 81l167 473h123l-261 -716h-117z" />
    <glyph glyph-name="W" unicode="W" horiz-adv-x="964" 
d="M17 716h124l112 -461l12 -62h6l15 62l143 461h112l137 -461l15 -61h6l13 61l111 461h124l-188 -716h-119l-136 472l-16 64h-5l-17 -64l-142 -472h-116z" />
    <glyph glyph-name="X" unicode="X" horiz-adv-x="662" 
d="M256 372l-222 344h137l157 -255h6l158 255h136l-221 -344l237 -372h-136l-174 277h-6l-174 -277h-136z" />
    <glyph glyph-name="Y" unicode="Y" horiz-adv-x="618" 
d="M255 333l-241 383h133l161 -266h6l156 266h134l-237 -383v-333h-112v333z" />
    <glyph glyph-name="Z" unicode="Z" horiz-adv-x="589" 
d="M37 115l373 494h-357v107h487v-115l-371 -494h375v-107h-507v115z" />
    <glyph glyph-name="bracketleft" unicode="[" horiz-adv-x="339" 
d="M79 792h224v-91h-120v-734h120v-91h-224v916z" />
    <glyph glyph-name="backslash" unicode="\" horiz-adv-x="463" 
d="M30 716h106l297 -716h-106z" />
    <glyph glyph-name="bracketright" unicode="]" horiz-adv-x="339" 
d="M36 -33h120v734h-120v91h224v-916h-224v91z" />
    <glyph glyph-name="asciicircum" unicode="^" horiz-adv-x="491" 
d="M201 716h89l189 -306h-115l-116 201h-5l-116 -201h-115z" />
    <glyph glyph-name="underscore" unicode="_" horiz-adv-x="489" 
d="M0 -121h489v-95h-489v95z" />
    <glyph glyph-name="grave" unicode="`" horiz-adv-x="420" 
d="M96 720h124l48 -132h-92z" />
    <glyph glyph-name="a" unicode="a" horiz-adv-x="536" 
d="M124.5 5.5q-42.5 21.5 -67 60t-24.5 87.5q0 78 58.5 123t148.5 45q79 0 135 -27v21q0 45 -35.5 74.5t-85.5 29.5q-76 0 -122 -62l-84 58q35 47 87.5 72t118.5 25q109 0 168.5 -54.5t59.5 -153.5v-304h-107v61h-6q-24 -34 -61 -55.5t-88 -21.5q-53 0 -95.5 21.5z
M306.5 93.5q31.5 18.5 50 49t18.5 65.5q-53 29 -113 29q-55 0 -86 -24t-31 -61q0 -34 27.5 -55.5t65.5 -21.5q37 0 68.5 18.5z" />
    <glyph glyph-name="b" unicode="b" horiz-adv-x="604" 
d="M235.5 7q-42.5 23 -63.5 58h-6v-65h-104v716h110v-215l-6 -69h6q21 34 63.5 57t96.5 23q64 0 118.5 -34t87 -94.5t32.5 -135.5t-32.5 -135t-87 -94.5t-118.5 -34.5q-54 0 -96.5 23zM385.5 105q33.5 20 54 57.5t20.5 85.5t-20.5 85.5t-54 57.5t-72.5 20t-72.5 -20t-54 -57
t-20.5 -86t20.5 -86t54 -57t72.5 -20t72.5 20z" />
    <glyph glyph-name="c" unicode="c" horiz-adv-x="547" 
d="M159 18q-59 34 -92 94.5t-33 135.5q0 76 33 136t92 94t133 34q82 0 139.5 -38.5t83.5 -101.5l-101 -42q-36 81 -126 81q-38 0 -71 -20.5t-53 -57.5t-20 -85t20 -85t53 -57.5t71 -20.5q46 0 80 21.5t52 61.5l99 -43q-29 -63 -87 -102t-140 -39q-74 0 -133 34z" />
    <glyph glyph-name="d" unicode="d" horiz-adv-x="604" 
d="M152.5 18q-54.5 34 -86.5 94.5t-32 135.5t32 135.5t86.5 94.5t118.5 34q54 0 96.5 -23t64.5 -57h5l-5 69v215h110v-716h-105v65h-5q-22 -35 -64 -58t-97 -23q-64 0 -118.5 34zM363.5 105q33.5 20 53.5 57t20 86t-20 86t-53.5 57t-72.5 20t-72.5 -20t-54 -57.5
t-20.5 -85.5t20.5 -85.5t54 -57.5t72.5 -20t72.5 20z" />
    <glyph glyph-name="e" unicode="e" horiz-adv-x="562" 
d="M158.5 18q-58.5 34 -91.5 94.5t-33 135.5q0 72 31.5 132.5t88.5 96t130 35.5q75 0 130.5 -33t84.5 -91.5t29 -134.5q0 -9 -1 -18t-1 -10h-382q5 -68 49 -105t100 -37q86 0 132 80l94 -45q-33 -61 -91.5 -97.5t-137.5 -36.5q-73 0 -131.5 34zM416 309q-2 24 -16 49
t-43.5 42.5t-73.5 17.5q-49 0 -84.5 -30t-48.5 -79h266z" />
    <glyph glyph-name="f" unicode="f" horiz-adv-x="390" 
d="M118 399h-91v97h91v54q0 80 49.5 127t126.5 47q45 0 76 -11v-107q-32 15 -67 15q-32 0 -53.5 -21t-21.5 -58v-46h126v-97h-126v-399h-110v399z" />
    <glyph glyph-name="g" unicode="g" horiz-adv-x="601" 
d="M132.5 -188.5q-60.5 43.5 -81.5 101.5l104 43q15 -41 50 -65t81 -24q69 0 108.5 42t39.5 116v43h-6q-24 -35 -65.5 -56t-94.5 -21q-62 0 -115.5 33t-86 92.5t-32.5 134.5t32.5 134.5t86 93t115.5 33.5q53 0 94.5 -21t65.5 -56h6v61h105v-468q0 -82 -32.5 -141t-90 -89
t-130.5 -30q-93 0 -153.5 43.5zM361 110q33 19 53 55.5t20 85.5q0 50 -20 86.5t-53 55.5t-72 19t-72 -19.5t-53 -56t-20 -85.5t20 -85.5t53 -55.5t72 -19t72 19z" />
    <glyph glyph-name="h" unicode="h" horiz-adv-x="572" 
d="M62 716h110v-208l-6 -78h6q21 36 63 59t91 23q94 0 141 -54.5t47 -148.5v-309h-110v294q0 59 -29 88t-77 29q-37 0 -65.5 -21t-44.5 -56t-16 -74v-260h-110v716z" />
    <glyph glyph-name="i" unicode="i" horiz-adv-x="250" 
d="M72.5 601.5q-21.5 21.5 -21.5 52.5t21.5 52.5t52.5 21.5t52.5 -21.5t21.5 -52.5t-21.5 -52.5t-52.5 -21.5t-52.5 21.5zM70 496h110v-496h-110v496z" />
    <glyph glyph-name="j" unicode="j" horiz-adv-x="250" 
d="M72.5 601.5q-21.5 21.5 -21.5 52.5t21.5 52.5t52.5 21.5t52.5 -21.5t21.5 -52.5t-21.5 -52.5t-52.5 -21.5t-52.5 21.5zM-28 -219v106q22 -12 46 -12q28 0 40 17t12 51v553h110v-555q0 -85 -42 -126t-112 -41q-29 0 -54 7z" />
    <glyph glyph-name="k" unicode="k" horiz-adv-x="521" 
d="M62 716h110v-417h3l196 197h138v-6l-190 -188l200 -296v-6h-131l-147 226l-69 -68v-158h-110v716z" />
    <glyph glyph-name="l" unicode="l" horiz-adv-x="234" 
d="M62 716h110v-716h-110v716z" />
    <glyph glyph-name="m" unicode="m" horiz-adv-x="881" 
d="M62 496h104v-66h6q22 36 64 59t88 23q54 0 94 -25t59 -67q26 42 69.5 67t99.5 25q87 0 132 -53.5t45 -145.5v-313h-110v295q0 62 -24.5 89t-72.5 27q-53 0 -85.5 -43.5t-32.5 -105.5v-262h-110v295q0 62 -25 89t-75 27q-52 0 -84 -43.5t-32 -105.5v-262h-110v496z" />
    <glyph glyph-name="n" unicode="n" horiz-adv-x="572" 
d="M62 496h104v-66h6q22 36 64 59t91 23q92 0 139.5 -54t47.5 -149v-309h-110v294q0 117 -109 117q-55 0 -89 -44t-34 -104v-263h-110v496z" />
    <glyph glyph-name="o" unicode="o" horiz-adv-x="586" 
d="M160 18.5q-59 34.5 -92.5 94.5t-33.5 135t33.5 135t92.5 94.5t133 34.5q75 0 134 -34.5t92 -94.5t33 -135t-33 -135t-92 -94.5t-134 -34.5q-74 0 -133 34.5zM367 105q34 20 55 57t21 86q0 50 -21 87t-55 56.5t-74 19.5q-39 0 -73.5 -19.5t-55 -56.5t-20.5 -87
q0 -49 21 -86t55 -57t73 -20q40 0 74 20z" />
    <glyph glyph-name="p" unicode="p" horiz-adv-x="600" 
d="M58 496h104v-64h6q21 34 63.5 57t96.5 23q64 0 118.5 -34t87 -94.5t32.5 -135.5t-32.5 -135t-87 -94.5t-118.5 -34.5q-54 0 -96.5 23t-63.5 58h-6l6 -70v-211h-110v712zM381.5 105q33.5 20 54 57.5t20.5 85.5t-20.5 85.5t-54 57.5t-72.5 20t-72.5 -20t-54 -57t-20.5 -86
t20.5 -86t54 -57t72.5 -20t72.5 20z" />
    <glyph glyph-name="q" unicode="q" horiz-adv-x="600" 
d="M432 -5l5 70h-5q-22 -35 -64 -58t-97 -23q-64 0 -118.5 34t-86.5 94.5t-32 135.5t32 135.5t86.5 94.5t118.5 34q54 0 96.5 -23t64.5 -57h5v64h105v-712h-110v211zM363.5 105q33.5 20 53.5 57t20 86t-20 86t-53.5 57t-72.5 20t-72.5 -20t-54 -57.5t-20.5 -85.5t20.5 -85.5
t54 -57.5t72.5 -20t72.5 20z" />
    <glyph glyph-name="r" unicode="r" horiz-adv-x="394" 
d="M62 496h104v-74h6q16 38 58 63.5t86 25.5q36 0 59 -10v-115q-34 17 -76 17q-54 0 -90.5 -41.5t-36.5 -101.5v-260h-110v496z" />
    <glyph glyph-name="s" unicode="s" horiz-adv-x="478" 
d="M104.5 23.5q-55.5 39.5 -78.5 99.5l98 42q17 -41 49.5 -62t71.5 -21q41 0 67 15.5t26 40.5q0 24 -21 39.5t-69 27.5l-68 16q-56 13 -96.5 48.5t-40.5 92.5q0 69 57 109.5t140 40.5q69 0 122.5 -29t77.5 -84l-97 -41q-14 31 -43 46t-63 15q-33 0 -58 -14.5t-25 -38.5
q0 -21 17.5 -34t55.5 -22l74 -18q75 -19 112 -57.5t37 -92.5q0 -44 -26.5 -80t-73 -57t-105.5 -21q-85 0 -140.5 39.5z" />
    <glyph glyph-name="t" unicode="t" horiz-adv-x="384" 
d="M204.5 2.5q-28.5 10.5 -47.5 29.5q-43 42 -43 117v250h-87v97h87v148h110v-148h121v-97h-121v-226q0 -41 16 -58q15 -20 49 -20q29 0 57 17v-107q-35 -13 -80 -13q-33 0 -61.5 10.5z" />
    <glyph glyph-name="u" unicode="u" horiz-adv-x="572" 
d="M105.5 38.5q-47.5 54.5 -47.5 150.5v307h110v-292q0 -119 107 -119q56 0 90.5 43.5t34.5 104.5v263h110v-496h-105v66h-5q-22 -36 -64.5 -59t-90.5 -23q-92 0 -139.5 54.5z" />
    <glyph glyph-name="v" unicode="v" horiz-adv-x="534" 
d="M6 496h123l136 -354h4l138 354h121l-207 -496h-110z" />
    <glyph glyph-name="w" unicode="w" horiz-adv-x="789" 
d="M6 496h120l98 -348h4l111 348h114l111 -348h4l97 348h118l-160 -496h-115l-113 352h-3l-112 -352h-115z" />
    <glyph glyph-name="x" unicode="x" horiz-adv-x="502" 
d="M185 252l-171 244h128l109 -159h3l102 159h132l-173 -244l176 -252h-130l-109 165h-3l-108 -165h-129z" />
    <glyph glyph-name="y" unicode="y" horiz-adv-x="535" 
d="M214 28l-207 468h123l138 -333h5l133 333h122l-310 -712h-116z" />
    <glyph glyph-name="z" unicode="z" horiz-adv-x="483" 
d="M36 92l271 308h-263v96h398v-92l-271 -308h276v-96h-411v92z" />
    <glyph glyph-name="braceleft" unicode="{" horiz-adv-x="327" 
d="M139.5 -77q-46.5 47 -46.5 126v163q0 37 -19.5 56.5t-49.5 19.5v92q30 0 49.5 19.5t19.5 56.5v163q0 79 46.5 126t127.5 47h28v-91h-20q-33 0 -55 -23.5t-22 -62.5v-160q0 -49 -16.5 -77.5t-53.5 -40.5v-6q37 -11 53.5 -39.5t16.5 -78.5v-160q0 -39 22 -62.5t55 -23.5h20
v-91h-28q-81 0 -127.5 47z" />
    <glyph glyph-name="bar" unicode="|" horiz-adv-x="259" 
d="M79 792h101v-912h-101v912z" />
    <glyph glyph-name="braceright" unicode="}" horiz-adv-x="327" 
d="M32 -33h20q33 0 55 23.5t22 62.5v160q0 50 16.5 78.5t53.5 39.5v6q-37 12 -53.5 40.5t-16.5 77.5v160q0 39 -22 62.5t-55 23.5h-20v91h28q81 0 127.5 -47t46.5 -126v-163q0 -37 19.5 -56.5t49.5 -19.5v-92q-30 0 -49.5 -19.5t-19.5 -56.5v-163q0 -79 -46.5 -126
t-127.5 -47h-28v91z" />
    <glyph glyph-name="asciitilde" unicode="~" horiz-adv-x="549" 
d="M331.5 238q-29.5 9 -69.5 26q-35 14 -55 20.5t-35 6.5q-22 0 -34.5 -13.5t-14.5 -33.5h-87q0 65 36 104t91 39q27 0 55.5 -9t71.5 -27q7 -3 27 -10.5t34.5 -11.5t25.5 -4q22 0 34.5 13.5t14.5 33.5h87q0 -65 -36 -104t-91 -39q-25 0 -54.5 9z" />
    <glyph glyph-name="uni00A0" unicode="&#xa0;" horiz-adv-x="230" 
d="M0 0z" />
    <glyph glyph-name="exclamdown" unicode="&#xa1;" horiz-adv-x="261" 
d="M76.5 381q-22.5 22 -22.5 54t22.5 54.5t54.5 22.5t54 -22.5t22 -54.5q0 -31 -22 -53.5t-54 -22.5t-54.5 22zM75 1l11 271h89l12 -271v-217h-112v217z" />
    <glyph glyph-name="cent" unicode="&#xa2;" horiz-adv-x="540" 
d="M440 131q-46 -37 -113 -46v-85h-82v86q-62 10 -110 45.5t-74.5 90t-26.5 120.5q0 67 26.5 121.5t74.5 89.5t110 45v86h82v-85q67 -9 112.5 -46t68.5 -91l-95 -39q-29 63 -86 78v-318q64 17 93 80l92 -40q-26 -55 -72 -92zM169 240.5q30 -42.5 76 -56.5v316
q-46 -14 -76 -56.5t-30 -101.5t30 -101.5z" />
    <glyph glyph-name="sterling" unicode="&#xa3;" horiz-adv-x="536" 
d="M517 121q-20 -57 -61 -89t-105 -32h-314v92q47 20 71.5 57t24.5 80q0 10 -1 15h-93v88h60q-5 8 -23.5 39t-28.5 63.5t-10 66.5q0 53 26.5 98.5t74.5 73t109 27.5q83 0 133.5 -43t69.5 -102l-98 -40q-11 35 -36.5 59.5t-68.5 24.5q-47 0 -75 -30t-28 -71q0 -32 11 -57.5
t33 -63.5q21 -35 26 -45h134v-88h-111q0 -84 -56 -138l4 -5h165q32 0 50.5 14.5t28.5 43.5z" />
    <glyph glyph-name="currency" unicode="&#xa4;" horiz-adv-x="617" 
d="M67 147l59 58q-35 54 -35 120t35 120l-59 59l58 58l59 -57q55 39 124 39q70 0 125 -39l59 57l58 -58l-58 -58q34 -54 34 -121t-34 -120l58 -58l-58 -59l-59 57q-57 -39 -125 -39q-67 0 -124 39l-59 -57zM395.5 234.5q35.5 37.5 35.5 90.5t-35.5 90.5t-87.5 37.5
q-51 0 -86.5 -37.5t-35.5 -90.5t35.5 -90.5t86.5 -37.5q52 0 87.5 37.5z" />
    <glyph glyph-name="yen" unicode="&#xa5;" horiz-adv-x="605" 
d="M249 151h-169v94h169v74h-169v95h108l-173 270h130l123 -205l34 -65h5l33 65l120 205h130l-170 -270h105v-95h-165v-74h165v-94h-165v-151h-111v151z" />
    <glyph glyph-name="brokenbar" unicode="&#xa6;" horiz-adv-x="259" 
d="M79 756h101v-380h-101v380zM79 292h101v-412h-101v412z" />
    <glyph glyph-name="section" unicode="&#xa7;" horiz-adv-x="558" 
d="M511 -37q0 -60 -32 -104.5t-84 -67.5t-110 -23q-86 0 -152 52.5t-87 142.5l102 40q15 -59 50.5 -95.5t87.5 -36.5q48 0 81 25.5t33 65.5q0 44 -34.5 70.5t-115.5 52.5l-11 4q-171 54 -171 183q0 42 20.5 77.5t58.5 60.5q-79 54 -79 141q0 47 26.5 88.5t74.5 67t111 25.5
q56 0 100.5 -22.5t72.5 -57t38 -68.5l-101 -41q-9 34 -38 60t-71 26q-44 0 -73 -23.5t-29 -53.5q0 -31 26.5 -52t89.5 -42l13 -4q98 -32 151 -80.5t53 -132.5q0 -44 -17 -80.5t-46 -59.5q62 -55 62 -138zM310 174q32 -10 55 -21q17 15 27 37t10 42q0 47 -34 76.5t-115 54.5
q-5 2 -13 4q-29 -11 -47 -36t-18 -51q0 -34 27.5 -57t87.5 -43z" />
    <glyph glyph-name="dieresis" unicode="&#xa8;" horiz-adv-x="424" 
d="M78 614q-19 19 -19 45q0 27 19 45.5t45 18.5q27 0 45.5 -18.5t18.5 -45.5q0 -26 -18.5 -45t-45.5 -19q-26 0 -45 19zM257 614q-19 19 -19 45q0 27 18.5 45.5t44.5 18.5q28 0 46 -18.5t18 -45.5q0 -26 -18.5 -45t-45.5 -19q-25 0 -44 19z" />
    <glyph glyph-name="copyright" unicode="&#xa9;" horiz-adv-x="532" 
d="M151 303q-53 31 -84 84t-31 115t31 115t84 84t115 31t115 -31t84 -84t31 -115t-31 -115t-84 -84t-115 -31t-115 31zM357.5 344.5q41.5 24.5 66 66.5t24.5 91q0 50 -24.5 91.5t-66 66t-91.5 24.5q-49 0 -91 -24.5t-66.5 -66t-24.5 -91.5q0 -49 25 -90.5t66.5 -66.5
t90.5 -25q50 0 91.5 24.5zM185.5 418q-34.5 35 -34.5 84q0 50 34 84.5t85 34.5q28 0 48 -10t39 -29l-32 -29q-12 13 -23.5 18.5t-31.5 5.5q-29 0 -51 -21.5t-22 -53.5q0 -31 22 -53t51 -22q36 0 60 31l34 -27q-36 -48 -94 -48q-50 0 -84.5 35z" />
    <glyph glyph-name="ordfeminine" unicode="&#xaa;" horiz-adv-x="486" 
d="M123 290.5q-38 18.5 -60.5 52t-22.5 76.5q0 68 54 107.5t131 39.5q68 0 122 -26v14q0 42 -30 67.5t-74 25.5q-69 0 -100 -54l-86 43q21 42 68.5 69t115.5 27q91 0 148 -48.5t57 -138.5v-259h-99v55h-6q-21 -31 -55.5 -50t-79.5 -19t-83 18.5zM284.5 370q28.5 15 45.5 40
t17 55q-3 1 -28 14q-25 12 -71 12q-52 0 -78 -20.5t-26 -53.5q0 -29 24 -45.5t57 -16.5q31 0 59.5 15z" />
    <glyph glyph-name="guillemotleft" unicode="&#xab;" horiz-adv-x="581" 
d="M40 271l207 224l63 -59l-155 -165l155 -165l-63 -59zM251 271l207 224l63 -59l-155 -165l155 -165l-63 -59z" />
    <glyph glyph-name="logicalnot" unicode="&#xac;" horiz-adv-x="590" 
d="M411 300h-357v94h449v-289h-92v195z" />
    <glyph glyph-name="uni00AD" unicode="&#xad;" horiz-adv-x="451" 
d="M61 357h329v-94h-329v94z" />
    <glyph glyph-name="registered" unicode="&#xae;" horiz-adv-x="532" 
d="M151 303q-53 31 -84 84t-31 115t31 115t84 84t115 31t115 -31t84 -84t31 -115t-31 -115t-84 -84t-115 -31t-115 31zM357.5 344.5q41.5 24.5 66 66.5t24.5 91q0 50 -24.5 91.5t-66 66t-91.5 24.5q-49 0 -91 -24.5t-66.5 -66t-24.5 -91.5q0 -49 25 -90.5t66.5 -66.5
t90.5 -25q50 0 91.5 24.5zM189 615h96q29 0 51 -21t22 -51q0 -23 -14.5 -41.5t-35.5 -24.5l-2 -2l60 -84v-2h-52l-55 84h-24v-84h-46v226zM281 515q13 0 22 8t9 20q0 11 -8.5 19.5t-21.5 8.5h-47v-56h46z" />
    <glyph glyph-name="macron" unicode="&#xaf;" horiz-adv-x="407" 
d="M60 702h287v-86h-287v86z" />
    <glyph glyph-name="degree" unicode="&#xb0;" horiz-adv-x="325" 
d="M97.5 459.5q-30.5 17.5 -48 47t-17.5 64.5t17.5 65t48 47t65.5 17t65 -17t47.5 -47t17.5 -65t-17.5 -64.5t-47.5 -47t-65 -17.5t-65.5 17.5zM203 529.5q16 17.5 16 41.5q0 25 -16 42t-40 17q-25 0 -41 -17t-16 -42q0 -24 16.5 -41.5t40.5 -17.5t40 17.5z" />
    <glyph glyph-name="plusminus" unicode="&#xb1;" horiz-adv-x="559" 
d="M232 305h-176v91h176v150h95v-150h176v-91h-176v-149h-95v149zM56 95h447v-95h-447v95z" />
    <glyph glyph-name="uni00B2" unicode="&#xb2;" horiz-adv-x="310" 
d="M27 412l131 131q21 22 31.5 37t10.5 33q0 17 -14 28.5t-33 11.5q-22 0 -37 -13.5t-20 -40.5l-72 29q10 44 46 70t82 26q53 0 90.5 -30t37.5 -78q0 -31 -18.5 -58.5t-44.5 -53.5q-23 -22 -48.5 -47.5l-35.5 -35.5h149v-71h-255v62z" />
    <glyph glyph-name="uni00B3" unicode="&#xb3;" horiz-adv-x="329" 
d="M74 367.5q-38 25.5 -50 74.5l73 27q7 -29 24.5 -43t39.5 -14q23 0 39.5 14t16.5 36q0 21 -17 33.5t-42 12.5h-40v64h36q23 0 37 11.5t14 31.5q0 17 -13 28t-32 11q-40 0 -55 -40l-69 28q13 38 45 60t80 22q54 0 88.5 -30t34.5 -74q0 -48 -44 -77q26 -14 41.5 -35.5
t15.5 -48.5q0 -53 -40 -85t-96 -32q-49 0 -87 25.5z" />
    <glyph glyph-name="acute" unicode="&#xb4;" horiz-adv-x="420" 
d="M199 720h125l-80 -132h-92z" />
    <glyph glyph-name="uni00B5" unicode="&#xb5;" horiz-adv-x="572" 
d="M58 496h110v-287q0 -63 29 -93.5t78 -30.5q56 0 90.5 44t34.5 105v262h110v-496h-105v61h-5q-22 -35 -58.5 -56t-84.5 -21q-49 0 -89 33h-6l6 -60v-173h-110v712z" />
    <glyph glyph-name="paragraph" unicode="&#xb6;" horiz-adv-x="633" 
d="M283 296h-35q-60 0 -111.5 25.5t-82 73.5t-30.5 111t30.5 111t82 73.5t111.5 25.5h305v-932h-96v835h-78v-835h-96v512z" />
    <glyph glyph-name="periodcentered" unicode="&#xb7;" horiz-adv-x="205" 
d="M48.5 269.5q-22.5 22.5 -22.5 54.5t22.5 54.5t54.5 22.5t54 -22.5t22 -54.5t-22 -54.5t-54 -22.5t-54.5 22.5z" />
    <glyph glyph-name="cedilla" unicode="&#xb8;" horiz-adv-x="405" 
d="M108 -218.5q-26 18.5 -37 47.5l58 25q4 -13 14 -22t24 -9q17 0 27.5 10.5t10.5 25.5q0 16 -10.5 27.5t-27.5 11.5t-30 -15l-53 24l35 93h62l-21 -48q12 2 19 2q38 0 65 -26.5t27 -68.5q0 -40 -29.5 -68t-74.5 -28q-33 0 -59 18.5z" />
    <glyph glyph-name="uni00B9" unicode="&#xb9;" horiz-adv-x="256" 
d="M117 616l-49 -42l-44 59l102 83h70v-366h-79v266z" />
    <glyph glyph-name="ordmasculine" unicode="&#xba;" horiz-adv-x="525" 
d="M145.5 302q-51.5 30 -80.5 82.5t-29 117.5t29 117.5t80.5 82.5t116.5 30t116.5 -30t81 -82.5t29.5 -117.5t-29.5 -117.5t-81 -82.5t-116.5 -30t-116.5 30zM323 383q29 17 46.5 48t17.5 71t-17.5 71t-46.5 48t-61 17t-60.5 -17t-46 -48t-17.5 -71t17.5 -71t46 -48
t60.5 -17t61 17z" />
    <glyph glyph-name="guillemotright" unicode="&#xbb;" horiz-adv-x="581" 
d="M60 106l155 165l-155 165l64 59l206 -224l-206 -224zM271 106l155 165l-155 165l64 59l206 -224l-206 -224z" />
    <glyph glyph-name="onequarter" unicode="&#xbc;" horiz-adv-x="752" 
d="M141 616l-49 -42l-44 59l102 83h70v-366h-79v266zM109 33l466 694l66 -45l-465 -694zM571 69h-172v55l172 242h77v-231h48v-66h-48v-69h-77v69zM571 135v120h-6l-86 -120h92z" />
    <glyph glyph-name="onehalf" unicode="&#xbd;" horiz-adv-x="791" 
d="M141 616l-49 -42l-44 59l102 83h70v-366h-79v266zM101 33l466 694l66 -45l-465 -694zM480 62l131 131q21 22 31.5 37t10.5 33q0 17 -14 28.5t-33 11.5q-22 0 -37 -13.5t-20 -40.5l-72 29q10 44 46 70t82 26q53 0 90.5 -30t37.5 -78q0 -31 -18.5 -58.5t-44.5 -53.5
q-23 -22 -48.5 -47.5l-35.5 -35.5h149v-71h-255v62z" />
    <glyph glyph-name="threequarters" unicode="&#xbe;" horiz-adv-x="834" 
d="M98 367.5q-38 25.5 -50 74.5l73 27q7 -29 24.5 -43t39.5 -14q23 0 39.5 14t16.5 36q0 21 -17 33.5t-42 12.5h-40v64h36q23 0 37 11.5t14 31.5q0 17 -13 28t-32 11q-40 0 -55 -40l-69 28q13 38 45 60t80 22q54 0 88.5 -30t34.5 -74q0 -48 -44 -77q26 -14 41.5 -35.5
t15.5 -48.5q0 -53 -40 -85t-96 -32q-49 0 -87 25.5zM179 33l466 694l66 -45l-465 -694zM653 69h-172v55l172 242h77v-231h48v-66h-48v-69h-77v69zM653 135v120h-6l-86 -120h92z" />
    <glyph glyph-name="questiondown" unicode="&#xbf;" horiz-adv-x="504" 
d="M198.5 381.5q-22.5 22.5 -22.5 53.5q0 32 22 54.5t54 22.5t54.5 -22.5t22.5 -54.5t-22.5 -54t-54.5 -22q-31 0 -53.5 22.5zM144 -207.5q-48 24.5 -74.5 68t-26.5 97.5q0 53 25.5 90.5t67.5 77.5q33 30 46.5 55t13.5 57v34h111v-46q0 -46 -19 -80t-69 -78
q-35 -32 -50.5 -54t-15.5 -53q0 -39 26.5 -64t72.5 -25q44 0 71 26.5t39 63.5l100 -42q-20 -60 -73.5 -106t-135.5 -46q-61 0 -109 24.5z" />
    <glyph glyph-name="Agrave" unicode="&#xc0;" horiz-adv-x="694" 
d="M283 716h128l269 -716h-123l-65 183h-289l-65 -183h-124zM454 287l-76 213l-28 83h-6l-28 -83l-76 -213h214zM221 904h124l48 -132h-92z" />
    <glyph glyph-name="Aacute" unicode="&#xc1;" horiz-adv-x="694" 
d="M283 716h128l269 -716h-123l-65 183h-289l-65 -183h-124zM454 287l-76 213l-28 83h-6l-28 -83l-76 -213h214zM348 904h125l-80 -132h-92z" />
    <glyph glyph-name="Acircumflex" unicode="&#xc2;" horiz-adv-x="694" 
d="M283 716h128l269 -716h-123l-65 183h-289l-65 -183h-124zM454 287l-76 213l-28 83h-6l-28 -83l-76 -213h214zM191 785l108 121h96l108 -121v-7h-106l-45 60h-10l-45 -60h-106v7z" />
    <glyph glyph-name="Atilde" unicode="&#xc3;" horiz-adv-x="694" 
d="M283 716h128l269 -716h-123l-65 183h-289l-65 -183h-124zM454 287l-76 213l-28 83h-6l-28 -83l-76 -213h214zM366.5 783q-19.5 8 -41.5 21q-4 2 -17 9q-12 6 -20 6q-27 0 -30 -32h-83q0 59 34 90.5t79 31.5q20 0 38 -7.5t46 -21.5q4 -2 15 -8q12 -7 19 -7q29 0 30 32h84
q0 -59 -34.5 -90.5t-79.5 -31.5q-20 0 -39.5 8z" />
    <glyph glyph-name="Adieresis" unicode="&#xc4;" horiz-adv-x="694" 
d="M283 716h128l269 -716h-123l-65 183h-289l-65 -183h-124zM454 287l-76 213l-28 83h-6l-28 -83l-76 -213h214zM213 798q-19 19 -19 45q0 27 19 45.5t45 18.5q27 0 45.5 -18.5t18.5 -45.5q0 -26 -18.5 -45t-45.5 -19q-26 0 -45 19zM392 798q-19 19 -19 45q0 27 18.5 45.5
t44.5 18.5q28 0 46 -18.5t18 -45.5q0 -26 -18.5 -45t-45.5 -19q-25 0 -44 19z" />
    <glyph glyph-name="Aring" unicode="&#xc5;" horiz-adv-x="694" 
d="M680 0h-123l-65 183h-289l-65 -183h-124l253 672q-17 16 -26.5 38t-9.5 46q0 49 33.5 82.5t82.5 33.5q48 0 82 -33.5t34 -82.5q0 -48 -36 -84zM319 784.5q-12 -11.5 -12 -28.5q0 -16 12 -28t28 -12q17 0 28.5 12t11.5 28q0 17 -11.5 28.5t-28.5 11.5q-16 0 -28 -11.5z
M454 287l-76 213l-28 83h-6l-28 -83l-76 -213h214z" />
    <glyph glyph-name="AE" unicode="&#xc6;" horiz-adv-x="987" 
d="M431 716h500v-107h-323v-198h291v-106h-291v-198h323v-107h-435v184h-251l-107 -184h-132zM496 290v319h-7l-31 -59l-152 -260h190z" />
    <glyph glyph-name="Ccedilla" unicode="&#xc7;" horiz-adv-x="743" 
d="M582.5 20q-70.5 -34 -155.5 -36l-14 -32q12 2 19 2q38 0 65 -26.5t27 -68.5q0 -40 -29.5 -68t-74.5 -28q-33 0 -59 18.5t-37 47.5l58 25q4 -13 14 -22t24 -9q17 0 27.5 10.5t10.5 25.5q0 16 -10.5 27.5t-27.5 11.5t-30 -15l-53 24l30 80q-93 11 -166.5 62.5t-115 132
t-41.5 176.5q0 105 49 190.5t134.5 134.5t189.5 49q161 0 265 -117l-79 -77q-37 44 -82.5 65.5t-103.5 21.5q-72 0 -131.5 -33t-94 -93.5t-34.5 -140.5t34.5 -140.5t94 -93.5t131.5 -33q120 0 204 100l81 -78q-49 -59 -119.5 -93z" />
    <glyph glyph-name="Egrave" unicode="&#xc8;" horiz-adv-x="570" 
d="M79 716h435v-107h-323v-198h291v-106h-291v-198h323v-107h-435v716zM170 904h124l48 -132h-92z" />
    <glyph glyph-name="Eacute" unicode="&#xc9;" horiz-adv-x="570" 
d="M79 716h435v-107h-323v-198h291v-106h-291v-198h323v-107h-435v716zM297 904h125l-80 -132h-92z" />
    <glyph glyph-name="Ecircumflex" unicode="&#xca;" horiz-adv-x="570" 
d="M79 716h435v-107h-323v-198h291v-106h-291v-198h323v-107h-435v716zM140 785l108 121h96l108 -121v-7h-106l-45 60h-10l-45 -60h-106v7z" />
    <glyph glyph-name="Edieresis" unicode="&#xcb;" horiz-adv-x="570" 
d="M79 716h435v-107h-323v-198h291v-106h-291v-198h323v-107h-435v716zM162 798q-19 19 -19 45q0 27 19 45.5t45 18.5q27 0 45.5 -18.5t18.5 -45.5q0 -26 -18.5 -45t-45.5 -19q-26 0 -45 19zM341 798q-19 19 -19 45q0 27 18.5 45.5t44.5 18.5q28 0 46 -18.5t18 -45.5
q0 -26 -18.5 -45t-45.5 -19q-25 0 -44 19z" />
    <glyph glyph-name="Igrave" unicode="&#xcc;" horiz-adv-x="270" 
d="M79 716h112v-716h-112v716zM9 904h124l48 -132h-92z" />
    <glyph glyph-name="Iacute" unicode="&#xcd;" horiz-adv-x="270" 
d="M79 716h112v-716h-112v716zM136 904h125l-80 -132h-92z" />
    <glyph glyph-name="Icircumflex" unicode="&#xce;" horiz-adv-x="270" 
d="M79 716h112v-716h-112v716zM-21 785l108 121h96l108 -121v-7h-106l-45 60h-10l-45 -60h-106v7z" />
    <glyph glyph-name="Idieresis" unicode="&#xcf;" horiz-adv-x="270" 
d="M14.5 800q-18.5 19 -18.5 44q0 26 18.5 44t43.5 18q27 0 45 -18t18 -44t-18 -44.5t-45 -18.5q-25 0 -43.5 19zM168 800q-19 19 -19 44q0 26 18.5 44t44.5 18t44 -18t18 -44t-18 -44.5t-44 -18.5q-25 0 -44 19zM79 716h112v-716h-112v716z" />
    <glyph glyph-name="Eth" unicode="&#xd0;" horiz-adv-x="775" 
d="M137 311h-76v92h76v313h229q111 0 194 -45t127.5 -126.5t44.5 -186.5t-44.5 -186.5t-127.5 -126.5t-194 -45h-229v311zM364 107q120 0 187.5 66.5t67.5 184.5q0 117 -67.5 184t-187.5 67h-115v-206h192v-92h-192v-204h115z" />
    <glyph glyph-name="Ntilde" unicode="&#xd1;" horiz-adv-x="722" 
d="M79 716h133l320 -521h6l-6 138v383h111v-716h-117l-336 548h-6l6 -138v-410h-111v716zM391.5 783q-19.5 8 -41.5 21q-4 2 -17 9q-12 6 -20 6q-27 0 -30 -32h-83q0 59 34 90.5t79 31.5q20 0 38 -7.5t46 -21.5q4 -2 15 -8q12 -7 19 -7q29 0 30 32h84q0 -59 -34.5 -90.5
t-79.5 -31.5q-20 0 -39.5 8z" />
    <glyph glyph-name="Ograve" unicode="&#xd2;" horiz-adv-x="829" 
d="M225.5 33.5q-84.5 49.5 -133 135.5t-48.5 189t48.5 188.5t133 135.5t188.5 50t189 -50t133.5 -135.5t48.5 -188.5t-48.5 -189t-133.5 -135.5t-189 -49.5t-188.5 49.5zM544 125q59 34 93.5 94.5t34.5 138.5t-34.5 138.5t-93.5 94.5t-130 34t-129.5 -34t-93 -94.5
t-34.5 -138.5t34.5 -138.5t93 -94.5t129.5 -34t130 34zM288 904h124l48 -132h-92z" />
    <glyph glyph-name="Oacute" unicode="&#xd3;" horiz-adv-x="829" 
d="M225.5 33.5q-84.5 49.5 -133 135.5t-48.5 189t48.5 188.5t133 135.5t188.5 50t189 -50t133.5 -135.5t48.5 -188.5t-48.5 -189t-133.5 -135.5t-189 -49.5t-188.5 49.5zM544 125q59 34 93.5 94.5t34.5 138.5t-34.5 138.5t-93.5 94.5t-130 34t-129.5 -34t-93 -94.5
t-34.5 -138.5t34.5 -138.5t93 -94.5t129.5 -34t130 34zM415 904h125l-80 -132h-92z" />
    <glyph glyph-name="Ocircumflex" unicode="&#xd4;" horiz-adv-x="829" 
d="M225.5 33.5q-84.5 49.5 -133 135.5t-48.5 189t48.5 188.5t133 135.5t188.5 50t189 -50t133.5 -135.5t48.5 -188.5t-48.5 -189t-133.5 -135.5t-189 -49.5t-188.5 49.5zM544 125q59 34 93.5 94.5t34.5 138.5t-34.5 138.5t-93.5 94.5t-130 34t-129.5 -34t-93 -94.5
t-34.5 -138.5t34.5 -138.5t93 -94.5t129.5 -34t130 34zM258 785l108 121h96l108 -121v-7h-106l-45 60h-10l-45 -60h-106v7z" />
    <glyph glyph-name="Otilde" unicode="&#xd5;" horiz-adv-x="829" 
d="M225.5 33.5q-84.5 49.5 -133 135.5t-48.5 189t48.5 188.5t133 135.5t188.5 50t189 -50t133.5 -135.5t48.5 -188.5t-48.5 -189t-133.5 -135.5t-189 -49.5t-188.5 49.5zM544 125q59 34 93.5 94.5t34.5 138.5t-34.5 138.5t-93.5 94.5t-130 34t-129.5 -34t-93 -94.5
t-34.5 -138.5t34.5 -138.5t93 -94.5t129.5 -34t130 34zM433.5 783q-19.5 8 -41.5 21q-4 2 -17 9q-12 6 -20 6q-27 0 -30 -32h-83q0 59 34 90.5t79 31.5q20 0 38 -7.5t46 -21.5q4 -2 15 -8q12 -7 19 -7q29 0 30 32h84q0 -59 -34.5 -90.5t-79.5 -31.5q-20 0 -39.5 8z" />
    <glyph glyph-name="Odieresis" unicode="&#xd6;" horiz-adv-x="829" 
d="M225.5 33.5q-84.5 49.5 -133 135.5t-48.5 189t48.5 188.5t133 135.5t188.5 50t189 -50t133.5 -135.5t48.5 -188.5t-48.5 -189t-133.5 -135.5t-189 -49.5t-188.5 49.5zM544 125q59 34 93.5 94.5t34.5 138.5t-34.5 138.5t-93.5 94.5t-130 34t-129.5 -34t-93 -94.5
t-34.5 -138.5t34.5 -138.5t93 -94.5t129.5 -34t130 34zM280 798q-19 19 -19 45q0 27 19 45.5t45 18.5q27 0 45.5 -18.5t18.5 -45.5q0 -26 -18.5 -45t-45.5 -19q-26 0 -45 19zM459 798q-19 19 -19 45q0 27 18.5 45.5t44.5 18.5q28 0 46 -18.5t18 -45.5q0 -26 -18.5 -45
t-45.5 -19q-25 0 -44 19z" />
    <glyph glyph-name="multiply" unicode="&#xd7;" horiz-adv-x="584" 
d="M65 115l161 156l-161 156l65 65l162 -157l162 157l65 -65l-161 -156l161 -156l-65 -65l-162 157l-162 -157z" />
    <glyph glyph-name="Oslash" unicode="&#xd8;" horiz-adv-x="829" 
d="M749 521q36 -76 36 -163q0 -103 -48.5 -189t-133.5 -135.5t-189 -49.5q-85 0 -159 34l-37 -60l-76 49l37 59q-64 52 -99.5 128t-35.5 164q0 103 48.5 188.5t133 135.5t188.5 50q86 0 159 -34l38 60l76 -49l-37 -59q63 -53 99 -129zM178 247q21 -51 59 -87l279 445
q-49 20 -102 20q-71 0 -129.5 -34t-93 -94.5t-34.5 -138.5q0 -60 21 -111zM544 125q59 34 93.5 94.5t34.5 138.5q0 60 -21 111t-59 87l-279 -445q48 -20 101 -20q71 0 130 34z" />
    <glyph glyph-name="Ugrave" unicode="&#xd9;" horiz-adv-x="672" 
d="M194.5 20q-61.5 36 -95.5 102t-34 153v441h112v-447q0 -80 41 -129t118 -49t118.5 49.5t41.5 128.5v447h111v-441q0 -86 -33 -152t-94 -102.5t-144 -36.5q-80 0 -141.5 36zM210 904h124l48 -132h-92z" />
    <glyph glyph-name="Uacute" unicode="&#xda;" horiz-adv-x="672" 
d="M194.5 20q-61.5 36 -95.5 102t-34 153v441h112v-447q0 -80 41 -129t118 -49t118.5 49.5t41.5 128.5v447h111v-441q0 -86 -33 -152t-94 -102.5t-144 -36.5q-80 0 -141.5 36zM337 904h125l-80 -132h-92z" />
    <glyph glyph-name="Ucircumflex" unicode="&#xdb;" horiz-adv-x="672" 
d="M194.5 20q-61.5 36 -95.5 102t-34 153v441h112v-447q0 -80 41 -129t118 -49t118.5 49.5t41.5 128.5v447h111v-441q0 -86 -33 -152t-94 -102.5t-144 -36.5q-80 0 -141.5 36zM180 785l108 121h96l108 -121v-7h-106l-45 60h-10l-45 -60h-106v7z" />
    <glyph glyph-name="Udieresis" unicode="&#xdc;" horiz-adv-x="672" 
d="M194.5 20q-61.5 36 -95.5 102t-34 153v441h112v-447q0 -80 41 -129t118 -49t118.5 49.5t41.5 128.5v447h111v-441q0 -86 -33 -152t-94 -102.5t-144 -36.5q-80 0 -141.5 36zM202 798q-19 19 -19 45q0 27 19 45.5t45 18.5q27 0 45.5 -18.5t18.5 -45.5q0 -26 -18.5 -45
t-45.5 -19q-26 0 -45 19zM381 798q-19 19 -19 45q0 27 18.5 45.5t44.5 18.5q28 0 46 -18.5t18 -45.5q0 -26 -18.5 -45t-45.5 -19q-25 0 -44 19z" />
    <glyph glyph-name="Yacute" unicode="&#xdd;" horiz-adv-x="618" 
d="M255 333l-241 383h133l161 -266h6l156 266h134l-237 -383v-333h-112v333zM310 904h125l-80 -132h-92z" />
    <glyph glyph-name="Thorn" unicode="&#xde;" horiz-adv-x="590" 
d="M79 716h112v-116h136q63 0 116.5 -28t85 -78t31.5 -113t-31.5 -113t-85 -78t-116.5 -28h-136v-162h-112v716zM330 268q36 0 63 16.5t41 42.5t14 54t-14 54t-41 42.5t-63 16.5h-139v-226h139z" />
    <glyph glyph-name="germandbls" unicode="&#xdf;" horiz-adv-x="585" 
d="M261 -4v103q32 -5 52 -5q52 0 87 34t35 86q0 33 -18 60.5t-48.5 43t-65.5 15.5h-33v99h23q52 0 82 28t30 74q0 41 -31 68t-75 27q-51 0 -80.5 -33t-29.5 -85v-511h-111v512q0 63 26.5 113t76.5 78.5t118 28.5q61 0 110 -24.5t77 -68.5t28 -100q0 -53 -23 -90.5t-61 -58.5
v-6q54 -23 85.5 -67t31.5 -108q0 -63 -29.5 -112.5t-82 -77t-118.5 -27.5q-29 0 -56 4z" />
    <glyph glyph-name="agrave" unicode="&#xe0;" horiz-adv-x="536" 
d="M124.5 5.5q-42.5 21.5 -67 60t-24.5 87.5q0 78 58.5 123t148.5 45q79 0 135 -27v21q0 45 -35.5 74.5t-85.5 29.5q-76 0 -122 -62l-84 58q35 47 87.5 72t118.5 25q109 0 168.5 -54.5t59.5 -153.5v-304h-107v61h-6q-24 -34 -61 -55.5t-88 -21.5q-53 0 -95.5 21.5z
M306.5 93.5q31.5 18.5 50 49t18.5 65.5q-53 29 -113 29q-55 0 -86 -24t-31 -61q0 -34 27.5 -55.5t65.5 -21.5q37 0 68.5 18.5zM137 726h124l48 -132h-92z" />
    <glyph glyph-name="aacute" unicode="&#xe1;" horiz-adv-x="536" 
d="M124.5 5.5q-42.5 21.5 -67 60t-24.5 87.5q0 78 58.5 123t148.5 45q79 0 135 -27v21q0 45 -35.5 74.5t-85.5 29.5q-76 0 -122 -62l-84 58q35 47 87.5 72t118.5 25q109 0 168.5 -54.5t59.5 -153.5v-304h-107v61h-6q-24 -34 -61 -55.5t-88 -21.5q-53 0 -95.5 21.5z
M306.5 93.5q31.5 18.5 50 49t18.5 65.5q-53 29 -113 29q-55 0 -86 -24t-31 -61q0 -34 27.5 -55.5t65.5 -21.5q37 0 68.5 18.5zM264 726h125l-80 -132h-92z" />
    <glyph glyph-name="acircumflex" unicode="&#xe2;" horiz-adv-x="536" 
d="M124.5 5.5q-42.5 21.5 -67 60t-24.5 87.5q0 78 58.5 123t148.5 45q79 0 135 -27v21q0 45 -35.5 74.5t-85.5 29.5q-76 0 -122 -62l-84 58q35 47 87.5 72t118.5 25q109 0 168.5 -54.5t59.5 -153.5v-304h-107v61h-6q-24 -34 -61 -55.5t-88 -21.5q-53 0 -95.5 21.5z
M306.5 93.5q31.5 18.5 50 49t18.5 65.5q-53 29 -113 29q-55 0 -86 -24t-31 -61q0 -34 27.5 -55.5t65.5 -21.5q37 0 68.5 18.5zM107 601l108 121h96l108 -121v-6h-106l-45 59h-10l-45 -59h-106v6z" />
    <glyph glyph-name="atilde" unicode="&#xe3;" horiz-adv-x="536" 
d="M124.5 5.5q-42.5 21.5 -67 60t-24.5 87.5q0 78 58.5 123t148.5 45q79 0 135 -27v21q0 45 -35.5 74.5t-85.5 29.5q-76 0 -122 -62l-84 58q35 47 87.5 72t118.5 25q109 0 168.5 -54.5t59.5 -153.5v-304h-107v61h-6q-24 -34 -61 -55.5t-88 -21.5q-53 0 -95.5 21.5z
M306.5 93.5q31.5 18.5 50 49t18.5 65.5q-53 29 -113 29q-55 0 -86 -24t-31 -61q0 -34 27.5 -55.5t65.5 -21.5q37 0 68.5 18.5zM282.5 605q-19.5 8 -41.5 21q-4 2 -17 9q-12 6 -20 6q-27 0 -30 -32h-83q0 59 34 90.5t79 31.5q20 0 38 -7.5t46 -21.5q4 -2 15 -8q12 -7 19 -7
q29 0 30 32h84q0 -59 -34.5 -90.5t-79.5 -31.5q-20 0 -39.5 8z" />
    <glyph glyph-name="adieresis" unicode="&#xe4;" horiz-adv-x="536" 
d="M124.5 5.5q-42.5 21.5 -67 60t-24.5 87.5q0 78 58.5 123t148.5 45q79 0 135 -27v21q0 45 -35.5 74.5t-85.5 29.5q-76 0 -122 -62l-84 58q35 47 87.5 72t118.5 25q109 0 168.5 -54.5t59.5 -153.5v-304h-107v61h-6q-24 -34 -61 -55.5t-88 -21.5q-53 0 -95.5 21.5z
M306.5 93.5q31.5 18.5 50 49t18.5 65.5q-53 29 -113 29q-55 0 -86 -24t-31 -61q0 -34 27.5 -55.5t65.5 -21.5q37 0 68.5 18.5zM129 620q-19 19 -19 45q0 27 18.5 45.5t45.5 18.5t45.5 -18t18.5 -46q0 -26 -18.5 -45t-45.5 -19q-26 0 -45 19zM308 620q-19 19 -19 45
q0 27 18.5 45.5t44.5 18.5q28 0 46 -18t18 -46q0 -26 -18.5 -45t-45.5 -19q-25 0 -44 19z" />
    <glyph glyph-name="aring" unicode="&#xe5;" horiz-adv-x="536" 
d="M124.5 5.5q-42.5 21.5 -67 60t-24.5 87.5q0 78 58.5 123t148.5 45q79 0 135 -27v21q0 45 -35.5 74.5t-85.5 29.5q-76 0 -122 -62l-84 58q35 47 87.5 72t118.5 25q109 0 168.5 -54.5t59.5 -153.5v-304h-107v61h-6q-24 -34 -61 -55.5t-88 -21.5q-53 0 -95.5 21.5z
M306.5 93.5q31.5 18.5 50 49t18.5 65.5q-53 29 -113 29q-55 0 -86 -24t-31 -61q0 -34 27.5 -55.5t65.5 -21.5q37 0 68.5 18.5zM188 603q-31 31 -31 75t31 75t75 31t75 -31t31 -75q0 -43 -31.5 -74.5t-74.5 -31.5q-44 0 -75 31zM291 650q12 12 12 28t-12 28t-28 12
q-17 0 -28.5 -11.5t-11.5 -28.5q0 -16 12 -28t28 -12t28 12z" />
    <glyph glyph-name="ae" unicode="&#xe6;" horiz-adv-x="903" 
d="M126.5 5.5q-43.5 21.5 -68.5 60t-25 87.5q0 78 58.5 123t148.5 45q79 0 137 -28v19q0 47 -34.5 77t-84.5 30q-77 0 -109 -63l-90 42q26 54 77 84t121 30q63 0 110.5 -23.5t75.5 -67.5q32 43 79 67t104 24q75 0 130 -33t84 -91.5t29 -134.5q0 -24 -2 -28h-383
q6 -68 50 -105t100 -37q87 0 133 80l93 -45q-33 -61 -91.5 -97.5t-137.5 -36.5q-65 0 -117 29t-85 80q-74 -109 -204 -109q-55 0 -98.5 21.5zM758 309q-2 24 -16.5 49t-43.5 42t-73 17q-50 0 -86 -29.5t-48 -78.5h267zM307 93.5q32 18.5 51 49t19 65.5q-31 13 -55 21t-60 8
q-55 0 -86 -24t-31 -61q0 -34 27.5 -55.5t65.5 -21.5q37 0 69 18.5z" />
    <glyph glyph-name="ccedilla" unicode="&#xe7;" horiz-adv-x="547" 
d="M436 25.5q-55 -38.5 -133 -41.5l-14 -32q12 2 19 2q38 0 65 -26.5t27 -68.5q0 -40 -29.5 -68t-74.5 -28q-33 0 -59 18.5t-37 47.5l58 25q4 -13 14 -22t24 -9q17 0 27.5 10.5t10.5 25.5q0 16 -10.5 27.5t-27.5 11.5t-30 -15l-53 24l31 81q-62 10 -109.5 46t-74 91.5
t-26.5 122.5q0 76 33 136t92 94t133 34q82 0 139.5 -38.5t83.5 -101.5l-101 -42q-36 81 -126 81q-38 0 -71 -20.5t-53 -57.5t-20 -85t20 -85t53 -57.5t71 -20.5q46 0 80 21.5t52 61.5l99 -43q-28 -61 -83 -99.5z" />
    <glyph glyph-name="egrave" unicode="&#xe8;" horiz-adv-x="562" 
d="M158.5 18q-58.5 34 -91.5 94.5t-33 135.5q0 72 31.5 132.5t88.5 96t130 35.5q75 0 130.5 -33t84.5 -91.5t29 -134.5q0 -9 -1 -18t-1 -10h-382q5 -68 49 -105t100 -37q86 0 132 80l94 -45q-33 -61 -91.5 -97.5t-137.5 -36.5q-73 0 -131.5 34zM416 309q-2 24 -16 49
t-43.5 42.5t-73.5 17.5q-49 0 -84.5 -30t-48.5 -79h266zM159 726h124l48 -132h-92z" />
    <glyph glyph-name="eacute" unicode="&#xe9;" horiz-adv-x="562" 
d="M158.5 18q-58.5 34 -91.5 94.5t-33 135.5q0 72 31.5 132.5t88.5 96t130 35.5q75 0 130.5 -33t84.5 -91.5t29 -134.5q0 -9 -1 -18t-1 -10h-382q5 -68 49 -105t100 -37q86 0 132 80l94 -45q-33 -61 -91.5 -97.5t-137.5 -36.5q-73 0 -131.5 34zM416 309q-2 24 -16 49
t-43.5 42.5t-73.5 17.5q-49 0 -84.5 -30t-48.5 -79h266zM286 726h125l-80 -132h-92z" />
    <glyph glyph-name="ecircumflex" unicode="&#xea;" horiz-adv-x="562" 
d="M158.5 18q-58.5 34 -91.5 94.5t-33 135.5q0 72 31.5 132.5t88.5 96t130 35.5q75 0 130.5 -33t84.5 -91.5t29 -134.5q0 -9 -1 -18t-1 -10h-382q5 -68 49 -105t100 -37q86 0 132 80l94 -45q-33 -61 -91.5 -97.5t-137.5 -36.5q-73 0 -131.5 34zM416 309q-2 24 -16 49
t-43.5 42.5t-73.5 17.5q-49 0 -84.5 -30t-48.5 -79h266zM129 601l108 121h96l108 -121v-6h-106l-45 59h-10l-45 -59h-106v6z" />
    <glyph glyph-name="edieresis" unicode="&#xeb;" horiz-adv-x="562" 
d="M158.5 18q-58.5 34 -91.5 94.5t-33 135.5q0 72 31.5 132.5t88.5 96t130 35.5q75 0 130.5 -33t84.5 -91.5t29 -134.5q0 -9 -1 -18t-1 -10h-382q5 -68 49 -105t100 -37q86 0 132 80l94 -45q-33 -61 -91.5 -97.5t-137.5 -36.5q-73 0 -131.5 34zM416 309q-2 24 -16 49
t-43.5 42.5t-73.5 17.5q-49 0 -84.5 -30t-48.5 -79h266zM151 620q-19 19 -19 45q0 27 18.5 45.5t45.5 18.5t45.5 -18t18.5 -46q0 -26 -18.5 -45t-45.5 -19q-26 0 -45 19zM330 620q-19 19 -19 45q0 27 18.5 45.5t44.5 18.5q28 0 46 -18t18 -46q0 -26 -18.5 -45t-45.5 -19
q-25 0 -44 19z" />
    <glyph glyph-name="igrave" unicode="&#xec;" horiz-adv-x="250" 
d="M70 496h110v-496h-110v496zM-1 726h124l48 -132h-92z" />
    <glyph glyph-name="iacute" unicode="&#xed;" horiz-adv-x="250" 
d="M70 496h110v-496h-110v496zM126 726h125l-80 -132h-92z" />
    <glyph glyph-name="icircumflex" unicode="&#xee;" horiz-adv-x="250" 
d="M70 496h110v-496h-110v496zM-31 601l108 121h96l108 -121v-6h-106l-45 59h-10l-45 -59h-106v6z" />
    <glyph glyph-name="idieresis" unicode="&#xef;" horiz-adv-x="250" 
d="M6 621.5q-19 18.5 -19 43.5q0 27 18.5 45t44.5 18t44 -18t18 -45q0 -25 -18 -43.5t-44 -18.5q-25 0 -44 18.5zM156.5 621.5q-18.5 18.5 -18.5 43.5q0 27 18.5 45t43.5 18q27 0 45 -18t18 -45q0 -25 -18 -43.5t-45 -18.5q-25 0 -43.5 18.5zM70 496h110v-496h-110v496z" />
    <glyph glyph-name="eth" unicode="&#xf0;" horiz-adv-x="586" 
d="M167.5 17q-56.5 33 -89.5 90.5t-33 126.5q0 71 33 127t87.5 87t115.5 31q39 0 70 -12.5t48 -29.5l5 5q-27 64 -89 113l-125 -56l-31 73l73 32q-45 22 -101 35l36 87q99 -25 173 -74l102 45l30 -72l-63 -28q66 -64 99 -150.5t33 -187.5q0 -81 -31.5 -143.5t-88.5 -97
t-130 -34.5q-67 0 -123.5 33zM362 104.5q32 18.5 50.5 52t18.5 76.5q0 42 -18.5 76t-50.5 52.5t-69 18.5q-38 0 -70 -18.5t-50.5 -52t-18.5 -76.5t18.5 -76.5t50.5 -52t69 -18.5q38 0 70 18.5z" />
    <glyph glyph-name="ntilde" unicode="&#xf1;" horiz-adv-x="572" 
d="M62 496h104v-66h6q22 36 64 59t91 23q92 0 139.5 -54t47.5 -149v-309h-110v294q0 117 -109 117q-55 0 -89 -44t-34 -104v-263h-110v496zM316.5 605q-19.5 8 -41.5 21q-4 2 -17 9q-12 6 -20 6q-27 0 -30 -32h-83q0 59 34 90.5t79 31.5q20 0 38 -7.5t46 -21.5q4 -2 15 -8
q12 -7 19 -7q29 0 30 32h84q0 -59 -34.5 -90.5t-79.5 -31.5q-20 0 -39.5 8z" />
    <glyph glyph-name="ograve" unicode="&#xf2;" horiz-adv-x="586" 
d="M160 18.5q-59 34.5 -92.5 94.5t-33.5 135t33.5 135t92.5 94.5t133 34.5q75 0 134 -34.5t92 -94.5t33 -135t-33 -135t-92 -94.5t-134 -34.5q-74 0 -133 34.5zM367 105q34 20 55 57t21 86q0 50 -21 87t-55 56.5t-74 19.5q-39 0 -73.5 -19.5t-55 -56.5t-20.5 -87
q0 -49 21 -86t55 -57t73 -20q40 0 74 20zM167 726h124l48 -132h-92z" />
    <glyph glyph-name="oacute" unicode="&#xf3;" horiz-adv-x="586" 
d="M160 18.5q-59 34.5 -92.5 94.5t-33.5 135t33.5 135t92.5 94.5t133 34.5q75 0 134 -34.5t92 -94.5t33 -135t-33 -135t-92 -94.5t-134 -34.5q-74 0 -133 34.5zM367 105q34 20 55 57t21 86q0 50 -21 87t-55 56.5t-74 19.5q-39 0 -73.5 -19.5t-55 -56.5t-20.5 -87
q0 -49 21 -86t55 -57t73 -20q40 0 74 20zM294 726h125l-80 -132h-92z" />
    <glyph glyph-name="ocircumflex" unicode="&#xf4;" horiz-adv-x="586" 
d="M160 18.5q-59 34.5 -92.5 94.5t-33.5 135t33.5 135t92.5 94.5t133 34.5q75 0 134 -34.5t92 -94.5t33 -135t-33 -135t-92 -94.5t-134 -34.5q-74 0 -133 34.5zM367 105q34 20 55 57t21 86q0 50 -21 87t-55 56.5t-74 19.5q-39 0 -73.5 -19.5t-55 -56.5t-20.5 -87
q0 -49 21 -86t55 -57t73 -20q40 0 74 20zM137 601l108 121h96l108 -121v-6h-106l-45 59h-10l-45 -59h-106v6z" />
    <glyph glyph-name="otilde" unicode="&#xf5;" horiz-adv-x="586" 
d="M160 18.5q-59 34.5 -92.5 94.5t-33.5 135t33.5 135t92.5 94.5t133 34.5q75 0 134 -34.5t92 -94.5t33 -135t-33 -135t-92 -94.5t-134 -34.5q-74 0 -133 34.5zM367 105q34 20 55 57t21 86q0 50 -21 87t-55 56.5t-74 19.5q-39 0 -73.5 -19.5t-55 -56.5t-20.5 -87
q0 -49 21 -86t55 -57t73 -20q40 0 74 20zM312.5 605q-19.5 8 -41.5 21q-4 2 -17 9q-12 6 -20 6q-27 0 -30 -32h-83q0 59 34 90.5t79 31.5q20 0 38 -7.5t46 -21.5q4 -2 15 -8q12 -7 19 -7q29 0 30 32h84q0 -59 -34.5 -90.5t-79.5 -31.5q-20 0 -39.5 8z" />
    <glyph glyph-name="odieresis" unicode="&#xf6;" horiz-adv-x="586" 
d="M160 18.5q-59 34.5 -92.5 94.5t-33.5 135t33.5 135t92.5 94.5t133 34.5q75 0 134 -34.5t92 -94.5t33 -135t-33 -135t-92 -94.5t-134 -34.5q-74 0 -133 34.5zM367 105q34 20 55 57t21 86q0 50 -21 87t-55 56.5t-74 19.5q-39 0 -73.5 -19.5t-55 -56.5t-20.5 -87
q0 -49 21 -86t55 -57t73 -20q40 0 74 20zM159 620q-19 19 -19 45q0 27 18.5 45.5t45.5 18.5t45.5 -18t18.5 -46q0 -26 -18.5 -45t-45.5 -19q-26 0 -45 19zM338 620q-19 19 -19 45q0 27 18.5 45.5t44.5 18.5q28 0 46 -18t18 -46q0 -26 -18.5 -45t-45.5 -19q-25 0 -44 19z" />
    <glyph glyph-name="divide" unicode="&#xf7;" horiz-adv-x="559" 
d="M226.5 408q-21.5 22 -21.5 53t21.5 52.5t52.5 21.5t53 -21.5t22 -52.5t-21.5 -53t-53.5 -22q-31 0 -52.5 22zM56 316h447v-90h-447v90zM226.5 28.5q-21.5 21.5 -21.5 52.5t21.5 53t52.5 22q32 0 53.5 -21.5t21.5 -53.5q0 -31 -22 -52.5t-53 -21.5t-52.5 21.5z" />
    <glyph glyph-name="oslash" unicode="&#xf8;" horiz-adv-x="586" 
d="M530 359.5q22 -51.5 22 -111.5q0 -75 -33 -135t-92 -94.5t-134 -34.5q-53 0 -102 19l-25 -40l-73 41l27 43q-41 36 -63.5 88t-22.5 113q0 75 33.5 135t92.5 94.5t133 34.5q56 0 104 -20l26 42l73 -42l-28 -45q40 -36 62 -87.5zM175 136l169 271q-24 9 -51 9
q-41 0 -76 -20.5t-56.5 -58.5t-21.5 -89q0 -65 36 -112zM369 100.5q35 20.5 56.5 58.5t21.5 89q0 65 -35 110l-168 -270q26 -8 49 -8q41 0 76 20.5z" />
    <glyph glyph-name="ugrave" unicode="&#xf9;" horiz-adv-x="572" 
d="M105.5 38.5q-47.5 54.5 -47.5 150.5v307h110v-292q0 -119 107 -119q56 0 90.5 43.5t34.5 104.5v263h110v-496h-105v66h-5q-22 -36 -64.5 -59t-90.5 -23q-92 0 -139.5 54.5zM158 726h124l48 -132h-92z" />
    <glyph glyph-name="uacute" unicode="&#xfa;" horiz-adv-x="572" 
d="M105.5 38.5q-47.5 54.5 -47.5 150.5v307h110v-292q0 -119 107 -119q56 0 90.5 43.5t34.5 104.5v263h110v-496h-105v66h-5q-22 -36 -64.5 -59t-90.5 -23q-92 0 -139.5 54.5zM285 726h125l-80 -132h-92z" />
    <glyph glyph-name="ucircumflex" unicode="&#xfb;" horiz-adv-x="572" 
d="M105.5 38.5q-47.5 54.5 -47.5 150.5v307h110v-292q0 -119 107 -119q56 0 90.5 43.5t34.5 104.5v263h110v-496h-105v66h-5q-22 -36 -64.5 -59t-90.5 -23q-92 0 -139.5 54.5zM128 601l108 121h96l108 -121v-6h-106l-45 59h-10l-45 -59h-106v6z" />
    <glyph glyph-name="udieresis" unicode="&#xfc;" horiz-adv-x="572" 
d="M105.5 38.5q-47.5 54.5 -47.5 150.5v307h110v-292q0 -119 107 -119q56 0 90.5 43.5t34.5 104.5v263h110v-496h-105v66h-5q-22 -36 -64.5 -59t-90.5 -23q-92 0 -139.5 54.5zM150 620q-19 19 -19 45q0 27 18.5 45.5t45.5 18.5t45.5 -18t18.5 -46q0 -26 -18.5 -45t-45.5 -19
q-26 0 -45 19zM329 620q-19 19 -19 45q0 27 18.5 45.5t44.5 18.5q28 0 46 -18t18 -46q0 -26 -18.5 -45t-45.5 -19q-25 0 -44 19z" />
    <glyph glyph-name="yacute" unicode="&#xfd;" horiz-adv-x="535" 
d="M214 28l-207 468h123l138 -333h5l133 333h122l-310 -712h-116zM269 726h125l-80 -132h-92z" />
    <glyph glyph-name="thorn" unicode="&#xfe;" horiz-adv-x="602" 
d="M60 716h110v-216l-6 -68h6q21 34 63.5 57t96.5 23q64 0 118.5 -34t87 -94.5t32.5 -135.5t-32.5 -135t-87 -94.5t-118.5 -34.5q-54 0 -96.5 23t-63.5 58h-6l6 -69v-212h-110v932zM383.5 105q33.5 20 54 57.5t20.5 85.5t-20.5 85.5t-54 57.5t-72.5 20t-72.5 -20t-54 -57
t-20.5 -86t20.5 -86t54 -57t72.5 -20t72.5 20z" />
    <glyph glyph-name="ydieresis" unicode="&#xff;" horiz-adv-x="535" 
d="M214 28l-207 468h123l138 -333h5l133 333h122l-310 -712h-116zM134 620q-19 19 -19 45q0 27 18.5 45.5t45.5 18.5t45.5 -18t18.5 -46q0 -26 -18.5 -45t-45.5 -19q-26 0 -45 19zM313 620q-19 19 -19 45q0 27 18.5 45.5t44.5 18.5q28 0 46 -18t18 -46q0 -26 -18.5 -45
t-45.5 -19q-25 0 -44 19z" />
    <glyph glyph-name="Amacron" unicode="&#x100;" horiz-adv-x="694" 
d="M283 716h128l269 -716h-123l-65 183h-289l-65 -183h-124zM454 287l-76 213l-28 83h-6l-28 -83l-76 -213h214zM203 886h287v-86h-287v86z" />
    <glyph glyph-name="amacron" unicode="&#x101;" horiz-adv-x="536" 
d="M124.5 5.5q-42.5 21.5 -67 60t-24.5 87.5q0 78 58.5 123t148.5 45q79 0 135 -27v21q0 45 -35.5 74.5t-85.5 29.5q-76 0 -122 -62l-84 58q35 47 87.5 72t118.5 25q109 0 168.5 -54.5t59.5 -153.5v-304h-107v61h-6q-24 -34 -61 -55.5t-88 -21.5q-53 0 -95.5 21.5z
M306.5 93.5q31.5 18.5 50 49t18.5 65.5q-53 29 -113 29q-55 0 -86 -24t-31 -61q0 -34 27.5 -55.5t65.5 -21.5q37 0 68.5 18.5zM119 708h287v-85h-287v85z" />
    <glyph glyph-name="Abreve" unicode="&#x102;" horiz-adv-x="694" 
d="M283 716h128l269 -716h-123l-65 183h-289l-65 -183h-124zM454 287l-76 213l-28 83h-6l-28 -83l-76 -213h214zM283 784q-31 17 -49.5 47t-18.5 66h83q0 -21 13.5 -36t36.5 -15q22 0 35.5 15t13.5 36h81q0 -37 -18 -66.5t-48 -46.5t-64 -17t-65 17z" />
    <glyph glyph-name="abreve" unicode="&#x103;" horiz-adv-x="536" 
d="M124.5 5.5q-42.5 21.5 -67 60t-24.5 87.5q0 78 58.5 123t148.5 45q79 0 135 -27v21q0 45 -35.5 74.5t-85.5 29.5q-76 0 -122 -62l-84 58q35 47 87.5 72t118.5 25q109 0 168.5 -54.5t59.5 -153.5v-304h-107v61h-6q-24 -34 -61 -55.5t-88 -21.5q-53 0 -95.5 21.5z
M306.5 93.5q31.5 18.5 50 49t18.5 65.5q-53 29 -113 29q-55 0 -86 -24t-31 -61q0 -34 27.5 -55.5t65.5 -21.5q37 0 68.5 18.5zM199 606q-31 17 -49.5 47t-18.5 66h83q0 -21 13.5 -36t36.5 -15q22 0 35.5 15t13.5 36h81q0 -37 -18 -66.5t-48 -46.5t-64 -17t-65 17z" />
    <glyph glyph-name="Aogonek" unicode="&#x104;" horiz-adv-x="694" 
d="M548 -191q-34 33 -34 84q0 34 14.5 58t38.5 47l-1 2h-9l-65 183h-289l-65 -183h-124l269 716h128l269 -716q-34 -25 -52 -46t-18 -47q0 -20 11.5 -33t31.5 -13t40 10v-86q-23 -9 -54 -9q-57 0 -91 33zM454 287l-76 213l-28 83h-6l-28 -83l-76 -213h214z" />
    <glyph glyph-name="aogonek" unicode="&#x105;" horiz-adv-x="536" 
d="M350 -191.5q-34 32.5 -34 81.5q0 36 18 63t43 44l-2 3v61h-6q-24 -34 -61 -55.5t-88 -21.5q-53 0 -95.5 21.5t-67 60t-24.5 87.5q0 78 58.5 123t148.5 45q79 0 135 -27v21q0 45 -35.5 74.5t-85.5 29.5q-76 0 -122 -62l-84 58q35 47 87.5 72t118.5 25q109 0 168.5 -54.5
t59.5 -153.5v-304q-34 -25 -52.5 -46t-18.5 -47q0 -20 12 -33t32 -13t40 10v-86q-24 -9 -54 -9q-57 0 -91 32.5zM306.5 93.5q31.5 18.5 50 49t18.5 65.5q-53 29 -113 29q-55 0 -86 -24t-31 -61q0 -34 27.5 -55.5t65.5 -21.5q37 0 68.5 18.5z" />
    <glyph glyph-name="Cacute" unicode="&#x106;" horiz-adv-x="743" 
d="M227.5 33q-85.5 49 -134.5 134.5t-49 190.5t49 190.5t134.5 134.5t189.5 49q161 0 265 -117l-79 -77q-37 44 -82.5 65.5t-103.5 21.5q-72 0 -131.5 -33t-94 -93.5t-34.5 -140.5t34.5 -140.5t94 -93.5t131.5 -33q120 0 204 100l81 -78q-51 -61 -124.5 -95t-160.5 -34
q-104 0 -189.5 49zM410 904h125l-80 -132h-92z" />
    <glyph glyph-name="cacute" unicode="&#x107;" horiz-adv-x="547" 
d="M159 18q-59 34 -92 94.5t-33 135.5q0 76 33 136t92 94t133 34q82 0 139.5 -38.5t83.5 -101.5l-101 -42q-36 81 -126 81q-38 0 -71 -20.5t-53 -57.5t-20 -85t20 -85t53 -57.5t71 -20.5q46 0 80 21.5t52 61.5l99 -43q-29 -63 -87 -102t-140 -39q-74 0 -133 34zM292 726h125
l-80 -132h-92z" />
    <glyph glyph-name="Ccircumflex" unicode="&#x108;" horiz-adv-x="743" 
d="M227.5 33q-85.5 49 -134.5 134.5t-49 190.5t49 190.5t134.5 134.5t189.5 49q161 0 265 -117l-79 -77q-37 44 -82.5 65.5t-103.5 21.5q-72 0 -131.5 -33t-94 -93.5t-34.5 -140.5t34.5 -140.5t94 -93.5t131.5 -33q120 0 204 100l81 -78q-51 -61 -124.5 -95t-160.5 -34
q-104 0 -189.5 49zM253 785l108 121h96l108 -121v-7h-106l-45 60h-10l-45 -60h-106v7z" />
    <glyph glyph-name="ccircumflex" unicode="&#x109;" horiz-adv-x="547" 
d="M159 18q-59 34 -92 94.5t-33 135.5q0 76 33 136t92 94t133 34q82 0 139.5 -38.5t83.5 -101.5l-101 -42q-36 81 -126 81q-38 0 -71 -20.5t-53 -57.5t-20 -85t20 -85t53 -57.5t71 -20.5q46 0 80 21.5t52 61.5l99 -43q-29 -63 -87 -102t-140 -39q-74 0 -133 34zM135 601
l108 121h96l108 -121v-6h-106l-45 59h-10l-45 -59h-106v6z" />
    <glyph glyph-name="Cdotaccent" unicode="&#x10a;" horiz-adv-x="743" 
d="M227.5 33q-85.5 49 -134.5 134.5t-49 190.5t49 190.5t134.5 134.5t189.5 49q161 0 265 -117l-79 -77q-37 44 -82.5 65.5t-103.5 21.5q-72 0 -131.5 -33t-94 -93.5t-34.5 -140.5t34.5 -140.5t94 -93.5t131.5 -33q120 0 204 100l81 -78q-51 -61 -124.5 -95t-160.5 -34
q-104 0 -189.5 49zM366 813.5q-18 18.5 -18 42.5q0 25 18 43t43 18t42.5 -17.5t17.5 -43.5q0 -24 -17.5 -42.5t-42.5 -18.5t-43 18.5z" />
    <glyph glyph-name="cdotaccent" unicode="&#x10b;" horiz-adv-x="547" 
d="M159 18q-59 34 -92 94.5t-33 135.5q0 76 33 136t92 94t133 34q82 0 139.5 -38.5t83.5 -101.5l-101 -42q-36 81 -126 81q-38 0 -71 -20.5t-53 -57.5t-20 -85t20 -85t53 -57.5t71 -20.5q46 0 80 21.5t52 61.5l99 -43q-29 -63 -87 -102t-140 -39q-74 0 -133 34zM244.5 615.5
q-19.5 19.5 -19.5 45.5q0 28 19.5 47t46.5 19q28 0 46.5 -19t18.5 -47q0 -27 -19 -46t-46 -19t-46.5 19.5z" />
    <glyph glyph-name="Ccaron" unicode="&#x10c;" horiz-adv-x="743" 
d="M227.5 33q-85.5 49 -134.5 134.5t-49 190.5t49 190.5t134.5 134.5t189.5 49q161 0 265 -117l-79 -77q-37 44 -82.5 65.5t-103.5 21.5q-72 0 -131.5 -33t-94 -93.5t-34.5 -140.5t34.5 -140.5t94 -93.5t131.5 -33q120 0 204 100l81 -78q-51 -61 -124.5 -95t-160.5 -34
q-104 0 -189.5 49zM253 899v7h106l45 -59h10l45 59h106v-7l-108 -121h-96z" />
    <glyph glyph-name="ccaron" unicode="&#x10d;" horiz-adv-x="547" 
d="M159 18q-59 34 -92 94.5t-33 135.5q0 76 33 136t92 94t133 34q82 0 139.5 -38.5t83.5 -101.5l-101 -42q-36 81 -126 81q-38 0 -71 -20.5t-53 -57.5t-20 -85t20 -85t53 -57.5t71 -20.5q46 0 80 21.5t52 61.5l99 -43q-29 -63 -87 -102t-140 -39q-74 0 -133 34zM135 716v6
h106l45 -59h10l45 59h106v-6l-108 -121h-96z" />
    <glyph glyph-name="Dcaron" unicode="&#x10e;" horiz-adv-x="718" 
d="M79 716h230q111 0 193.5 -45t127 -126.5t44.5 -186.5t-44.5 -186.5t-127 -126.5t-193.5 -45h-230v716zM306 107q120 0 187.5 66.5t67.5 184.5q0 117 -67.5 184t-187.5 67h-115v-502h115zM176 899v7h106l45 -59h10l45 59h106v-7l-108 -121h-96z" />
    <glyph glyph-name="dcaron" unicode="&#x10f;" horiz-adv-x="701" 
d="M152.5 18q-54.5 34 -86.5 94.5t-32 135.5t32 135.5t86.5 94.5t118.5 34q54 0 96.5 -23t64.5 -57h5l-5 69v215h110v-716h-105v65h-5q-22 -35 -64 -58t-97 -23q-64 0 -118.5 34zM363.5 105q33.5 20 53.5 57t20 86t-20 86t-53.5 57t-72.5 20t-72.5 -20t-54 -57.5
t-20.5 -85.5t20.5 -85.5t54 -57.5t72.5 -20t72.5 20zM601 716h118l-39 -209h-79v209z" />
    <glyph glyph-name="Dcroat" unicode="&#x110;" horiz-adv-x="713" 
d="M75 327h-77v90h77v299h229q111 0 194 -45t127.5 -126.5t44.5 -186.5t-44.5 -186.5t-127.5 -126.5t-194 -45h-229v327zM302 107q120 0 187.5 66.5t67.5 184.5q0 117 -67.5 184t-187.5 67h-115v-192h182v-90h-182v-220h115z" />
    <glyph glyph-name="dcroat" unicode="&#x111;" horiz-adv-x="601" 
d="M603 570h-61v-570h-105v65h-5q-22 -35 -64 -58t-97 -23q-64 0 -118.5 34t-86.5 94.5t-32 135.5t32 135.5t86.5 94.5t118.5 34q54 0 96.5 -23t64.5 -57h5l-5 68v70h-141v81h141v65h110v-65h61v-81zM363.5 105q33.5 20 53.5 57t20 86t-20 86t-53.5 57t-72.5 20t-72.5 -20
t-54 -57.5t-20.5 -85.5t20.5 -85.5t54 -57.5t72.5 -20t72.5 20z" />
    <glyph glyph-name="Emacron" unicode="&#x112;" horiz-adv-x="570" 
d="M79 716h435v-107h-323v-198h291v-106h-291v-198h323v-107h-435v716zM152 886h287v-86h-287v86z" />
    <glyph glyph-name="emacron" unicode="&#x113;" horiz-adv-x="562" 
d="M158.5 18q-58.5 34 -91.5 94.5t-33 135.5q0 72 31.5 132.5t88.5 96t130 35.5q75 0 130.5 -33t84.5 -91.5t29 -134.5q0 -9 -1 -18t-1 -10h-382q5 -68 49 -105t100 -37q86 0 132 80l94 -45q-33 -61 -91.5 -97.5t-137.5 -36.5q-73 0 -131.5 34zM416 309q-2 24 -16 49
t-43.5 42.5t-73.5 17.5q-49 0 -84.5 -30t-48.5 -79h266zM141 708h287v-85h-287v85z" />
    <glyph glyph-name="Ebreve" unicode="&#x114;" horiz-adv-x="570" 
d="M79 716h435v-107h-323v-198h291v-106h-291v-198h323v-107h-435v716zM232 784q-31 17 -49.5 47t-18.5 66h83q0 -21 13.5 -36t36.5 -15q22 0 35.5 15t13.5 36h81q0 -37 -18 -66.5t-48 -46.5t-64 -17t-65 17z" />
    <glyph glyph-name="ebreve" unicode="&#x115;" horiz-adv-x="562" 
d="M158.5 18q-58.5 34 -91.5 94.5t-33 135.5q0 72 31.5 132.5t88.5 96t130 35.5q75 0 130.5 -33t84.5 -91.5t29 -134.5q0 -9 -1 -18t-1 -10h-382q5 -68 49 -105t100 -37q86 0 132 80l94 -45q-33 -61 -91.5 -97.5t-137.5 -36.5q-73 0 -131.5 34zM416 309q-2 24 -16 49
t-43.5 42.5t-73.5 17.5q-49 0 -84.5 -30t-48.5 -79h266zM221 606q-31 17 -49.5 47t-18.5 66h83q0 -21 13.5 -36t36.5 -15q22 0 35.5 15t13.5 36h81q0 -37 -18 -66.5t-48 -46.5t-64 -17t-65 17z" />
    <glyph glyph-name="Edotaccent" unicode="&#x116;" horiz-adv-x="570" 
d="M79 716h435v-107h-323v-198h291v-106h-291v-198h323v-107h-435v716zM253 813.5q-18 18.5 -18 42.5q0 25 18 43t43 18t42.5 -17.5t17.5 -43.5q0 -24 -17.5 -42.5t-42.5 -18.5t-43 18.5z" />
    <glyph glyph-name="edotaccent" unicode="&#x117;" horiz-adv-x="562" 
d="M158.5 18q-58.5 34 -91.5 94.5t-33 135.5q0 72 31.5 132.5t88.5 96t130 35.5q75 0 130.5 -33t84.5 -91.5t29 -134.5q0 -9 -1 -18t-1 -10h-382q5 -68 49 -105t100 -37q86 0 132 80l94 -45q-33 -61 -91.5 -97.5t-137.5 -36.5q-73 0 -131.5 34zM416 309q-2 24 -16 49
t-43.5 42.5t-73.5 17.5q-49 0 -84.5 -30t-48.5 -79h266zM238.5 615.5q-19.5 19.5 -19.5 45.5q0 28 19.5 47t46.5 19q28 0 46.5 -19t18.5 -47q0 -27 -19 -46t-46 -19t-46.5 19.5z" />
    <glyph glyph-name="Eogonek" unicode="&#x118;" horiz-adv-x="570" 
d="M382 -191.5q-34 32.5 -34 81.5q0 37 18.5 64.5t43.5 45.5h-331v716h435v-107h-323v-198h291v-106h-291v-198h323v-107q-34 -24 -52.5 -45.5t-18.5 -47.5q0 -20 12 -33t32 -13t40 10v-86q-24 -9 -54 -9q-57 0 -91 32.5z" />
    <glyph glyph-name="eogonek" unicode="&#x119;" horiz-adv-x="562" 
d="M273 -192q-34 32 -34 78q0 29 14.5 54.5t37.5 43.5h-5q-72 1 -129.5 35t-90 94t-32.5 135q0 72 31.5 132.5t88.5 96t130 35.5q75 0 130.5 -33t84.5 -91.5t29 -134.5q0 -9 -1 -18t-1 -10h-382q5 -68 49 -105t100 -37q86 0 132 80l94 -45q-30 -55 -85 -93
q-52 -36 -75.5 -63.5t-23.5 -54.5q0 -20 11.5 -33t31.5 -13t40 10v-86q-23 -9 -54 -9q-57 0 -91 32zM416 309q-2 24 -16 49t-43.5 42.5t-73.5 17.5q-49 0 -84.5 -30t-48.5 -79h266z" />
    <glyph glyph-name="Ecaron" unicode="&#x11a;" horiz-adv-x="570" 
d="M79 716h435v-107h-323v-198h291v-106h-291v-198h323v-107h-435v716zM140 899v7h106l45 -59h10l45 59h106v-7l-108 -121h-96z" />
    <glyph glyph-name="ecaron" unicode="&#x11b;" horiz-adv-x="562" 
d="M158.5 18q-58.5 34 -91.5 94.5t-33 135.5q0 72 31.5 132.5t88.5 96t130 35.5q75 0 130.5 -33t84.5 -91.5t29 -134.5q0 -9 -1 -18t-1 -10h-382q5 -68 49 -105t100 -37q86 0 132 80l94 -45q-33 -61 -91.5 -97.5t-137.5 -36.5q-73 0 -131.5 34zM416 309q-2 24 -16 49
t-43.5 42.5t-73.5 17.5q-49 0 -84.5 -30t-48.5 -79h266zM129 716v6h106l45 -59h10l45 59h106v-6l-108 -121h-96z" />
    <glyph glyph-name="Gcircumflex" unicode="&#x11c;" horiz-adv-x="817" 
d="M230 33q-86 49 -136 134.5t-50 190.5t50 190.5t136 134.5t188 49q81 0 151 -29t117 -81l-78 -78q-35 39 -83 60t-107 21q-70 0 -130 -33t-95.5 -94t-35.5 -140t36 -140t96 -94t130 -33q63 0 106 19t77 51q22 21 37.5 54.5t21.5 72.5h-244v100h349q6 -34 6 -58
q0 -68 -21.5 -130.5t-66.5 -108.5q-102 -107 -266 -107q-102 0 -188 49zM262 785l108 121h96l108 -121v-7h-106l-45 60h-10l-45 -60h-106v7z" />
    <glyph glyph-name="gcircumflex" unicode="&#x11d;" horiz-adv-x="601" 
d="M132.5 -188.5q-60.5 43.5 -81.5 101.5l104 43q15 -41 50 -65t81 -24q69 0 108.5 42t39.5 116v43h-6q-24 -35 -65.5 -56t-94.5 -21q-62 0 -115.5 33t-86 92.5t-32.5 134.5t32.5 134.5t86 93t115.5 33.5q53 0 94.5 -21t65.5 -56h6v61h105v-468q0 -82 -32.5 -141t-90 -89
t-130.5 -30q-93 0 -153.5 43.5zM361 110q33 19 53 55.5t20 85.5q0 50 -20 86.5t-53 55.5t-72 19t-72 -19.5t-53 -56t-20 -85.5t20 -85.5t53 -55.5t72 -19t72 19zM136 601l108 121h96l108 -121v-6h-106l-45 59h-10l-45 -59h-106v6z" />
    <glyph glyph-name="Gbreve" unicode="&#x11e;" horiz-adv-x="817" 
d="M230 33q-86 49 -136 134.5t-50 190.5t50 190.5t136 134.5t188 49q81 0 151 -29t117 -81l-78 -78q-35 39 -83 60t-107 21q-70 0 -130 -33t-95.5 -94t-35.5 -140t36 -140t96 -94t130 -33q63 0 106 19t77 51q22 21 37.5 54.5t21.5 72.5h-244v100h349q6 -34 6 -58
q0 -68 -21.5 -130.5t-66.5 -108.5q-102 -107 -266 -107q-102 0 -188 49zM354 784q-31 17 -49.5 47t-18.5 66h83q0 -21 13.5 -36t36.5 -15q22 0 35.5 15t13.5 36h81q0 -37 -18 -66.5t-48 -46.5t-64 -17t-65 17z" />
    <glyph glyph-name="gbreve" unicode="&#x11f;" horiz-adv-x="601" 
d="M132.5 -188.5q-60.5 43.5 -81.5 101.5l104 43q15 -41 50 -65t81 -24q69 0 108.5 42t39.5 116v43h-6q-24 -35 -65.5 -56t-94.5 -21q-62 0 -115.5 33t-86 92.5t-32.5 134.5t32.5 134.5t86 93t115.5 33.5q53 0 94.5 -21t65.5 -56h6v61h105v-468q0 -82 -32.5 -141t-90 -89
t-130.5 -30q-93 0 -153.5 43.5zM361 110q33 19 53 55.5t20 85.5q0 50 -20 86.5t-53 55.5t-72 19t-72 -19.5t-53 -56t-20 -85.5t20 -85.5t53 -55.5t72 -19t72 19zM228 606q-31 17 -49.5 47t-18.5 66h83q0 -21 13.5 -36t36.5 -15q22 0 35.5 15t13.5 36h81q0 -37 -18 -66.5
t-48 -46.5t-64 -17t-65 17z" />
    <glyph glyph-name="Gdotaccent" unicode="&#x120;" horiz-adv-x="817" 
d="M230 33q-86 49 -136 134.5t-50 190.5t50 190.5t136 134.5t188 49q81 0 151 -29t117 -81l-78 -78q-35 39 -83 60t-107 21q-70 0 -130 -33t-95.5 -94t-35.5 -140t36 -140t96 -94t130 -33q63 0 106 19t77 51q22 21 37.5 54.5t21.5 72.5h-244v100h349q6 -34 6 -58
q0 -68 -21.5 -130.5t-66.5 -108.5q-102 -107 -266 -107q-102 0 -188 49zM375 813.5q-18 18.5 -18 42.5q0 25 18 43t43 18t42.5 -17.5t17.5 -43.5q0 -24 -17.5 -42.5t-42.5 -18.5t-43 18.5z" />
    <glyph glyph-name="gdotaccent" unicode="&#x121;" horiz-adv-x="601" 
d="M132.5 -188.5q-60.5 43.5 -81.5 101.5l104 43q15 -41 50 -65t81 -24q69 0 108.5 42t39.5 116v43h-6q-24 -35 -65.5 -56t-94.5 -21q-62 0 -115.5 33t-86 92.5t-32.5 134.5t32.5 134.5t86 93t115.5 33.5q53 0 94.5 -21t65.5 -56h6v61h105v-468q0 -82 -32.5 -141t-90 -89
t-130.5 -30q-93 0 -153.5 43.5zM361 110q33 19 53 55.5t20 85.5q0 50 -20 86.5t-53 55.5t-72 19t-72 -19.5t-53 -56t-20 -85.5t20 -85.5t53 -55.5t72 -19t72 19zM245.5 615.5q-19.5 19.5 -19.5 45.5q0 28 19.5 47t46.5 19q28 0 46.5 -19t18.5 -47q0 -27 -19 -46t-46 -19
t-46.5 19.5z" />
    <glyph glyph-name="Gcommaaccent" unicode="&#x122;" horiz-adv-x="817" 
d="M230 33q-86 49 -136 134.5t-50 190.5t50 190.5t136 134.5t188 49q81 0 151 -29t117 -81l-78 -78q-35 39 -83 60t-107 21q-70 0 -130 -33t-95.5 -94t-35.5 -140t36 -140t96 -94t130 -33q63 0 106 19t77 51q22 21 37.5 54.5t21.5 72.5h-244v100h349q6 -34 6 -58
q0 -68 -21.5 -130.5t-66.5 -108.5q-102 -107 -266 -107q-102 0 -188 49zM346 -233l43 62q-20 5 -32 21.5t-12 37.5q0 25 18.5 44.5t45.5 19.5q29 0 47 -19t18 -47q0 -22 -13 -45l-70 -104z" />
    <glyph glyph-name="gcommaaccent" unicode="&#x123;" horiz-adv-x="601" 
d="M132.5 -188.5q-60.5 43.5 -81.5 101.5l104 43q15 -41 50 -65t81 -24q69 0 108.5 42t39.5 116v43h-6q-24 -35 -65.5 -56t-94.5 -21q-62 0 -115.5 33t-86 92.5t-32.5 134.5t32.5 134.5t86 93t115.5 33.5q53 0 94.5 -21t65.5 -56h6v61h105v-468q0 -82 -32.5 -141t-90 -89
t-130.5 -30q-93 0 -153.5 43.5zM361 110q33 19 53 55.5t20 85.5q0 50 -20 86.5t-53 55.5t-72 19t-72 -19.5t-53 -56t-20 -85.5t20 -85.5t53 -55.5t72 -19t72 19zM348 763l-43 -62q20 -5 32 -21.5t12 -37.5q0 -25 -18.5 -44.5t-45.5 -19.5q-29 0 -47 19t-18 47q0 22 13 45
l70 104z" />
    <glyph glyph-name="Hcircumflex" unicode="&#x124;" horiz-adv-x="714" 
d="M79 716h112v-297h332v297h112v-716h-112v313h-332v-313h-112v716zM201 785l108 121h96l108 -121v-7h-106l-45 60h-10l-45 -60h-106v7z" />
    <glyph glyph-name="hcircumflex" unicode="&#x125;" horiz-adv-x="572" 
d="M62 716h110v-208l-6 -78h6q21 36 63 59t91 23q94 0 141 -54.5t47 -148.5v-309h-110v294q0 59 -29 88t-77 29q-37 0 -65.5 -21t-44.5 -56t-16 -74v-260h-110v716zM139 779l108 121h96l108 -121v-6h-106l-45 59h-10l-45 -59h-106v6z" />
    <glyph glyph-name="Hbar" unicode="&#x126;" horiz-adv-x="714" 
d="M698 500h-63v-500h-112v313h-332v-313h-112v500h-63v84h63v132h112v-132h332v132h112v-132h63v-84zM523 500h-332v-81h332v81z" />
    <glyph glyph-name="hbar" unicode="&#x127;" horiz-adv-x="572" 
d="M467 457.5q47 -54.5 47 -148.5v-309h-110v294q0 59 -29 88t-77 29q-37 0 -65.5 -21t-44.5 -56t-16 -74v-260h-110v570h-61v81h61v65h110v-65h141v-81h-141v-62l-6 -78h6q21 36 63 59t91 23q94 0 141 -54.5z" />
    <glyph glyph-name="Itilde" unicode="&#x128;" horiz-adv-x="270" 
d="M79 716h112v-716h-112v716zM154.5 783q-19.5 8 -41.5 21q-4 2 -17 9q-12 6 -20 6q-27 0 -30 -32h-83q0 59 34 90.5t79 31.5q20 0 38 -7.5t46 -21.5q4 -2 15 -8q12 -7 19 -7q29 0 30 32h84q0 -59 -34.5 -90.5t-79.5 -31.5q-20 0 -39.5 8z" />
    <glyph glyph-name="itilde" unicode="&#x129;" horiz-adv-x="250" 
d="M70 496h110v-496h-110v496zM144.5 605q-19.5 8 -41.5 21q-4 2 -17 9q-12 6 -20 6q-27 0 -30 -32h-83q0 59 34 90.5t79 31.5q20 0 38 -7.5t46 -21.5q4 -2 15 -8q12 -7 19 -7q29 0 30 32h84q0 -59 -34.5 -90.5t-79.5 -31.5q-20 0 -39.5 8z" />
    <glyph glyph-name="Imacron" unicode="&#x12a;" horiz-adv-x="270" 
d="M5 886h260v-86h-260v86zM79 716h112v-716h-112v716z" />
    <glyph glyph-name="imacron" unicode="&#x12b;" horiz-adv-x="250" 
d="M70 496h110v-496h-110v496zM-19 708h287v-85h-287v85z" />
    <glyph glyph-name="Ibreve" unicode="&#x12c;" horiz-adv-x="270" 
d="M79 716h112v-716h-112v716zM71 784q-31 17 -49.5 47t-18.5 66h83q0 -21 13.5 -36t36.5 -15q22 0 35.5 15t13.5 36h81q0 -37 -18 -66.5t-48 -46.5t-64 -17t-65 17z" />
    <glyph glyph-name="ibreve" unicode="&#x12d;" horiz-adv-x="250" 
d="M70 496h110v-496h-110v496zM61 606q-31 17 -49.5 47t-18.5 66h83q0 -21 13.5 -36t36.5 -15q22 0 35.5 15t13.5 36h81q0 -37 -18 -66.5t-48 -46.5t-64 -17t-65 17z" />
    <glyph glyph-name="Iogonek" unicode="&#x12e;" horiz-adv-x="270" 
d="M59 -191.5q-34 32.5 -34 81.5q0 59 59 108l-1 2h-4v716h112v-716q-34 -25 -52.5 -46t-18.5 -47q0 -20 12 -33t32 -13t40 10v-86q-24 -9 -54 -9q-57 0 -91 32.5z" />
    <glyph glyph-name="iogonek" unicode="&#x12f;" horiz-adv-x="250" 
d="M72.5 601.5q-21.5 21.5 -21.5 52.5t21.5 52.5t52.5 21.5t52.5 -21.5t21.5 -52.5t-21.5 -52.5t-52.5 -21.5t-52.5 21.5zM48 -191.5q-34 32.5 -34 81.5q0 59 58 107l-2 3v496h110v-496q-34 -25 -52 -46t-18 -47q0 -20 11.5 -33t31.5 -13t40 10v-86q-23 -9 -54 -9
q-57 0 -91 32.5z" />
    <glyph glyph-name="Idotaccent" unicode="&#x130;" horiz-adv-x="270" 
d="M79 716h112v-716h-112v716zM92 813.5q-18 18.5 -18 42.5q0 25 18 43t43 18t42.5 -17.5t17.5 -43.5q0 -24 -17.5 -42.5t-42.5 -18.5t-43 18.5z" />
    <glyph glyph-name="dotlessi" unicode="&#x131;" horiz-adv-x="250" 
d="M70 496h110v-496h-110v496z" />
    <glyph glyph-name="Jcircumflex" unicode="&#x134;" horiz-adv-x="548" 
d="M112.5 28.5q-61.5 44.5 -86.5 124.5l104 43q31 -105 126 -105q51 0 82 35.5t31 93.5v496h112v-492q0 -76 -29 -130t-80 -82t-116 -28q-82 0 -143.5 44.5zM269 785l108 121h96l108 -121v-7h-106l-45 60h-10l-45 -60h-106v7z" />
    <glyph glyph-name="jcircumflex" unicode="&#x135;" horiz-adv-x="250" 
d="M-28 -219v106q22 -12 46 -12q28 0 40 17t12 51v553h110v-555q0 -85 -42 -126t-112 -41q-29 0 -54 7zM-31 601l108 121h96l108 -121v-6h-106l-45 59h-10l-45 -59h-106v6z" />
    <glyph glyph-name="Kcommaaccent" unicode="&#x136;" horiz-adv-x="654" 
d="M79 716h112v-340h6l290 340h140v-6l-263 -302l285 -402v-6h-137l-224 321l-97 -112v-209h-112v716zM266 -233l43 62q-20 5 -32 21.5t-12 37.5q0 25 18.5 44.5t45.5 19.5q29 0 47 -19t18 -47q0 -22 -13 -45l-70 -104z" />
    <glyph glyph-name="kcommaaccent" unicode="&#x137;" horiz-adv-x="521" 
d="M62 716h110v-417h3l196 197h138v-6l-190 -188l200 -296v-6h-131l-147 226l-69 -68v-158h-110v716zM208 -233l43 62q-20 5 -32 21.5t-12 37.5q0 25 18.5 44.5t45.5 19.5q29 0 47 -19t18 -47q0 -22 -13 -45l-70 -104z" />
    <glyph glyph-name="kgreenlandic" unicode="&#x138;" horiz-adv-x="508" 
d="M62 496h110v-218h6l183 218h134v-6l-200 -229l211 -255v-6h-133l-195 244h-6v-244h-110v496z" />
    <glyph glyph-name="Lacute" unicode="&#x139;" horiz-adv-x="527" 
d="M79 716h112v-609h307v-107h-419v716zM136 904h125l-80 -132h-92z" />
    <glyph glyph-name="lacute" unicode="&#x13a;" horiz-adv-x="234" 
d="M62 716h110v-716h-110v716zM118 904h125l-80 -132h-92z" />
    <glyph glyph-name="Lcommaaccent" unicode="&#x13b;" horiz-adv-x="527" 
d="M79 716h112v-609h307v-107h-419v716zM225 -233l43 62q-20 5 -32 21.5t-12 37.5q0 25 18.5 44.5t45.5 19.5q29 0 47 -19t18 -47q0 -22 -13 -45l-70 -104z" />
    <glyph glyph-name="lcommaaccent" unicode="&#x13c;" horiz-adv-x="234" 
d="M62 716h110v-716h-110v716zM54 -233l43 62q-20 5 -32 21.5t-12 37.5q0 25 18.5 44.5t45.5 19.5q29 0 47 -19t18 -47q0 -22 -13 -45l-70 -104z" />
    <glyph glyph-name="Lcaron" unicode="&#x13d;" horiz-adv-x="527" 
d="M79 716h112v-609h307v-107h-419v716zM333 716h118l-39 -209h-79v209z" />
    <glyph glyph-name="lcaron" unicode="&#x13e;" horiz-adv-x="355" 
d="M62 716h110v-716h-110v716zM255 716h118l-39 -209h-79v209z" />
    <glyph glyph-name="Ldot" unicode="&#x13f;" horiz-adv-x="527" 
d="M79 716h112v-609h307v-107h-419v716zM304.5 289.5q-22.5 22.5 -22.5 54.5t22.5 54.5t54.5 22.5t54 -22.5t22 -54.5t-22 -54.5t-54 -22.5t-54.5 22.5z" />
    <glyph glyph-name="Lslash" unicode="&#x141;" horiz-adv-x="605" 
d="M157 262l-59 -36l-50 80l109 68v342h112v-268l118 74l49 -79l-167 -104v-232h307v-107h-419v262z" />
    <glyph glyph-name="lslash" unicode="&#x142;" horiz-adv-x="400" 
d="M141 280l-50 -37l-56 74l106 78v321h110v-245l67 49l56 -75l-123 -89v-356h-110v280z" />
    <glyph glyph-name="Nacute" unicode="&#x143;" horiz-adv-x="722" 
d="M79 716h133l320 -521h6l-6 138v383h111v-716h-117l-336 548h-6l6 -138v-410h-111v716zM373 904h125l-80 -132h-92z" />
    <glyph glyph-name="nacute" unicode="&#x144;" horiz-adv-x="572" 
d="M62 496h104v-66h6q22 36 64 59t91 23q92 0 139.5 -54t47.5 -149v-309h-110v294q0 117 -109 117q-55 0 -89 -44t-34 -104v-263h-110v496zM298 726h125l-80 -132h-92z" />
    <glyph glyph-name="Ncommaaccent" unicode="&#x145;" horiz-adv-x="722" 
d="M79 716h133l320 -521h6l-6 138v383h111v-716h-117l-336 548h-6l6 -138v-410h-111v716zM298 -233l43 62q-20 5 -32 21.5t-12 37.5q0 25 18.5 44.5t45.5 19.5q29 0 47 -19t18 -47q0 -22 -13 -45l-70 -104z" />
    <glyph glyph-name="ncommaaccent" unicode="&#x146;" horiz-adv-x="572" 
d="M62 496h104v-66h6q22 36 64 59t91 23q92 0 139.5 -54t47.5 -149v-309h-110v294q0 117 -109 117q-55 0 -89 -44t-34 -104v-263h-110v496zM225 -233l43 62q-20 5 -32 21.5t-12 37.5q0 25 18.5 44.5t45.5 19.5q29 0 47 -19t18 -47q0 -22 -13 -45l-70 -104z" />
    <glyph glyph-name="Ncaron" unicode="&#x147;" horiz-adv-x="722" 
d="M79 716h133l320 -521h6l-6 138v383h111v-716h-117l-336 548h-6l6 -138v-410h-111v716zM216 899v7h106l45 -59h10l45 59h106v-7l-108 -121h-96z" />
    <glyph glyph-name="ncaron" unicode="&#x148;" horiz-adv-x="572" 
d="M62 496h104v-66h6q22 36 64 59t91 23q92 0 139.5 -54t47.5 -149v-309h-110v294q0 117 -109 117q-55 0 -89 -44t-34 -104v-263h-110v496zM141 716v6h106l45 -59h10l45 59h106v-6l-108 -121h-96z" />
    <glyph glyph-name="Eng" unicode="&#x14a;" horiz-adv-x="722" 
d="M435 -220v106q20 -11 45 -11q28 0 40 17t12 51v60l-342 545h-6l6 -138v-410h-111v716h133l320 -517h6l-6 138v379h111v-775q0 -85 -42 -126t-112 -41q-32 0 -54 6z" />
    <glyph glyph-name="eng" unicode="&#x14b;" horiz-adv-x="572" 
d="M305 -219v106q24 -12 46 -12q28 0 40.5 17t12.5 51v351q0 117 -109 117q-55 0 -89 -44t-34 -104v-263h-110v496h104v-66h6q22 36 64 59t91 23q92 0 139.5 -54t47.5 -149v-368q0 -85 -42 -126t-112 -41q-30 0 -55 7z" />
    <glyph glyph-name="Omacron" unicode="&#x14c;" horiz-adv-x="829" 
d="M225.5 33.5q-84.5 49.5 -133 135.5t-48.5 189t48.5 188.5t133 135.5t188.5 50t189 -50t133.5 -135.5t48.5 -188.5t-48.5 -189t-133.5 -135.5t-189 -49.5t-188.5 49.5zM544 125q59 34 93.5 94.5t34.5 138.5t-34.5 138.5t-93.5 94.5t-130 34t-129.5 -34t-93 -94.5
t-34.5 -138.5t34.5 -138.5t93 -94.5t129.5 -34t130 34zM270 886h287v-86h-287v86z" />
    <glyph glyph-name="omacron" unicode="&#x14d;" horiz-adv-x="586" 
d="M160 18.5q-59 34.5 -92.5 94.5t-33.5 135t33.5 135t92.5 94.5t133 34.5q75 0 134 -34.5t92 -94.5t33 -135t-33 -135t-92 -94.5t-134 -34.5q-74 0 -133 34.5zM367 105q34 20 55 57t21 86q0 50 -21 87t-55 56.5t-74 19.5q-39 0 -73.5 -19.5t-55 -56.5t-20.5 -87
q0 -49 21 -86t55 -57t73 -20q40 0 74 20zM149 708h287v-85h-287v85z" />
    <glyph glyph-name="Obreve" unicode="&#x14e;" horiz-adv-x="829" 
d="M225.5 33.5q-84.5 49.5 -133 135.5t-48.5 189t48.5 188.5t133 135.5t188.5 50t189 -50t133.5 -135.5t48.5 -188.5t-48.5 -189t-133.5 -135.5t-189 -49.5t-188.5 49.5zM544 125q59 34 93.5 94.5t34.5 138.5t-34.5 138.5t-93.5 94.5t-130 34t-129.5 -34t-93 -94.5
t-34.5 -138.5t34.5 -138.5t93 -94.5t129.5 -34t130 34zM350 784q-31 17 -49.5 47t-18.5 66h83q0 -21 13.5 -36t36.5 -15q22 0 35.5 15t13.5 36h81q0 -37 -18 -66.5t-48 -46.5t-64 -17t-65 17z" />
    <glyph glyph-name="obreve" unicode="&#x14f;" horiz-adv-x="586" 
d="M160 18.5q-59 34.5 -92.5 94.5t-33.5 135t33.5 135t92.5 94.5t133 34.5q75 0 134 -34.5t92 -94.5t33 -135t-33 -135t-92 -94.5t-134 -34.5q-74 0 -133 34.5zM367 105q34 20 55 57t21 86q0 50 -21 87t-55 56.5t-74 19.5q-39 0 -73.5 -19.5t-55 -56.5t-20.5 -87
q0 -49 21 -86t55 -57t73 -20q40 0 74 20zM229 606q-31 17 -49.5 47t-18.5 66h83q0 -21 13.5 -36t36.5 -15q22 0 35.5 15t13.5 36h81q0 -37 -18 -66.5t-48 -46.5t-64 -17t-65 17z" />
    <glyph glyph-name="Ohungarumlaut" unicode="&#x150;" horiz-adv-x="829" 
d="M225.5 33.5q-84.5 49.5 -133 135.5t-48.5 189t48.5 188.5t133 135.5t188.5 50t189 -50t133.5 -135.5t48.5 -188.5t-48.5 -189t-133.5 -135.5t-189 -49.5t-188.5 49.5zM544 125q59 34 93.5 94.5t34.5 138.5t-34.5 138.5t-93.5 94.5t-130 34t-129.5 -34t-93 -94.5
t-34.5 -138.5t34.5 -138.5t93 -94.5t129.5 -34t130 34zM325 904h125l-80 -132h-92zM506 904h125l-80 -132h-92z" />
    <glyph glyph-name="ohungarumlaut" unicode="&#x151;" horiz-adv-x="586" 
d="M160 18.5q-59 34.5 -92.5 94.5t-33.5 135t33.5 135t92.5 94.5t133 34.5q75 0 134 -34.5t92 -94.5t33 -135t-33 -135t-92 -94.5t-134 -34.5q-74 0 -133 34.5zM367 105q34 20 55 57t21 86q0 50 -21 87t-55 56.5t-74 19.5q-39 0 -73.5 -19.5t-55 -56.5t-20.5 -87
q0 -49 21 -86t55 -57t73 -20q40 0 74 20zM204 726h125l-80 -132h-92zM385 726h125l-80 -132h-92z" />
    <glyph glyph-name="OE" unicode="&#x152;" horiz-adv-x="1158" 
d="M223.5 33.5q-83.5 49.5 -131.5 135.5t-48 189t48 188.5t131.5 135.5t185.5 50q82 0 147.5 -29.5t107.5 -81.5h3v95h435v-107h-323v-198h291v-106h-291v-198h323v-107h-435v94h-3q-42 -52 -107.5 -81t-147.5 -29q-102 0 -185.5 49.5zM544 125q59 34 93.5 94.5t34.5 138.5
t-34.5 138.5t-93.5 94.5t-130 34t-129.5 -34t-93 -94.5t-34.5 -138.5t34.5 -138.5t93 -94.5t129.5 -34t130 34z" />
    <glyph glyph-name="oe" unicode="&#x153;" horiz-adv-x="973" 
d="M160 18.5q-59 34.5 -92.5 94.5t-33.5 135t33.5 135t92.5 94.5t133 34.5q66 0 118.5 -28.5t87.5 -81.5q32 51 83 80.5t113 29.5q75 0 130.5 -33t84.5 -91.5t29 -134.5q0 -9 -1 -18t-1 -10h-383q3 -46 25.5 -78t55.5 -48t69 -16q86 0 132 80l94 -45q-33 -61 -91.5 -97.5
t-137.5 -36.5q-66 0 -118 29.5t-85 79.5q-34 -52 -86.5 -80.5t-118.5 -28.5q-74 0 -133 34.5zM827 309q-2 24 -16 49t-43.5 42.5t-73.5 17.5q-49 0 -85 -30t-48 -79h266zM367 105q34 20 55 57t21 86q0 50 -21 87t-55 56.5t-74 19.5q-39 0 -73.5 -19.5t-55 -56.5t-20.5 -87
q0 -49 21 -86t55 -57t73 -20q40 0 74 20z" />
    <glyph glyph-name="Racute" unicode="&#x154;" horiz-adv-x="608" 
d="M79 716h252q64 0 117 -28t83.5 -78t30.5 -113q0 -72 -46.5 -128t-116.5 -75l-1 -5l197 -283v-6h-131l-189 280h-84v-280h-112v716zM328 384q51 0 86 32t35 82q0 28 -14 54t-40.5 42.5t-62.5 16.5h-141v-227h137zM293 904h125l-80 -132h-92z" />
    <glyph glyph-name="racute" unicode="&#x155;" horiz-adv-x="394" 
d="M62 496h104v-74h6q16 38 58 63.5t86 25.5q36 0 59 -10v-115q-34 17 -76 17q-54 0 -90.5 -41.5t-36.5 -101.5v-260h-110v496zM217 726h125l-80 -132h-92z" />
    <glyph glyph-name="Rcommaaccent" unicode="&#x156;" horiz-adv-x="608" 
d="M79 716h252q64 0 117 -28t83.5 -78t30.5 -113q0 -72 -46.5 -128t-116.5 -75l-1 -5l197 -283v-6h-131l-189 280h-84v-280h-112v716zM328 384q51 0 86 32t35 82q0 28 -14 54t-40.5 42.5t-62.5 16.5h-141v-227h137zM241 -233l43 62q-20 5 -32 21.5t-12 37.5q0 25 18.5 44.5
t45.5 19.5q29 0 47 -19t18 -47q0 -22 -13 -45l-70 -104z" />
    <glyph glyph-name="rcommaaccent" unicode="&#x157;" horiz-adv-x="394" 
d="M62 496h104v-74h6q16 38 58 63.5t86 25.5q36 0 59 -10v-115q-34 17 -76 17q-54 0 -90.5 -41.5t-36.5 -101.5v-260h-110v496zM54 -233l43 62q-20 5 -32 21.5t-12 37.5q0 25 18.5 44.5t45.5 19.5q29 0 47 -19t18 -47q0 -22 -13 -45l-70 -104z" />
    <glyph glyph-name="Rcaron" unicode="&#x158;" horiz-adv-x="608" 
d="M79 716h252q64 0 117 -28t83.5 -78t30.5 -113q0 -72 -46.5 -128t-116.5 -75l-1 -5l197 -283v-6h-131l-189 280h-84v-280h-112v716zM328 384q51 0 86 32t35 82q0 28 -14 54t-40.5 42.5t-62.5 16.5h-141v-227h137zM136 899v7h106l45 -59h10l45 59h106v-7l-108 -121h-96z
" />
    <glyph glyph-name="rcaron" unicode="&#x159;" horiz-adv-x="394" 
d="M62 496h104v-74h6q16 38 58 63.5t86 25.5q36 0 59 -10v-115q-34 17 -76 17q-54 0 -90.5 -41.5t-36.5 -101.5v-260h-110v496zM60 716v6h106l45 -59h10l45 59h106v-6l-108 -121h-96z" />
    <glyph glyph-name="Sacute" unicode="&#x15a;" horiz-adv-x="573" 
d="M127 36q-71 52 -98 146l106 43q16 -59 56.5 -96.5t97.5 -37.5q53 0 90 27.5t37 75.5q0 44 -32.5 72.5t-113.5 57.5l-45 16q-72 25 -121 72t-49 124q0 53 29 98t80.5 71.5t116.5 26.5q94 0 150 -45.5t75 -102.5l-101 -43q-11 34 -42 60t-80 26t-82.5 -25t-33.5 -64
q0 -37 30 -61t94 -46l45 -15q92 -32 142.5 -83.5t50.5 -137.5q0 -70 -36 -117.5t-91.5 -70.5t-114.5 -23q-89 0 -160 52zM283 904h125l-80 -132h-92z" />
    <glyph glyph-name="sacute" unicode="&#x15b;" horiz-adv-x="478" 
d="M104.5 23.5q-55.5 39.5 -78.5 99.5l98 42q17 -41 49.5 -62t71.5 -21q41 0 67 15.5t26 40.5q0 24 -21 39.5t-69 27.5l-68 16q-56 13 -96.5 48.5t-40.5 92.5q0 69 57 109.5t140 40.5q69 0 122.5 -29t77.5 -84l-97 -41q-14 31 -43 46t-63 15q-33 0 -58 -14.5t-25 -38.5
q0 -21 17.5 -34t55.5 -22l74 -18q75 -19 112 -57.5t37 -92.5q0 -44 -26.5 -80t-73 -57t-105.5 -21q-85 0 -140.5 39.5zM241 726h125l-80 -132h-92z" />
    <glyph glyph-name="Scircumflex" unicode="&#x15c;" horiz-adv-x="573" 
d="M127 36q-71 52 -98 146l106 43q16 -59 56.5 -96.5t97.5 -37.5q53 0 90 27.5t37 75.5q0 44 -32.5 72.5t-113.5 57.5l-45 16q-72 25 -121 72t-49 124q0 53 29 98t80.5 71.5t116.5 26.5q94 0 150 -45.5t75 -102.5l-101 -43q-11 34 -42 60t-80 26t-82.5 -25t-33.5 -64
q0 -37 30 -61t94 -46l45 -15q92 -32 142.5 -83.5t50.5 -137.5q0 -70 -36 -117.5t-91.5 -70.5t-114.5 -23q-89 0 -160 52zM126 785l108 121h96l108 -121v-7h-106l-45 60h-10l-45 -60h-106v7z" />
    <glyph glyph-name="scircumflex" unicode="&#x15d;" horiz-adv-x="478" 
d="M104.5 23.5q-55.5 39.5 -78.5 99.5l98 42q17 -41 49.5 -62t71.5 -21q41 0 67 15.5t26 40.5q0 24 -21 39.5t-69 27.5l-68 16q-56 13 -96.5 48.5t-40.5 92.5q0 69 57 109.5t140 40.5q69 0 122.5 -29t77.5 -84l-97 -41q-14 31 -43 46t-63 15q-33 0 -58 -14.5t-25 -38.5
q0 -21 17.5 -34t55.5 -22l74 -18q75 -19 112 -57.5t37 -92.5q0 -44 -26.5 -80t-73 -57t-105.5 -21q-85 0 -140.5 39.5zM84 601l108 121h96l108 -121v-6h-106l-45 59h-10l-45 -59h-106v6z" />
    <glyph glyph-name="Scedilla" unicode="&#x15e;" horiz-adv-x="573" 
d="M496.5 82.5q-32.5 -46.5 -83.5 -70.5t-108 -27l-14 -33q12 2 19 2q38 0 65 -26.5t27 -68.5q0 -40 -29.5 -68t-74.5 -28q-33 0 -59 18.5t-37 47.5l58 25q4 -13 14 -22t24 -9q17 0 27.5 10.5t10.5 25.5q0 16 -10.5 27.5t-27.5 11.5t-30 -15l-53 24l30 80q-76 12 -134.5 62
t-81.5 133l106 43q16 -59 56.5 -96.5t97.5 -37.5q53 0 90 27.5t37 75.5q0 44 -32.5 72.5t-113.5 57.5l-45 16q-72 25 -121 72t-49 124q0 53 29 98t80.5 71.5t116.5 26.5q94 0 150 -45.5t75 -102.5l-101 -43q-11 34 -42 60t-80 26t-82.5 -25t-33.5 -64q0 -37 30 -61t94 -46
l45 -15q92 -32 142.5 -83.5t50.5 -137.5q0 -66 -32.5 -112.5z" />
    <glyph glyph-name="scedilla" unicode="&#x15f;" horiz-adv-x="478" 
d="M427 66.5q-23 -34.5 -64.5 -56t-94.5 -25.5l-14 -33q12 2 19 2q38 0 65 -26.5t27 -68.5q0 -40 -29.5 -68t-74.5 -28q-33 0 -59 18.5t-37 47.5l58 25q4 -13 14 -22t24 -9q17 0 27.5 10.5t10.5 25.5q0 16 -10.5 27.5t-27.5 11.5t-30 -15l-53 24l30 79q-70 8 -115.5 46
t-66.5 91l98 42q17 -41 49.5 -62t71.5 -21q41 0 67 15.5t26 40.5q0 24 -21 39.5t-69 27.5l-68 16q-56 13 -96.5 48.5t-40.5 92.5q0 69 57 109.5t140 40.5q69 0 122.5 -29t77.5 -84l-97 -41q-14 31 -43 46t-63 15q-33 0 -58 -14.5t-25 -38.5q0 -21 17.5 -34t55.5 -22l74 -18
q75 -19 112 -57.5t37 -92.5q0 -41 -23 -75.5z" />
    <glyph glyph-name="Scaron" unicode="&#x160;" horiz-adv-x="573" 
d="M127 36q-71 52 -98 146l106 43q16 -59 56.5 -96.5t97.5 -37.5q53 0 90 27.5t37 75.5q0 44 -32.5 72.5t-113.5 57.5l-45 16q-72 25 -121 72t-49 124q0 53 29 98t80.5 71.5t116.5 26.5q94 0 150 -45.5t75 -102.5l-101 -43q-11 34 -42 60t-80 26t-82.5 -25t-33.5 -64
q0 -37 30 -61t94 -46l45 -15q92 -32 142.5 -83.5t50.5 -137.5q0 -70 -36 -117.5t-91.5 -70.5t-114.5 -23q-89 0 -160 52zM126 899v7h106l45 -59h10l45 59h106v-7l-108 -121h-96z" />
    <glyph glyph-name="scaron" unicode="&#x161;" horiz-adv-x="478" 
d="M104.5 23.5q-55.5 39.5 -78.5 99.5l98 42q17 -41 49.5 -62t71.5 -21q41 0 67 15.5t26 40.5q0 24 -21 39.5t-69 27.5l-68 16q-56 13 -96.5 48.5t-40.5 92.5q0 69 57 109.5t140 40.5q69 0 122.5 -29t77.5 -84l-97 -41q-14 31 -43 46t-63 15q-33 0 -58 -14.5t-25 -38.5
q0 -21 17.5 -34t55.5 -22l74 -18q75 -19 112 -57.5t37 -92.5q0 -44 -26.5 -80t-73 -57t-105.5 -21q-85 0 -140.5 39.5zM84 716v6h106l45 -59h10l45 59h106v-6l-108 -121h-96z" />
    <glyph glyph-name="uni0162" unicode="&#x162;" horiz-adv-x="564" 
d="M236 -218.5q-26 18.5 -37 47.5l58 25q4 -13 14.5 -22t24.5 -9q16 0 26.5 10.5t10.5 25.5q0 16 -10.5 27.5t-26.5 11.5q-18 0 -31 -15l-53 24l35 93h-21v609h-200v107h512v-107h-200v-609h-29l-21 -48q12 2 19 2q38 0 65 -26.5t27 -68.5q0 -40 -29.5 -68t-73.5 -28
q-34 0 -60 18.5z" />
    <glyph glyph-name="uni0163" unicode="&#x163;" horiz-adv-x="384" 
d="M251 -7l-20 -41q12 2 19 2q39 0 65.5 -26.5t26.5 -68.5q0 -40 -29 -68t-74 -28q-33 0 -59 18.5t-37 47.5l57 25q5 -14 15 -23t24 -9q17 0 27 11t10 26q0 16 -10 27.5t-27 11.5q-18 0 -30 -15l-54 24l41 99q-21 10 -39 26q-43 42 -43 117v250h-87v97h87v148h110v-148h121
v-97h-121v-226q0 -41 16 -58q15 -20 49 -20q29 0 57 17v-107q-35 -13 -80 -13q-10 0 -15 1z" />
    <glyph glyph-name="Tcaron" unicode="&#x164;" horiz-adv-x="564" 
d="M226 609h-200v107h512v-107h-200v-609h-112v609zM126 899v7h106l45 -59h10l45 59h106v-7l-108 -121h-96z" />
    <glyph glyph-name="tcaron" unicode="&#x165;" horiz-adv-x="382" 
d="M280 716h104l-28 -160h-76v160zM204.5 2.5q-28.5 10.5 -47.5 29.5q-43 42 -43 117v250h-87v97h87v148h110v-148h121v-97h-121v-226q0 -41 16 -58q15 -20 49 -20q29 0 57 17v-107q-35 -13 -80 -13q-33 0 -61.5 10.5z" />
    <glyph glyph-name="Tbar" unicode="&#x166;" horiz-adv-x="564" 
d="M338 609v-191h127v-88h-127v-330h-112v330h-127v88h127v191h-200v107h512v-107h-200z" />
    <glyph glyph-name="tbar" unicode="&#x167;" horiz-adv-x="384" 
d="M346 112v-107q-35 -13 -80 -13q-33 0 -61.5 10.5t-47.5 29.5q-43 42 -43 117v72h-87v91h87v87h-87v97h87v148h110v-148h121v-97h-121v-87h115v-91h-115v-48q0 -41 16 -58q15 -20 49 -20q29 0 57 17z" />
    <glyph glyph-name="Utilde" unicode="&#x168;" horiz-adv-x="672" 
d="M194.5 20q-61.5 36 -95.5 102t-34 153v441h112v-447q0 -80 41 -129t118 -49t118.5 49.5t41.5 128.5v447h111v-441q0 -86 -33 -152t-94 -102.5t-144 -36.5q-80 0 -141.5 36zM355.5 783q-19.5 8 -41.5 21q-4 2 -17 9q-12 6 -20 6q-27 0 -30 -32h-83q0 59 34 90.5t79 31.5
q20 0 38 -7.5t46 -21.5q4 -2 15 -8q12 -7 19 -7q29 0 30 32h84q0 -59 -34.5 -90.5t-79.5 -31.5q-20 0 -39.5 8z" />
    <glyph glyph-name="utilde" unicode="&#x169;" horiz-adv-x="572" 
d="M105.5 38.5q-47.5 54.5 -47.5 150.5v307h110v-292q0 -119 107 -119q56 0 90.5 43.5t34.5 104.5v263h110v-496h-105v66h-5q-22 -36 -64.5 -59t-90.5 -23q-92 0 -139.5 54.5zM303.5 605q-19.5 8 -41.5 21q-4 2 -17 9q-12 6 -20 6q-27 0 -30 -32h-83q0 59 34 90.5t79 31.5
q20 0 38 -7.5t46 -21.5q4 -2 15 -8q12 -7 19 -7q29 0 30 32h84q0 -59 -34.5 -90.5t-79.5 -31.5q-20 0 -39.5 8z" />
    <glyph glyph-name="Umacron" unicode="&#x16a;" horiz-adv-x="672" 
d="M194.5 20q-61.5 36 -95.5 102t-34 153v441h112v-447q0 -80 41 -129t118 -49t118.5 49.5t41.5 128.5v447h111v-441q0 -86 -33 -152t-94 -102.5t-144 -36.5q-80 0 -141.5 36zM192 886h287v-86h-287v86z" />
    <glyph glyph-name="umacron" unicode="&#x16b;" horiz-adv-x="572" 
d="M105.5 38.5q-47.5 54.5 -47.5 150.5v307h110v-292q0 -119 107 -119q56 0 90.5 43.5t34.5 104.5v263h110v-496h-105v66h-5q-22 -36 -64.5 -59t-90.5 -23q-92 0 -139.5 54.5zM140 708h287v-85h-287v85z" />
    <glyph glyph-name="Ubreve" unicode="&#x16c;" horiz-adv-x="672" 
d="M194.5 20q-61.5 36 -95.5 102t-34 153v441h112v-447q0 -80 41 -129t118 -49t118.5 49.5t41.5 128.5v447h111v-441q0 -86 -33 -152t-94 -102.5t-144 -36.5q-80 0 -141.5 36zM272 784q-31 17 -49.5 47t-18.5 66h83q0 -21 13.5 -36t36.5 -15q22 0 35.5 15t13.5 36h81
q0 -37 -18 -66.5t-48 -46.5t-64 -17t-65 17z" />
    <glyph glyph-name="ubreve" unicode="&#x16d;" horiz-adv-x="572" 
d="M105.5 38.5q-47.5 54.5 -47.5 150.5v307h110v-292q0 -119 107 -119q56 0 90.5 43.5t34.5 104.5v263h110v-496h-105v66h-5q-22 -36 -64.5 -59t-90.5 -23q-92 0 -139.5 54.5zM220 606q-31 17 -49.5 47t-18.5 66h83q0 -21 13.5 -36t36.5 -15q22 0 35.5 15t13.5 36h81
q0 -37 -18 -66.5t-48 -46.5t-64 -17t-65 17z" />
    <glyph glyph-name="Uring" unicode="&#x16e;" horiz-adv-x="672" 
d="M194.5 20q-61.5 36 -95.5 102t-34 153v441h112v-447q0 -80 41 -129t118 -49t118.5 49.5t41.5 128.5v447h111v-441q0 -86 -33 -152t-94 -102.5t-144 -36.5q-80 0 -141.5 36zM261 781q-31 31 -31 75t31 75t75 31t75 -31t31 -75q0 -43 -31.5 -74.5t-74.5 -31.5q-44 0 -75 31
zM364 828q12 12 12 28t-12 28t-28 12q-17 0 -28.5 -11.5t-11.5 -28.5q0 -16 11.5 -28t28.5 -12q16 0 28 12z" />
    <glyph glyph-name="uring" unicode="&#x16f;" horiz-adv-x="572" 
d="M105.5 38.5q-47.5 54.5 -47.5 150.5v307h110v-292q0 -119 107 -119q56 0 90.5 43.5t34.5 104.5v263h110v-496h-105v66h-5q-22 -36 -64.5 -59t-90.5 -23q-92 0 -139.5 54.5zM209 603q-31 31 -31 75t31 75t75 31t75 -31t31 -75q0 -43 -31.5 -74.5t-74.5 -31.5q-44 0 -75 31
zM312 650q12 12 12 28t-12 28t-28 12q-17 0 -28.5 -11.5t-11.5 -28.5q0 -16 12 -28t28 -12t28 12z" />
    <glyph glyph-name="Uhungarumlaut" unicode="&#x170;" horiz-adv-x="672" 
d="M194.5 20q-61.5 36 -95.5 102t-34 153v441h112v-447q0 -80 41 -129t118 -49t118.5 49.5t41.5 128.5v447h111v-441q0 -86 -33 -152t-94 -102.5t-144 -36.5q-80 0 -141.5 36zM247 904h125l-80 -132h-92zM428 904h125l-80 -132h-92z" />
    <glyph glyph-name="uhungarumlaut" unicode="&#x171;" horiz-adv-x="572" 
d="M105.5 38.5q-47.5 54.5 -47.5 150.5v307h110v-292q0 -119 107 -119q56 0 90.5 43.5t34.5 104.5v263h110v-496h-105v66h-5q-22 -36 -64.5 -59t-90.5 -23q-92 0 -139.5 54.5zM195 726h125l-80 -132h-92zM376 726h125l-80 -132h-92z" />
    <glyph glyph-name="Uogonek" unicode="&#x172;" horiz-adv-x="672" 
d="M323 -191.5q-34 32.5 -34 81.5q0 53 50 95h-13q-78 2 -137 38.5t-91.5 101t-32.5 150.5v441h112v-447q0 -80 41 -129t118 -49t118.5 49.5t41.5 128.5v447h111v-441q0 -81 -29.5 -144.5t-83.5 -100.5q-49 -34 -79 -63t-30 -60q0 -20 11.5 -33t31.5 -13t40 10v-86
q-23 -9 -54 -9q-57 0 -91 32.5z" />
    <glyph glyph-name="uogonek" unicode="&#x173;" horiz-adv-x="572" 
d="M377 -191.5q-34 32.5 -34 81.5q0 34 17.5 61t46.5 46l-2 3v66h-5q-22 -36 -64.5 -59t-90.5 -23q-92 0 -139.5 54.5t-47.5 150.5v307h110v-292q0 -119 107 -119q56 0 90.5 43.5t34.5 104.5v263h110v-496q-34 -24 -52.5 -45.5t-18.5 -47.5q0 -20 12 -33t32 -13q19 0 39 10
v-86q-23 -9 -54 -9q-57 0 -91 32.5z" />
    <glyph glyph-name="Wcircumflex" unicode="&#x174;" horiz-adv-x="964" 
d="M17 716h124l112 -461l12 -62h6l15 62l143 461h112l137 -461l15 -61h6l13 61l111 461h124l-188 -716h-119l-136 472l-16 64h-5l-17 -64l-142 -472h-116zM329 785l108 121h96l108 -121v-7h-106l-45 60h-10l-45 -60h-106v7z" />
    <glyph glyph-name="wcircumflex" unicode="&#x175;" horiz-adv-x="789" 
d="M6 496h120l98 -348h4l111 348h114l111 -348h4l97 348h118l-160 -496h-115l-113 352h-3l-112 -352h-115zM239 601l108 121h96l108 -121v-6h-106l-45 59h-10l-45 -59h-106v6z" />
    <glyph glyph-name="Ycircumflex" unicode="&#x176;" horiz-adv-x="618" 
d="M255 333l-241 383h133l161 -266h6l156 266h134l-237 -383v-333h-112v333zM153 785l108 121h96l108 -121v-7h-106l-45 60h-10l-45 -60h-106v7z" />
    <glyph glyph-name="ycircumflex" unicode="&#x177;" horiz-adv-x="535" 
d="M214 28l-207 468h123l138 -333h5l133 333h122l-310 -712h-116zM112 601l108 121h96l108 -121v-6h-106l-45 59h-10l-45 -59h-106v6z" />
    <glyph glyph-name="Ydieresis" unicode="&#x178;" horiz-adv-x="618" 
d="M255 333l-241 383h133l161 -266h6l156 266h134l-237 -383v-333h-112v333zM175 798q-19 19 -19 45q0 27 19 45.5t45 18.5q27 0 45.5 -18.5t18.5 -45.5q0 -26 -18.5 -45t-45.5 -19q-26 0 -45 19zM354 798q-19 19 -19 45q0 27 18.5 45.5t44.5 18.5q28 0 46 -18.5t18 -45.5
q0 -26 -18.5 -45t-45.5 -19q-25 0 -44 19z" />
    <glyph glyph-name="Zacute" unicode="&#x179;" horiz-adv-x="589" 
d="M37 115l373 494h-357v107h487v-115l-371 -494h375v-107h-507v115zM297 904h125l-80 -132h-92z" />
    <glyph glyph-name="zacute" unicode="&#x17a;" horiz-adv-x="483" 
d="M36 92l271 308h-263v96h398v-92l-271 -308h276v-96h-411v92zM244 726h125l-80 -132h-92z" />
    <glyph glyph-name="Zdotaccent" unicode="&#x17b;" horiz-adv-x="589" 
d="M37 115l373 494h-357v107h487v-115l-371 -494h375v-107h-507v115zM253 813.5q-18 18.5 -18 42.5q0 25 18 43t43 18t42.5 -17.5t17.5 -43.5q0 -24 -17.5 -42.5t-42.5 -18.5t-43 18.5z" />
    <glyph glyph-name="zdotaccent" unicode="&#x17c;" horiz-adv-x="483" 
d="M36 92l271 308h-263v96h398v-92l-271 -308h276v-96h-411v92zM196.5 615.5q-19.5 19.5 -19.5 45.5q0 28 19.5 47t46.5 19q28 0 46.5 -19t18.5 -47q0 -27 -19 -46t-46 -19t-46.5 19.5z" />
    <glyph glyph-name="Zcaron" unicode="&#x17d;" horiz-adv-x="589" 
d="M37 115l373 494h-357v107h487v-115l-371 -494h375v-107h-507v115zM140 899v7h106l45 -59h10l45 59h106v-7l-108 -121h-96z" />
    <glyph glyph-name="zcaron" unicode="&#x17e;" horiz-adv-x="483" 
d="M36 92l271 308h-263v96h398v-92l-271 -308h276v-96h-411v92zM87 716v6h106l45 -59h10l45 59h106v-6l-108 -121h-96z" />
    <glyph glyph-name="florin" unicode="&#x192;" horiz-adv-x="595" 
d="M446 601q-22 -17 -28 -49l-28 -139h120v-98h-139l-77 -388q-13 -65 -57.5 -106t-112.5 -41q-38 0 -70 11v106q33 -15 63 -15q28 0 47.5 18t26.5 51l72 364h-99v98h118l29 148q14 74 64 116.5t124 42.5q22 0 34.5 -2t26.5 -7v-108q-27 15 -61 15q-31 0 -53 -17z" />
    <glyph glyph-name="Aringacute" unicode="&#x1fa;" horiz-adv-x="694" 
d="M680 0h-123l-65 183h-289l-65 -183h-124l253 672q-17 16 -26.5 38t-9.5 46q0 39 23 69.5t59 41.5l32 75h103l-46 -83q28 -15 44.5 -42.5t16.5 -60.5q0 -48 -36 -84zM319 728q12 -12 28 -12q17 0 28.5 12t11.5 28q0 17 -11.5 28.5t-28.5 11.5q-16 0 -28 -11.5t-12 -28.5
q0 -16 12 -28zM454 287l-76 213l-28 83h-6l-28 -83l-76 -213h214z" />
    <glyph glyph-name="aringacute" unicode="&#x1fb;" horiz-adv-x="536" 
d="M283 879h35l-33 -36h-9zM188 603q-31 31 -31 75t31 75t75 31t75 -31t31 -75q0 -43 -31 -74.5t-75 -31.5t-75 31zM291 650q12 12 12 28t-12 28t-28 12t-28 -11.5t-12 -28.5q0 -16 12 -28t28 -12t28 12zM124.5 5.5q-42.5 21.5 -67 60t-24.5 87.5q0 78 58.5 123t148.5 45
q79 0 135 -27v21q0 45 -35.5 74.5t-85.5 29.5q-76 0 -122 -62l-84 58q35 47 87.5 72t118.5 25q109 0 168.5 -54.5t59.5 -153.5v-304h-107v61h-6q-24 -34 -61 -55.5t-88 -21.5q-53 0 -95.5 21.5zM306.5 93.5q31.5 18.5 50 49t18.5 65.5q-53 29 -113 29q-55 0 -86 -24t-31 -61
q0 -34 27.5 -55.5t65.5 -21.5q37 0 68.5 18.5z" />
    <glyph glyph-name="AEacute" unicode="&#x1fc;" horiz-adv-x="987" 
d="M431 716h500v-107h-323v-198h291v-106h-291v-198h323v-107h-435v184h-251l-107 -184h-132zM496 290v319h-7l-31 -59l-152 -260h190zM681 904h125l-80 -132h-92z" />
    <glyph glyph-name="aeacute" unicode="&#x1fd;" horiz-adv-x="903" 
d="M126.5 5.5q-43.5 21.5 -68.5 60t-25 87.5q0 78 58.5 123t148.5 45q79 0 137 -28v19q0 47 -34.5 77t-84.5 30q-77 0 -109 -63l-90 42q26 54 77 84t121 30q63 0 110.5 -23.5t75.5 -67.5q32 43 79 67t104 24q75 0 130 -33t84 -91.5t29 -134.5q0 -24 -2 -28h-383
q6 -68 50 -105t100 -37q87 0 133 80l93 -45q-33 -61 -91.5 -97.5t-137.5 -36.5q-65 0 -117 29t-85 80q-74 -109 -204 -109q-55 0 -98.5 21.5zM758 309q-2 24 -16.5 49t-43.5 42t-73 17q-50 0 -86 -29.5t-48 -78.5h267zM307 93.5q32 18.5 51 49t19 65.5q-31 13 -55 21t-60 8
q-55 0 -86 -24t-31 -61q0 -34 27.5 -55.5t65.5 -21.5q37 0 69 18.5zM444 726h125l-80 -132h-92z" />
    <glyph glyph-name="Oslashacute" unicode="&#x1fe;" horiz-adv-x="829" 
d="M749 521q36 -76 36 -163q0 -103 -48.5 -189t-133.5 -135.5t-189 -49.5q-85 0 -159 34l-37 -60l-76 49l37 59q-64 52 -99.5 128t-35.5 164q0 103 48.5 188.5t133 135.5t188.5 50q86 0 159 -34l38 60l76 -49l-37 -59q63 -53 99 -129zM178 247q21 -51 59 -87l279 445
q-49 20 -102 20q-71 0 -129.5 -34t-93 -94.5t-34.5 -138.5q0 -60 21 -111zM544 125q59 34 93.5 94.5t34.5 138.5q0 60 -21 111t-59 87l-279 -445q48 -20 101 -20q71 0 130 34zM415 904h125l-80 -132h-92z" />
    <glyph glyph-name="oslashacute" unicode="&#x1ff;" horiz-adv-x="586" 
d="M530 359.5q22 -51.5 22 -111.5q0 -75 -33 -135t-92 -94.5t-134 -34.5q-53 0 -102 19l-25 -40l-73 41l27 43q-41 36 -63.5 88t-22.5 113q0 75 33.5 135t92.5 94.5t133 34.5q56 0 104 -20l26 42l73 -42l-28 -45q40 -36 62 -87.5zM175 136l169 271q-24 9 -51 9
q-41 0 -76 -20.5t-56.5 -58.5t-21.5 -89q0 -65 36 -112zM369 100.5q35 20.5 56.5 58.5t21.5 89q0 65 -35 110l-168 -270q26 -8 49 -8q41 0 76 20.5zM294 726h125l-80 -132h-92z" />
    <glyph glyph-name="Scommaaccent" unicode="&#x218;" horiz-adv-x="573" 
d="M127 36q-71 52 -98 146l106 43q16 -59 56.5 -96.5t97.5 -37.5q53 0 90 27.5t37 75.5q0 44 -32.5 72.5t-113.5 57.5l-45 16q-72 25 -121 72t-49 124q0 53 29 98t80.5 71.5t116.5 26.5q94 0 150 -45.5t75 -102.5l-101 -43q-11 34 -42 60t-80 26t-82.5 -25t-33.5 -64
q0 -37 30 -61t94 -46l45 -15q92 -32 142.5 -83.5t50.5 -137.5q0 -70 -36 -117.5t-91.5 -70.5t-114.5 -23q-89 0 -160 52zM224 -233l43 62q-20 5 -32 21.5t-12 37.5q0 25 18.5 44.5t45.5 19.5q29 0 47 -19t18 -47q0 -22 -13 -45l-70 -104z" />
    <glyph glyph-name="scommaaccent" unicode="&#x219;" horiz-adv-x="478" 
d="M104.5 23.5q-55.5 39.5 -78.5 99.5l98 42q17 -41 49.5 -62t71.5 -21q41 0 67 15.5t26 40.5q0 24 -21 39.5t-69 27.5l-68 16q-56 13 -96.5 48.5t-40.5 92.5q0 69 57 109.5t140 40.5q69 0 122.5 -29t77.5 -84l-97 -41q-14 31 -43 46t-63 15q-33 0 -58 -14.5t-25 -38.5
q0 -21 17.5 -34t55.5 -22l74 -18q75 -19 112 -57.5t37 -92.5q0 -44 -26.5 -80t-73 -57t-105.5 -21q-85 0 -140.5 39.5zM181 -233l43 62q-20 5 -32 21.5t-12 37.5q0 25 18.5 44.5t45.5 19.5q29 0 47 -19t18 -47q0 -22 -13 -45l-70 -104z" />
    <glyph glyph-name="uni021A" unicode="&#x21a;" horiz-adv-x="564" 
d="M226 609h-200v107h512v-107h-200v-609h-112v609zM219 -233l43 62q-20 5 -32 21.5t-12 37.5q0 25 18.5 44.5t45.5 19.5q29 0 47 -19t18 -47q0 -22 -13 -45l-70 -104z" />
    <glyph glyph-name="uni021B" unicode="&#x21b;" horiz-adv-x="384" 
d="M204.5 2.5q-28.5 10.5 -47.5 29.5q-43 42 -43 117v250h-87v97h87v148h110v-148h121v-97h-121v-226q0 -41 16 -58q15 -20 49 -20q29 0 57 17v-107q-35 -13 -80 -13q-33 0 -61.5 10.5zM181 -233l43 62q-20 5 -32 21.5t-12 37.5q0 25 18.5 44.5t45.5 19.5q29 0 47 -19
t18 -47q0 -22 -13 -45l-70 -104z" />
    <glyph glyph-name="uni0237" unicode="&#x237;" horiz-adv-x="250" 
d="M-28 -219v106q22 -12 46 -12q28 0 40 17t12 51v553h110v-555q0 -85 -42 -126t-112 -41q-29 0 -54 7z" />
    <glyph glyph-name="uni0259" unicode="&#x259;" horiz-adv-x="562" 
d="M403.5 478q58.5 -34 91.5 -94.5t33 -135.5q0 -72 -31.5 -132.5t-88.5 -96t-130 -35.5q-75 0 -130.5 33t-84.5 91.5t-29 134.5q0 9 1 18t1 10h382q-5 68 -49 105t-100 37q-86 0 -132 -80l-94 45q33 61 91.5 97.5t137.5 36.5q73 0 131.5 -34zM146 187q2 -24 16 -49
t43.5 -42.5t73.5 -17.5q49 0 84.5 30t48.5 79h-266z" />
    <glyph glyph-name="circumflex" unicode="&#x2c6;" horiz-adv-x="426" 
d="M57 595l108 121h96l108 -121v-7h-106l-45 60h-10l-45 -60h-106v7z" />
    <glyph glyph-name="caron" unicode="&#x2c7;" horiz-adv-x="426" 
d="M57 709v7h106l45 -59h10l45 59h106v-7l-108 -121h-96z" />
    <glyph glyph-name="breve" unicode="&#x2d8;" horiz-adv-x="407" 
d="M140 600q-31 17 -49.5 47t-18.5 66h83q0 -21 13.5 -36t36.5 -15q22 0 35.5 15t13.5 36h81q0 -37 -18 -66.5t-48 -46.5t-64 -17t-65 17z" />
    <glyph glyph-name="dotaccent" unicode="&#x2d9;" horiz-adv-x="249" 
d="M78.5 609.5q-19.5 19.5 -19.5 45.5q0 28 19.5 47t46.5 19q28 0 46.5 -19t18.5 -47q0 -27 -19 -46t-46 -19t-46.5 19.5z" />
    <glyph glyph-name="ring" unicode="&#x2da;" horiz-adv-x="404" 
d="M127 597q-31 31 -31 75t31 75t75 31t75 -31t31 -75q0 -43 -31 -74.5t-75 -31.5t-75 31zM230 644q12 12 12 28t-12 28t-28 12t-28 -11.5t-12 -28.5q0 -16 12 -28t28 -12t28 12z" />
    <glyph glyph-name="ogonek" unicode="&#x2db;" horiz-adv-x="412" 
d="M122 -191.5q-34 32.5 -34 81.5q0 61 62 110h104q-34 -25 -52 -46t-18 -47q0 -20 11.5 -33t31.5 -13t40 10v-86q-23 -9 -54 -9q-57 0 -91 32.5z" />
    <glyph glyph-name="tilde" unicode="&#x2dc;" horiz-adv-x="409" 
d="M223.5 599q-19.5 8 -41.5 21q-4 2 -16 9q-13 6 -21 6q-27 0 -30 -32h-83q0 59 34 90.5t79 31.5q20 0 38 -7.5t46 -21.5l16 -8q11 -7 18 -7q29 0 30 32h84q0 -59 -34.5 -90.5t-79.5 -31.5q-20 0 -39.5 8z" />
    <glyph glyph-name="hungarumlaut" unicode="&#x2dd;" horiz-adv-x="435" 
d="M119 720h125l-80 -132h-92zM300 720h125l-80 -132h-92z" />
    <glyph glyph-name="gravecomb" unicode="&#x300;" horiz-adv-x="0" 
d="M-324 726h124l48 -132h-92z" />
    <glyph glyph-name="acutecomb" unicode="&#x301;" horiz-adv-x="0" 
d="M-221 726h125l-80 -132h-92z" />
    <glyph glyph-name="uni0302" unicode="&#x302;" horiz-adv-x="0" 
d="M-369 601l108 121h96l108 -121v-6h-106l-45 59h-10l-45 -59h-106v6z" />
    <glyph glyph-name="tildecomb" unicode="&#x303;" horiz-adv-x="0" 
d="M-185.5 605q-19.5 8 -41.5 21q-4 2 -17 9q-12 6 -20 6q-27 0 -30 -32h-83q0 59 34 90.5t79 31.5q20 0 38 -7.5t46 -21.5q4 -2 15 -8q12 -7 19 -7q29 0 30 32h84q0 -59 -34.5 -90.5t-79.5 -31.5q-20 0 -39.5 8z" />
    <glyph glyph-name="uni0304" unicode="&#x304;" horiz-adv-x="0" 
d="M-347 708h287v-85h-287v85z" />
    <glyph glyph-name="uni0306" unicode="&#x306;" horiz-adv-x="0" 
d="M-267 606q-31 17 -49.5 47t-18.5 66h83q0 -21 13.5 -36t36.5 -15q22 0 35.5 15t13.5 36h81q0 -37 -18 -66.5t-48 -46.5t-64 -17t-65 17z" />
    <glyph glyph-name="uni0307" unicode="&#x307;" horiz-adv-x="0" 
d="M-170.5 615.5q-19.5 19.5 -19.5 45.5q0 28 19.5 47t46.5 19q28 0 46.5 -19t18.5 -47q0 -27 -19 -46t-46 -19t-46.5 19.5z" />
    <glyph glyph-name="uni0308" unicode="&#x308;" horiz-adv-x="0" 
d="M-346 620q-19 19 -19 45q0 27 18.5 45.5t45.5 18.5t45.5 -18t18.5 -46q0 -26 -18.5 -45t-45.5 -19q-26 0 -45 19zM-167 620q-19 19 -19 45q0 27 18.5 45.5t44.5 18.5q28 0 46 -18t18 -46q0 -26 -18.5 -45t-45.5 -19q-25 0 -44 19z" />
    <glyph glyph-name="uni030A" unicode="&#x30a;" horiz-adv-x="0" 
d="M-277 603q-31 31 -31 75t31 75t75 31t75 -31t31 -75q0 -43 -31.5 -74.5t-74.5 -31.5q-44 0 -75 31zM-174 650q12 12 12 28t-12 28t-28 12q-17 0 -28.5 -11.5t-11.5 -28.5q0 -16 12 -28t28 -12t28 12z" />
    <glyph glyph-name="uni030B" unicode="&#x30b;" horiz-adv-x="0" 
d="M-316 726h125l-80 -132h-92zM-135 726h125l-80 -132h-92z" />
    <glyph glyph-name="uni030C" unicode="&#x30c;" horiz-adv-x="0" 
d="M-369 716v6h106l45 -59h10l45 59h106v-6l-108 -121h-96z" />
    <glyph glyph-name="uni0312" unicode="&#x312;" horiz-adv-x="0" 
d="M-143 763l-43 -62q20 -5 32 -21.5t12 -37.5q0 -25 -18.5 -44.5t-45.5 -19.5q-29 0 -47 19t-18 47q0 22 13 45l70 104z" />
    <glyph glyph-name="uni0326" unicode="&#x326;" horiz-adv-x="0" 
d="M-273 -233l43 62q-20 5 -32 21.5t-12 37.5q0 25 18.5 44.5t45.5 19.5q29 0 47 -19t18 -47q0 -22 -13 -45l-70 -104z" />
    <glyph glyph-name="uni0327" unicode="&#x327;" horiz-adv-x="0" 
d="M-297 -218.5q-26 18.5 -37 47.5l58 25q4 -13 14 -22t24 -9q17 0 27.5 10.5t10.5 25.5q0 16 -10.5 27.5t-27.5 11.5t-30 -15l-53 24l35 93h62l-21 -48q12 2 19 2q38 0 65 -26.5t27 -68.5q0 -40 -29.5 -68t-74.5 -28q-33 0 -59 18.5z" />
    <glyph glyph-name="uni0328" unicode="&#x328;" horiz-adv-x="0" 
d="M-290 -191.5q-34 32.5 -34 81.5q0 61 62 110h104q-34 -25 -52 -46t-18 -47q0 -20 11.5 -33t31.5 -13t40 10v-86q-23 -9 -54 -9q-57 0 -91 32.5z" />
    <glyph glyph-name="uni0374" unicode="&#x374;" horiz-adv-x="294" 
d="M119 716h135l-127 -215h-87z" />
    <glyph glyph-name="uni0375" unicode="&#x375;" horiz-adv-x="294" 
d="M162 122h92l-79 -215h-135z" />
    <glyph glyph-name="uni037E" unicode="&#x37e;" horiz-adv-x="262" 
d="M77 374.5q-22 22.5 -22 54.5t22.5 54t53.5 22q32 0 54.5 -22t22.5 -54t-22.5 -54.5t-54.5 -22.5t-54 22.5zM50 -73l56 87q-21 6 -36 25t-15 45q0 32 22.5 54t54.5 22t54 -22t22 -54q0 -18 -7 -34.5t-21 -36.5l-80 -119z" />
    <glyph glyph-name="tonos" unicode="&#x384;" horiz-adv-x="420" 
d="M175 722h125l-79 -132h-92z" />
    <glyph glyph-name="dieresistonos" unicode="&#x385;" horiz-adv-x="430" 
d="M180 738h69v-144h-69v144zM49.5 624.5q-17.5 17.5 -17.5 40.5q0 25 17.5 42t41.5 17q25 0 41.5 -17t16.5 -42q0 -24 -17 -41t-41 -17t-41.5 17.5zM298.5 624.5q-17.5 17.5 -17.5 40.5q0 25 17.5 42t40.5 17q25 0 42 -17t17 -42q0 -23 -17 -40.5t-42 -17.5
q-23 0 -40.5 17.5z" />
    <glyph glyph-name="Alphatonos" unicode="&#x386;" horiz-adv-x="694" 
d="M94 720h125l-80 -132h-92zM283 716h128l269 -716h-123l-65 183h-289l-65 -183h-124zM454 287l-76 213l-28 83h-6l-28 -83l-76 -213h214z" />
    <glyph glyph-name="anoteleia" unicode="&#x387;" horiz-adv-x="205" 
d="M48.5 269.5q-22.5 22.5 -22.5 54.5t22.5 54.5t54.5 22.5t54 -22.5t22 -54.5t-22 -54.5t-54 -22.5t-54.5 22.5z" />
    <glyph glyph-name="Epsilontonos" unicode="&#x388;" horiz-adv-x="626" 
d="M-28 720h125l-80 -132h-92zM135 716h435v-107h-323v-198h291v-106h-291v-198h323v-107h-435v716z" />
    <glyph glyph-name="Etatonos" unicode="&#x389;" horiz-adv-x="770" 
d="M-28 720h125l-80 -132h-92zM135 716h112v-297h332v297h112v-716h-112v313h-332v-313h-112v716z" />
    <glyph glyph-name="Iotatonos" unicode="&#x38a;" horiz-adv-x="326" 
d="M-28 720h125l-80 -132h-92zM135 716h112v-716h-112v716z" />
    <glyph glyph-name="Omicrontonos" unicode="&#x38c;" horiz-adv-x="797" 
d="M-28 720h125l-80 -132h-92zM193.5 33.5q-84.5 49.5 -133 135.5t-48.5 189t48.5 188.5t133 135.5t188.5 50t189 -50t133.5 -135.5t48.5 -188.5t-48.5 -189t-133.5 -135.5t-189 -49.5t-188.5 49.5zM512 125q59 34 93.5 94.5t34.5 138.5t-34.5 138.5t-93.5 94.5t-130 34
t-129.5 -34t-93 -94.5t-34.5 -138.5t34.5 -138.5t93 -94.5t129.5 -34t130 34z" />
    <glyph glyph-name="Upsilontonos" unicode="&#x38e;" horiz-adv-x="715" 
d="M-28 720h125l-80 -132h-92zM352 333l-241 383h133l161 -266h6l156 266h134l-237 -383v-333h-112v333z" />
    <glyph glyph-name="Omegatonos" unicode="&#x38f;" horiz-adv-x="776" 
d="M-28 720h125l-80 -132h-92zM32 102h146v6q-73 40 -116.5 113t-43.5 168q0 92 46 170.5t127 125.5t181 47t181.5 -46.5t127.5 -125.5t46 -171q0 -95 -43.5 -168t-116.5 -113v-6h146v-102h-288v145q82 21 135.5 85.5t53.5 154.5q0 68 -32.5 122.5t-88 86t-121.5 31.5
q-65 0 -120.5 -31.5t-88 -86t-32.5 -122.5q0 -89 53 -154t135 -86v-145h-287v102z" />
    <glyph glyph-name="iotadieresistonos" unicode="&#x390;" horiz-adv-x="250" 
d="M70 496h110v-496h-110v496zM90 738h69v-144h-69v144zM-40.5 624.5q-17.5 17.5 -17.5 40.5q0 25 17.5 42t41.5 17q25 0 41.5 -17t16.5 -42q0 -24 -17 -41t-41 -17t-41.5 17.5zM208.5 624.5q-17.5 17.5 -17.5 40.5q0 25 17.5 42t40.5 17q25 0 42 -17t17 -42
q0 -23 -17 -40.5t-42 -17.5q-23 0 -40.5 17.5z" />
    <glyph glyph-name="Alpha" unicode="&#x391;" horiz-adv-x="694" 
d="M283 716h128l269 -716h-123l-65 183h-289l-65 -183h-124zM454 287l-76 213l-28 83h-6l-28 -83l-76 -213h214z" />
    <glyph glyph-name="Beta" unicode="&#x392;" horiz-adv-x="623" 
d="M79 716h269q57 0 106 -25t78 -69t29 -97t-27 -92t-70 -59v-6q55 -19 88 -63t33 -103t-30.5 -105t-82 -71.5t-112.5 -25.5h-281v716zM343 416q48 0 77.5 30t29.5 69t-28.5 68.5t-74.5 29.5h-156v-197h152zM360 104q51 0 81.5 31.5t30.5 74.5t-31.5 74.5t-84.5 31.5h-165
v-212h169z" />
    <glyph glyph-name="Gamma" unicode="&#x393;" horiz-adv-x="524" 
d="M79 716h419v-107h-307v-609h-112v716z" />
    <glyph glyph-name="uni0394" unicode="&#x394;" horiz-adv-x="686" 
d="M279 716h128l265 -716h-658zM512 105l-166 473h-6l-166 -473h338z" />
    <glyph glyph-name="Epsilon" unicode="&#x395;" horiz-adv-x="570" 
d="M79 716h435v-107h-323v-198h291v-106h-291v-198h323v-107h-435v716z" />
    <glyph glyph-name="Zeta" unicode="&#x396;" horiz-adv-x="589" 
d="M37 115l373 494h-357v107h487v-115l-371 -494h375v-107h-507v115z" />
    <glyph glyph-name="Eta" unicode="&#x397;" horiz-adv-x="714" 
d="M79 716h112v-297h332v297h112v-716h-112v313h-332v-313h-112v716z" />
    <glyph glyph-name="Theta" unicode="&#x398;" horiz-adv-x="843" 
d="M225.5 33.5q-84.5 49.5 -133 135.5t-48.5 189t48.5 188.5t133 135.5t188.5 50t189 -50t133.5 -135.5t48.5 -188.5t-48.5 -189t-133.5 -135.5t-189 -49.5t-188.5 49.5zM544 125q59 34 93.5 94.5t34.5 138.5t-34.5 138.5t-93.5 94.5t-130 34t-129.5 -34t-93 -94.5
t-34.5 -138.5t34.5 -138.5t93 -94.5t129.5 -34t130 34zM261 409h316v-102h-316v102z" />
    <glyph glyph-name="Iota" unicode="&#x399;" horiz-adv-x="270" 
d="M79 716h112v-716h-112v716z" />
    <glyph glyph-name="Kappa" unicode="&#x39a;" horiz-adv-x="643" 
d="M79 716h112v-347h6l283 347h141v-6l-299 -358l316 -346v-6h-148l-293 328h-6v-328h-112v716z" />
    <glyph glyph-name="Lambda" unicode="&#x39b;" horiz-adv-x="678" 
d="M275 716h128l261 -716h-124l-173 504l-25 79h-6l-25 -79l-173 -504h-124z" />
    <glyph glyph-name="Mu" unicode="&#x39c;" horiz-adv-x="880" 
d="M79 716h153l205 -543h6l206 543h152v-716h-111v401l6 129h-6l-205 -530h-90l-205 530h-6l6 -129v-401h-111v716z" />
    <glyph glyph-name="Nu" unicode="&#x39d;" horiz-adv-x="722" 
d="M79 716h133l320 -521h6l-6 138v383h111v-716h-117l-336 548h-6l6 -138v-410h-111v716z" />
    <glyph glyph-name="Xi" unicode="&#x39e;" horiz-adv-x="523" 
d="M32 716h459v-107h-459v107zM64 411h395v-106h-395v106zM32 107h459v-107h-459v107z" />
    <glyph glyph-name="Omicron" unicode="&#x39f;" horiz-adv-x="829" 
d="M225.5 33.5q-84.5 49.5 -133 135.5t-48.5 189t48.5 188.5t133 135.5t188.5 50t189 -50t133.5 -135.5t48.5 -188.5t-48.5 -189t-133.5 -135.5t-189 -49.5t-188.5 49.5zM544 125q59 34 93.5 94.5t34.5 138.5t-34.5 138.5t-93.5 94.5t-130 34t-129.5 -34t-93 -94.5
t-34.5 -138.5t34.5 -138.5t93 -94.5t129.5 -34t130 34z" />
    <glyph glyph-name="Pi" unicode="&#x3a0;" horiz-adv-x="691" 
d="M79 716h533v-716h-112v609h-309v-609h-112v716z" />
    <glyph glyph-name="Rho" unicode="&#x3a1;" horiz-adv-x="590" 
d="M79 716h248q63 0 116.5 -28t85 -78t31.5 -113t-31.5 -113t-85 -78t-116.5 -28h-136v-278h-112v716zM330 384q36 0 63 16.5t41 42.5t14 54t-14 54t-41 42t-63 16h-139v-225h139z" />
    <glyph glyph-name="Sigma" unicode="&#x3a3;" horiz-adv-x="523" 
d="M47 113l203 253l-203 237v113h445v-105h-316l207 -245l-207 -261h316v-105h-445v113z" />
    <glyph glyph-name="Tau" unicode="&#x3a4;" horiz-adv-x="564" 
d="M226 609h-200v107h512v-107h-200v-609h-112v609z" />
    <glyph glyph-name="Upsilon" unicode="&#x3a5;" horiz-adv-x="618" 
d="M255 333l-241 383h133l161 -266h6l156 266h134l-237 -383v-333h-112v333z" />
    <glyph glyph-name="Phi" unicode="&#x3a6;" horiz-adv-x="811" 
d="M729.5 216.5q-37.5 -64.5 -107 -106t-161.5 -51.5v-74h-112v74q-92 10 -161 51.5t-106.5 106t-37.5 141.5q0 78 37.5 142.5t106.5 105.5t161 51v74h112v-74q92 -10 161.5 -51t107 -105.5t37.5 -142.5q0 -77 -37.5 -141.5zM602.5 228q51.5 52 51.5 130t-51.5 130
t-141.5 65v-390q90 13 141.5 65zM208 228q51 -52 141 -65v390q-90 -13 -141 -65t-51 -130t51 -130z" />
    <glyph glyph-name="Chi" unicode="&#x3a7;" horiz-adv-x="662" 
d="M256 372l-222 344h137l157 -255h6l158 255h136l-221 -344l237 -372h-136l-174 277h-6l-174 -277h-136z" />
    <glyph glyph-name="Psi" unicode="&#x3a8;" horiz-adv-x="767" 
d="M327 156q-72 0 -132 36t-96 102.5t-36 153.5v268h112v-274q0 -79 39.5 -129t112.5 -50v453h112v-453q74 0 113.5 50t39.5 129v274h112v-268q0 -87 -36 -153.5t-96.5 -102.5t-132.5 -36v-156h-112v156z" />
    <glyph glyph-name="uni03A9" unicode="&#x3a9;" horiz-adv-x="807" 
d="M63 102h146v6q-73 40 -116.5 113t-43.5 168q0 92 46 170.5t127 125.5t181 47t181.5 -46.5t127.5 -125.5t46 -171q0 -95 -43.5 -168t-116.5 -113v-6h146v-102h-288v145q82 21 135.5 85.5t53.5 154.5q0 68 -32.5 122.5t-88 86t-121.5 31.5q-65 0 -120.5 -31.5t-88 -86
t-32.5 -122.5q0 -89 53 -154t135 -86v-145h-287v102z" />
    <glyph glyph-name="Iotadieresis" unicode="&#x3aa;" horiz-adv-x="270" 
d="M11.5 815q-17.5 18 -17.5 41q0 25 17.5 42t41.5 17q25 0 42 -17t17 -42q0 -24 -17.5 -41.5t-41.5 -17.5t-41.5 18zM176 815q-18 18 -18 41q0 24 17.5 41.5t41.5 17.5q25 0 42 -17t17 -42q0 -24 -17 -41.5t-42 -17.5q-23 0 -41 18zM79 716h112v-716h-112v716z" />
    <glyph glyph-name="Upsilondieresis" unicode="&#x3ab;" horiz-adv-x="618" 
d="M255 333l-241 383h133l161 -266h6l156 266h134l-237 -383v-333h-112v333zM177 798q-19 19 -19 45q0 27 19 45.5t45 18.5q27 0 45.5 -18.5t18.5 -45.5q0 -26 -18.5 -45t-45.5 -19q-26 0 -45 19zM356 798q-19 19 -19 45q0 27 18.5 45.5t44.5 18.5q28 0 46 -18.5t18 -45.5
q0 -26 -18.5 -45t-45.5 -19q-25 0 -44 19z" />
    <glyph glyph-name="alphatonos" unicode="&#x3ac;" horiz-adv-x="601" 
d="M152.5 18q-54.5 34 -86.5 94.5t-32 135.5t32 135.5t86.5 94.5t118.5 34q54 0 96.5 -23t64.5 -57h5v64h105v-496h-105v65h-5q-22 -35 -64 -58t-97 -23q-64 0 -118.5 34zM363.5 105q33.5 20 53.5 57t20 86t-20 86t-53.5 57t-72.5 20t-72.5 -20t-54 -57.5t-20.5 -85.5
t20.5 -85.5t54 -57.5t72.5 -20t72.5 20zM286 722h125l-79 -132h-92z" />
    <glyph glyph-name="epsilontonos" unicode="&#x3ad;" horiz-adv-x="504" 
d="M100 25.5q-58 41.5 -58 112.5q0 38 22.5 68.5t60.5 47.5v6q-64 29 -64 106q0 41 25.5 74.5t69.5 52.5t97 19q58 0 103 -18.5t86 -59.5l-69 -67q-27 28 -55 40t-65 12q-39 0 -63.5 -18t-24.5 -44q0 -29 21.5 -46t53.5 -17h79v-83h-82q-41 0 -63.5 -19t-22.5 -47
q0 -29 28.5 -47t75.5 -18q39 0 70.5 15.5t62.5 47.5l71 -70q-39 -43 -91 -66t-113 -23q-97 0 -155 41.5zM254 722h125l-79 -132h-92z" />
    <glyph glyph-name="etatonos" unicode="&#x3ae;" horiz-adv-x="572" 
d="M404 291q0 61 -29 90.5t-80 29.5q-55 0 -89 -44t-34 -104v-263h-110v496h104v-66h6q22 36 64 59t91 23q90 0 138.5 -56t48.5 -151v-521h-110v507zM297 722h125l-79 -132h-92z" />
    <glyph glyph-name="iotatonos" unicode="&#x3af;" horiz-adv-x="250" 
d="M70 496h110v-496h-110v496zM125 722h125l-79 -132h-92z" />
    <glyph glyph-name="upsilondieresistonos" unicode="&#x3b0;" horiz-adv-x="567" 
d="M169.5 13.5q-51.5 29.5 -81.5 81t-30 116.5v285h110v-262q0 -71 34.5 -110t87.5 -39q35 0 65.5 18.5t49 53.5t18.5 83q0 112 -85 256h121q34 -59 54 -125t20 -133q0 -84 -35 -141.5t-91.5 -85t-123.5 -27.5q-62 0 -113.5 29.5zM240 738h69v-144h-69v144zM109.5 624.5
q-17.5 17.5 -17.5 40.5q0 25 17.5 42t41.5 17q25 0 41.5 -17t16.5 -42q0 -24 -17 -41t-41 -17t-41.5 17.5zM358.5 624.5q-17.5 17.5 -17.5 40.5q0 25 17.5 42t40.5 17q25 0 42 -17t17 -42q0 -23 -17 -40.5t-42 -17.5q-23 0 -40.5 17.5z" />
    <glyph glyph-name="alpha" unicode="&#x3b1;" horiz-adv-x="601" 
d="M152.5 18q-54.5 34 -86.5 94.5t-32 135.5t32 135.5t86.5 94.5t118.5 34q54 0 96.5 -23t64.5 -57h5v64h105v-496h-105v65h-5q-22 -35 -64 -58t-97 -23q-64 0 -118.5 34zM363.5 105q33.5 20 53.5 57t20 86t-20 86t-53.5 57t-72.5 20t-72.5 -20t-54 -57.5t-20.5 -85.5
t20.5 -85.5t54 -57.5t72.5 -20t72.5 20z" />
    <glyph glyph-name="beta" unicode="&#x3b2;" horiz-adv-x="585" 
d="M78 512q0 63 26.5 113t76.5 78.5t118 28.5q61 0 110 -24.5t77 -68.5t28 -100q0 -102 -84 -149v-6q53 -22 85 -67t32 -111q0 -64 -30 -114.5t-81 -79t-112 -28.5q-85 0 -135 64h-5l5 -72v-192h-111v728zM398.5 122.5q36.5 36.5 36.5 88.5q0 33 -18 61t-48.5 44.5
t-65.5 16.5h-35v99h25q52 0 82 28t30 74q0 42 -30.5 68.5t-75.5 26.5q-51 0 -80.5 -32.5t-29.5 -84.5v-296q0 -60 31.5 -95t89.5 -35q52 0 88.5 36.5z" />
    <glyph glyph-name="gamma" unicode="&#x3b3;" horiz-adv-x="563" 
d="M226 7l-219 489h123l149 -359h5l151 359h121l-220 -489v-223h-110v223z" />
    <glyph glyph-name="delta" unicode="&#x3b4;" horiz-adv-x="586" 
d="M160 18.5q-59 34.5 -92.5 94.5t-33.5 135q0 66 26.5 120t73.5 89t106 46l-163 128v85h418v-96h-250l204 -159q50 -39 76.5 -93t26.5 -120q0 -75 -33 -135t-92 -94.5t-134 -34.5q-74 0 -133 34.5zM367 105q34 20 55 57t21 86q0 50 -21 87t-55 56.5t-74 19.5
q-39 0 -73.5 -19.5t-55 -56.5t-20.5 -87q0 -49 21 -86t55 -57t73 -20q40 0 74 20z" />
    <glyph glyph-name="epsilon" unicode="&#x3b5;" horiz-adv-x="504" 
d="M100 25.5q-58 41.5 -58 112.5q0 38 22.5 68.5t60.5 47.5v6q-64 29 -64 106q0 41 25.5 74.5t69.5 52.5t97 19q58 0 103 -18.5t86 -59.5l-69 -67q-27 28 -55 40t-65 12q-39 0 -63.5 -18t-24.5 -44q0 -29 21.5 -46t53.5 -17h79v-83h-82q-41 0 -63.5 -19t-22.5 -47
q0 -29 28.5 -47t75.5 -18q39 0 70.5 15.5t62.5 47.5l71 -70q-39 -43 -91 -66t-113 -23q-97 0 -155 41.5z" />
    <glyph glyph-name="zeta" unicode="&#x3b6;" horiz-adv-x="498" 
d="M320 -75q21 0 32.5 10.5t11.5 27.5q0 16 -11.5 26.5t-32.5 10.5h-125q-79 0 -122 39.5t-43 102.5q0 36 17.5 68t49.5 56l190 134h-241v96h399v-93q-41 -30 -134 -97t-142 -102q-29 -20 -29 -52q0 -25 18.5 -40.5t48.5 -15.5h114q68 0 107.5 -35t39.5 -94q0 -63 -41.5 -99
t-106.5 -36v93z" />
    <glyph glyph-name="eta" unicode="&#x3b7;" horiz-adv-x="572" 
d="M404 291q0 61 -29 90.5t-80 29.5q-55 0 -89 -44t-34 -104v-263h-110v496h104v-66h6q22 36 64 59t91 23q90 0 138.5 -56t48.5 -151v-521h-110v507z" />
    <glyph glyph-name="theta" unicode="&#x3b8;" horiz-adv-x="678" 
d="M183 31.5q-64 47.5 -98.5 129t-34.5 181.5q0 101 34.5 182.5t98.5 128.5t148 47t147.5 -47t98 -128.5t34.5 -182.5q0 -100 -34.5 -181.5t-98.5 -129t-147 -47.5q-84 0 -148 47.5zM495 405q-12 86 -55.5 138.5t-108.5 52.5q-66 0 -109.5 -52.5t-55.5 -138.5h329z
M448 151.5q45 63.5 51 163.5h-337q6 -100 51.5 -163.5t117.5 -63.5t117 63.5z" />
    <glyph glyph-name="iota" unicode="&#x3b9;" horiz-adv-x="250" 
d="M70 496h110v-496h-110v496z" />
    <glyph glyph-name="kappa" unicode="&#x3ba;" horiz-adv-x="508" 
d="M62 496h110v-218h6l183 218h134v-6l-200 -229l211 -255v-6h-133l-195 244h-6v-244h-110v496z" />
    <glyph glyph-name="lambda" unicode="&#x3bb;" horiz-adv-x="530" 
d="M211 462l-112 244h117l307 -706h-122l-131 327h-5l-135 -327h-123z" />
    <glyph glyph-name="uni03BC" unicode="&#x3bc;" horiz-adv-x="572" 
d="M58 496h110v-287q0 -63 29 -93.5t78 -30.5q56 0 90.5 44t34.5 105v262h110v-496h-105v61h-5q-22 -35 -58.5 -56t-84.5 -21q-49 0 -89 33h-6l6 -60v-173h-110v712z" />
    <glyph glyph-name="nu" unicode="&#x3bd;" horiz-adv-x="534" 
d="M6 496h123l136 -354h4l138 354h121l-207 -496h-110z" />
    <glyph glyph-name="xi" unicode="&#x3be;" horiz-adv-x="537" 
d="M359 -75q21 0 32.5 10.5t11.5 27.5q0 16 -11.5 26.5t-32.5 10.5h-84q-77 0 -132 26t-84 73t-29 109q0 63 32 104.5t82 63.5v6q-41 24 -65 58.5t-24 93.5q0 55 28.5 100.5t78.5 71.5t113 26q69 0 120 -25.5t94 -74.5l-77 -74q-28 38 -60 55t-72 17q-52 0 -83.5 -28.5
t-31.5 -72.5q0 -49 34 -77t85 -28h102v-99h-109q-59 0 -97.5 -31t-38.5 -80q0 -51 37 -80t105 -29h67q74 0 115.5 -38t41.5 -98q0 -64 -41 -100.5t-107 -36.5v93z" />
    <glyph glyph-name="omicron" unicode="&#x3bf;" horiz-adv-x="586" 
d="M160 18.5q-59 34.5 -92.5 94.5t-33.5 135t33.5 135t92.5 94.5t133 34.5q75 0 134 -34.5t92 -94.5t33 -135t-33 -135t-92 -94.5t-134 -34.5q-74 0 -133 34.5zM367 105q34 20 55 57t21 86q0 50 -21 87t-55 56.5t-74 19.5q-39 0 -73.5 -19.5t-55 -56.5t-20.5 -87
q0 -49 21 -86t55 -57t73 -20q40 0 74 20z" />
    <glyph glyph-name="pi" unicode="&#x3c0;" horiz-adv-x="719" 
d="M493 38q-44 46 -44 125v236h-197v-399h-110v399h-118v97h655v-97h-120v-229q0 -37 16 -57.5t45 -20.5q27 0 58 17v-107q-35 -10 -67 -10q-74 0 -118 46z" />
    <glyph glyph-name="rho" unicode="&#x3c1;" horiz-adv-x="603" 
d="M61 241q0 78 32 139.5t89.5 96.5t130.5 35q76 0 134.5 -34.5t90 -94.5t31.5 -135t-31 -135.5t-84.5 -94.5t-117.5 -34q-56 0 -98.5 23t-66.5 58h-6l6 -69v-212h-110v457zM384.5 105q33.5 20 54 57t20.5 86t-20.5 85.5t-54 56.5t-72.5 20t-72.5 -20t-54 -56.5t-20.5 -85.5
t20.5 -86t54 -57t72.5 -20t72.5 20z" />
    <glyph glyph-name="uni03C2" unicode="&#x3c2;" horiz-adv-x="543" 
d="M362 -91q22 0 33.5 10.5t11.5 27.5q0 16 -11.5 26.5t-32.5 10.5h-41q-92 0 -157 34.5t-98 94t-33 135.5t33 136t92 94t133 34q82 0 139.5 -38.5t83.5 -101.5l-101 -42q-34 81 -126 81q-38 0 -71 -20.5t-53 -57.5t-20 -85q0 -73 47 -118t129 -45h37q70 0 112 -37t42 -97
q0 -63 -41.5 -99t-107.5 -36v93z" />
    <glyph glyph-name="sigma" unicode="&#x3c3;" horiz-adv-x="612" 
d="M155.5 17.5q-57.5 33.5 -89.5 92t-32 130.5q0 73 32 131.5t89.5 91.5t130.5 33h310v-96h-54l-71 6v-6q31 -29 49.5 -70t18.5 -90q0 -72 -32 -130.5t-90 -92t-131 -33.5t-130.5 33.5zM357 103.5q33 18.5 52.5 53.5t19.5 83t-19.5 83t-52.5 53.5t-71 18.5t-70.5 -18.5
t-52 -53.5t-19.5 -83t19.5 -83t52 -53.5t70.5 -18.5t71 18.5z" />
    <glyph glyph-name="tau" unicode="&#x3c4;" horiz-adv-x="477" 
d="M183 395h-156v101h423v-101h-157v-395h-110v395z" />
    <glyph glyph-name="upsilon" unicode="&#x3c5;" horiz-adv-x="567" 
d="M169.5 13.5q-51.5 29.5 -81.5 81t-30 116.5v285h110v-262q0 -71 34.5 -110t87.5 -39q35 0 65.5 18.5t49 53.5t18.5 83q0 112 -85 256h121q34 -59 54 -125t20 -133q0 -84 -35 -141.5t-91.5 -85t-123.5 -27.5q-62 0 -113.5 29.5z" />
    <glyph glyph-name="phi" unicode="&#x3c6;" horiz-adv-x="743" 
d="M659 128.5q-34 -57.5 -95 -94t-140 -46.5v-204h-110v203q-77 10 -137 45.5t-93.5 93t-33.5 130.5q0 162 171 256l49 -94q-109 -61 -109 -162q0 -70 42 -112.5t111 -54.5v270q0 70 42 111.5t106 41.5q63 0 116 -34t84 -92.5t31 -127.5q0 -72 -34 -129.5zM538.5 144.5
q43.5 43.5 43.5 118.5q0 40 -15 74t-40.5 54t-55.5 20q-20 0 -33.5 -15.5t-13.5 -39.5v-267q71 12 114.5 55.5z" />
    <glyph glyph-name="chi" unicode="&#x3c7;" horiz-adv-x="502" 
d="M185 252l-171 244h128l109 -159h3l102 159h132l-173 -244l176 -252h-130l-109 165h-3l-108 -165h-129z" />
    <glyph glyph-name="psi" unicode="&#x3c8;" horiz-adv-x="716" 
d="M312 -16q-73 0 -131 31t-90.5 88t-32.5 130v263h110v-262q0 -74 41.5 -111.5t102.5 -37.5v411h111v-410q39 0 73 18t55 54t21 87q0 65 -16.5 125.5t-52.5 125.5h117q30 -55 46 -121t16 -133q0 -84 -39 -142.5t-99 -87t-121 -28.5v-200h-111v200z" />
    <glyph glyph-name="omega" unicode="&#x3c9;" horiz-adv-x="803" 
d="M142.5 12.5q-49.5 28.5 -79 86t-29.5 140.5q0 126 71 257h124q-41 -68 -62 -130t-21 -125q0 -70 29 -111.5t77 -41.5q43 0 70 38t27 109v140h105v-140q0 -71 27 -109t70 -38q48 0 76.5 41.5t28.5 111.5q0 63 -21 125t-61 130h124q71 -131 71 -257q0 -83 -29.5 -140.5
t-79 -86t-108.5 -28.5q-49 0 -87.5 24t-63.5 70q-24 -46 -62.5 -70t-87.5 -24q-59 0 -108.5 28.5z" />
    <glyph glyph-name="iotadieresis" unicode="&#x3ca;" horiz-adv-x="250" 
d="M6 621.5q-19 18.5 -19 43.5q0 27 18.5 45t44.5 18t44 -18t18 -45q0 -25 -18 -43.5t-44 -18.5q-25 0 -44 18.5zM156.5 621.5q-18.5 18.5 -18.5 43.5q0 27 18.5 45t43.5 18q27 0 45 -18t18 -45q0 -25 -18 -43.5t-45 -18.5q-25 0 -43.5 18.5zM70 496h110v-496h-110v496z" />
    <glyph glyph-name="upsilondieresis" unicode="&#x3cb;" horiz-adv-x="567" 
d="M169.5 13.5q-51.5 29.5 -81.5 81t-30 116.5v285h110v-262q0 -71 34.5 -110t87.5 -39q35 0 65.5 18.5t49 53.5t18.5 83q0 112 -85 256h121q34 -59 54 -125t20 -133q0 -84 -35 -141.5t-91.5 -85t-123.5 -27.5q-62 0 -113.5 29.5zM141 620q-19 19 -19 45q0 27 18.5 45.5
t45.5 18.5t45.5 -18t18.5 -46q0 -26 -18.5 -45t-45.5 -19q-26 0 -45 19zM320 620q-19 19 -19 45q0 27 18.5 45.5t44.5 18.5q28 0 46 -18t18 -46q0 -26 -18.5 -45t-45.5 -19q-25 0 -44 19z" />
    <glyph glyph-name="omicrontonos" unicode="&#x3cc;" horiz-adv-x="586" 
d="M160 18.5q-59 34.5 -92.5 94.5t-33.5 135t33.5 135t92.5 94.5t133 34.5q75 0 134 -34.5t92 -94.5t33 -135t-33 -135t-92 -94.5t-134 -34.5q-74 0 -133 34.5zM367 105q34 20 55 57t21 86q0 50 -21 87t-55 56.5t-74 19.5q-39 0 -73.5 -19.5t-55 -56.5t-20.5 -87
q0 -49 21 -86t55 -57t73 -20q40 0 74 20zM293 722h125l-79 -132h-92z" />
    <glyph glyph-name="upsilontonos" unicode="&#x3cd;" horiz-adv-x="567" 
d="M169.5 13.5q-51.5 29.5 -81.5 81t-30 116.5v285h110v-262q0 -71 34.5 -110t87.5 -39q35 0 65.5 18.5t49 53.5t18.5 83q0 112 -85 256h121q34 -59 54 -125t20 -133q0 -84 -35 -141.5t-91.5 -85t-123.5 -27.5q-62 0 -113.5 29.5zM275 722h125l-79 -132h-92z" />
    <glyph glyph-name="omegatonos" unicode="&#x3ce;" horiz-adv-x="803" 
d="M142.5 12.5q-49.5 28.5 -79 86t-29.5 140.5q0 126 71 257h124q-41 -68 -62 -130t-21 -125q0 -70 29 -111.5t77 -41.5q43 0 70 38t27 109v140h105v-140q0 -71 27 -109t70 -38q48 0 76.5 41.5t28.5 111.5q0 63 -21 125t-61 130h124q71 -131 71 -257q0 -83 -29.5 -140.5
t-79 -86t-108.5 -28.5q-49 0 -87.5 24t-63.5 70q-24 -46 -62.5 -70t-87.5 -24q-59 0 -108.5 28.5zM401 722h125l-79 -132h-92z" />
    <glyph glyph-name="uni03D1" unicode="&#x3d1;" horiz-adv-x="647" 
d="M170.5 14q-53.5 30 -83 83t-29.5 121v278h107v-263q0 -72 35.5 -110.5t94.5 -38.5q58 0 92.5 38.5t34.5 110.5v44q-60 14 -109 55.5t-78 101t-29 124.5q0 81 45 127.5t114 46.5q76 0 120 -48.5t44 -122.5v-193h89v-95h-89v-54q0 -70 -28.5 -123t-81.5 -82.5t-124 -29.5
t-124.5 30zM422 568q0 30 -15 49t-42 19q-25 0 -40 -20.5t-15 -57.5q0 -60 30.5 -111t81.5 -71v192z" />
    <glyph glyph-name="uni03D2" unicode="&#x3d2;" horiz-adv-x="629" 
d="M258 315l-125 249q-16 31 -31 43.5t-33 12.5q-22 0 -47 -16v108q11 5 29 8.5t33 3.5q44 0 77 -22t63 -87l87 -184h6l88 184q30 65 63 87t77 22q15 0 32.5 -3.5t28.5 -8.5v-108q-23 16 -47 16q-18 0 -33 -12.5t-31 -43.5l-125 -249v-315h-112v315z" />
    <glyph glyph-name="uni03D3" unicode="&#x3d3;" horiz-adv-x="731" 
d="M-28 720h125l-80 -132h-92zM361 315l-125 249q-16 31 -31 43.5t-33 12.5q-22 0 -47 -16v108q11 5 29 8.5t33 3.5q44 0 77 -22t63 -87l87 -184h6l88 184q30 65 63 87t77 22q15 0 32.5 -3.5t28.5 -8.5v-108q-23 16 -47 16q-18 0 -33 -12.5t-31 -43.5l-125 -249v-315h-112
v315z" />
    <glyph glyph-name="uni03D4" unicode="&#x3d4;" horiz-adv-x="629" 
d="M258 315l-125 249q-16 31 -31 43.5t-33 12.5q-22 0 -47 -16v108q11 5 29 8.5t33 3.5q44 0 77 -22t63 -87l87 -184h6l88 184q30 65 63 87t77 22q15 0 32.5 -3.5t28.5 -8.5v-108q-23 16 -47 16q-18 0 -33 -12.5t-31 -43.5l-125 -249v-315h-112v315zM181 798q-19 19 -19 45
q0 27 19 45.5t45 18.5q27 0 45.5 -18.5t18.5 -45.5q0 -26 -18.5 -45t-45.5 -19q-26 0 -45 19zM360 798q-19 19 -19 45q0 27 18.5 45.5t44.5 18.5q28 0 46 -18.5t18 -45.5q0 -26 -18.5 -45t-45.5 -19q-25 0 -44 19z" />
    <glyph glyph-name="uni03D6" unicode="&#x3d6;" horiz-adv-x="910" 
d="M196 12.5q-49 28.5 -78.5 86t-29.5 140.5q0 82 33 166h-76v91h820v-91h-75q33 -89 33 -166q0 -83 -29.5 -140.5t-79 -86t-108.5 -28.5q-49 0 -87.5 24.5t-63.5 69.5q-24 -45 -63 -69.5t-88 -24.5q-59 0 -108 28.5zM376 126q27 38 27 109v91h104v-91q0 -71 27.5 -109
t70.5 -38q48 0 76.5 41.5t28.5 111.5q0 80 -39 164h-432q-39 -88 -39 -164q0 -70 29 -111.5t77 -41.5q43 0 70 38z" />
    <glyph glyph-name="uni0400" unicode="&#x400;" horiz-adv-x="570" 
d="M79 716h435v-107h-323v-198h291v-106h-291v-198h323v-107h-435v716zM170 904h124l48 -132h-92z" />
    <glyph glyph-name="uni0401" unicode="&#x401;" horiz-adv-x="570" 
d="M79 716h435v-107h-323v-198h291v-106h-291v-198h323v-107h-435v716zM162 798q-19 19 -19 45q0 27 19 45.5t45 18.5q27 0 45.5 -18.5t18.5 -45.5q0 -26 -18.5 -45t-45.5 -19q-26 0 -45 19zM341 798q-19 19 -19 45q0 27 18.5 45.5t44.5 18.5q28 0 46 -18.5t18 -45.5
q0 -26 -18.5 -45t-45.5 -19q-25 0 -44 19z" />
    <glyph glyph-name="uni0402" unicode="&#x402;" horiz-adv-x="773" 
d="M217 609h-191v107h498v-107h-195v-170l-6 -71h6q70 70 181 70q60 0 112 -27.5t84 -77.5t32 -116q0 -70 -29 -118.5t-79.5 -73t-113.5 -25.5h-29v103h25q52 0 82.5 32t30.5 80q0 52 -38 85.5t-99 33.5q-51 0 -93 -21t-66 -56v-257h-112v609z" />
    <glyph glyph-name="uni0403" unicode="&#x403;" horiz-adv-x="524" 
d="M79 716h419v-107h-307v-609h-112v716zM289 904h125l-80 -132h-92z" />
    <glyph glyph-name="uni0404" unicode="&#x404;" horiz-adv-x="740" 
d="M699 113q-51 -60 -125 -94.5t-161 -34.5q-104 0 -188.5 49t-132.5 134.5t-48 190.5t48 190.5t132.5 134.5t188.5 49q81 0 148.5 -30.5t117.5 -86.5l-78 -77q-71 87 -188 87q-64 0 -118.5 -26.5t-91 -75.5t-46.5 -115h323v-100h-323q10 -66 46.5 -115t91 -75.5
t118.5 -26.5q62 0 115 26t92 73z" />
    <glyph glyph-name="uni0405" unicode="&#x405;" horiz-adv-x="573" 
d="M127 36q-71 52 -98 146l106 43q16 -59 56.5 -96.5t97.5 -37.5q53 0 90 27.5t37 75.5q0 44 -32.5 72.5t-113.5 57.5l-45 16q-72 25 -121 72t-49 124q0 53 29 98t80.5 71.5t116.5 26.5q94 0 150 -45.5t75 -102.5l-101 -43q-11 34 -42 60t-80 26t-82.5 -25t-33.5 -64
q0 -37 30 -61t94 -46l45 -15q92 -32 142.5 -83.5t50.5 -137.5q0 -70 -36 -117.5t-91.5 -70.5t-114.5 -23q-89 0 -160 52z" />
    <glyph glyph-name="uni0406" unicode="&#x406;" horiz-adv-x="270" 
d="M79 716h112v-716h-112v716z" />
    <glyph glyph-name="uni0407" unicode="&#x407;" horiz-adv-x="270" 
d="M11.5 811q-17.5 18 -17.5 41q0 25 17.5 42t41.5 17q25 0 42 -17t17 -42q0 -24 -17.5 -41.5t-41.5 -17.5t-41.5 18zM176 811q-18 18 -18 41q0 24 17.5 41.5t41.5 17.5q25 0 42 -17t17 -42q0 -24 -17 -41.5t-42 -17.5q-23 0 -41 18zM79 716h112v-716h-112v716z" />
    <glyph glyph-name="uni0408" unicode="&#x408;" horiz-adv-x="548" 
d="M112.5 28.5q-61.5 44.5 -86.5 124.5l104 43q31 -105 126 -105q51 0 82 35.5t31 93.5v496h112v-492q0 -76 -29 -130t-80 -82t-116 -28q-82 0 -143.5 44.5z" />
    <glyph glyph-name="uni0409" unicode="&#x409;" horiz-adv-x="1087" 
d="M26 -4v107q11 -5 33 -5q38 0 62 24q20 20 27 66.5t7 138.5v389h492v-294h169q63 0 116.5 -25.5t85 -73.5t31.5 -112t-31.5 -112t-85 -73.5t-116.5 -25.5h-281v609h-268v-326q0 -97 -16.5 -154.5t-50.5 -91.5q-46 -45 -135 -45q-19 0 -39 4zM821 105q50 0 80.5 31.5
t30.5 74.5t-30.5 74.5t-80.5 31.5h-174v-212h174z" />
    <glyph glyph-name="uni040A" unicode="&#x40a;" horiz-adv-x="1047" 
d="M79 716h112v-294h304v294h112v-294h170q63 0 116 -25.5t84.5 -73.5t31.5 -112t-31.5 -112t-84.5 -73.5t-116 -25.5h-282v317h-304v-317h-112v716zM782 105q50 0 80.5 31.5t30.5 74.5t-30.5 74.5t-80.5 31.5h-175v-212h175z" />
    <glyph glyph-name="uni040B" unicode="&#x40b;" horiz-adv-x="770" 
d="M217 609h-191v107h498v-107h-195v-170l-6 -71h6q31 32 75 51t100 19q57 0 105 -25.5t76 -73.5t28 -114v-225h-110v203q0 62 -33.5 96.5t-95.5 34.5q-46 0 -83.5 -21t-61.5 -56v-257h-112v609z" />
    <glyph glyph-name="uni040C" unicode="&#x40c;" horiz-adv-x="643" 
d="M79 716h112v-347h6l283 347h141v-6l-299 -358l316 -346v-6h-148l-293 328h-6v-328h-112v716zM323 904h125l-80 -132h-92z" />
    <glyph glyph-name="uni040D" unicode="&#x40d;" horiz-adv-x="714" 
d="M79 716h111v-391l-6 -138h6l317 529h128v-716h-111v402l6 138h-6l-323 -540h-122v716zM231 904h124l48 -132h-92z" />
    <glyph glyph-name="uni040E" unicode="&#x40e;" horiz-adv-x="619" 
d="M95 -3v109q33 -18 60 -18t43 10.5t30 39.5l25 52l-239 526h126l167 -397h5l168 397h125l-273 -602q-31 -67 -73.5 -98.5t-99.5 -31.5q-38 0 -64 13zM246 784q-31 17 -49.5 47t-18.5 66h83q0 -21 13.5 -36t36.5 -15q22 0 35.5 15t13.5 36h81q0 -37 -18 -66.5t-48 -46.5
t-64 -17t-65 17z" />
    <glyph glyph-name="uni040F" unicode="&#x40f;" horiz-adv-x="691" 
d="M292 0h-213v716h112v-609h309v609h112v-716h-213v-157h-107v157z" />
    <glyph glyph-name="uni0410" unicode="&#x410;" horiz-adv-x="694" 
d="M283 716h128l269 -716h-123l-65 183h-289l-65 -183h-124zM454 287l-76 213l-28 83h-6l-28 -83l-76 -213h214z" />
    <glyph glyph-name="uni0411" unicode="&#x411;" horiz-adv-x="623" 
d="M79 716h433v-105h-321v-188h164q62 0 114.5 -25.5t84 -73.5t31.5 -112t-31.5 -112t-84 -74t-114.5 -26h-276v716zM360 105q50 0 80.5 32t30.5 75t-30 75t-81 32h-169v-214h169z" />
    <glyph glyph-name="uni0412" unicode="&#x412;" horiz-adv-x="623" 
d="M79 716h269q57 0 106 -25t78 -69t29 -97t-27 -92t-70 -59v-6q55 -19 88 -63t33 -103t-30.5 -105t-82 -71.5t-112.5 -25.5h-281v716zM343 416q48 0 77.5 30t29.5 69t-28.5 68.5t-74.5 29.5h-156v-197h152zM360 104q51 0 81.5 31.5t30.5 74.5t-31.5 74.5t-84.5 31.5h-165
v-212h169z" />
    <glyph glyph-name="uni0413" unicode="&#x413;" horiz-adv-x="524" 
d="M79 716h419v-107h-307v-609h-112v716z" />
    <glyph glyph-name="uni0414" unicode="&#x414;" horiz-adv-x="796" 
d="M751 107v-259h-107v152h-492v-152h-107v259h80q40 56 59 161.5t19 229.5v218h469v-609h79zM560 107v502h-246v-130q0 -112 -17.5 -208t-52.5 -164h316z" />
    <glyph glyph-name="uni0415" unicode="&#x415;" horiz-adv-x="570" 
d="M79 716h435v-107h-323v-198h291v-106h-291v-198h323v-107h-435v716z" />
    <glyph glyph-name="uni0416" unicode="&#x416;" horiz-adv-x="934" 
d="M5 6l286 345l-272 359v6h135l251 -338h6v338h112v-338h6l250 338h136v-6l-272 -359l286 -345v-6h-144l-256 321h-6v-321h-112v321h-6l-256 -321h-144v6z" />
    <glyph glyph-name="uni0417" unicode="&#x417;" horiz-adv-x="566" 
d="M132.5 30q-67.5 46 -92.5 136l103 41q14 -55 51 -87t86 -32q54 0 92 34.5t38 84.5t-40 84t-99 34h-60v98h53q53 0 88.5 29t35.5 78q0 44 -32.5 72t-81.5 28q-45 0 -75 -26.5t-42 -62.5l-100 41q21 59 76.5 104.5t141.5 45.5q65 0 115.5 -25.5t79 -70.5t28.5 -101
q0 -57 -24 -93t-65 -60v-6q51 -23 82 -67t31 -107q0 -61 -31.5 -111t-87 -78.5t-123.5 -28.5q-80 0 -147.5 46z" />
    <glyph glyph-name="uni0418" unicode="&#x418;" horiz-adv-x="714" 
d="M79 716h111v-391l-6 -138h6l317 529h128v-716h-111v402l6 138h-6l-323 -540h-122v716z" />
    <glyph glyph-name="uni0419" unicode="&#x419;" horiz-adv-x="714" 
d="M79 716h111v-391l-6 -138h6l317 529h128v-716h-111v402l6 138h-6l-323 -540h-122v716zM293 784q-31 17 -49.5 47t-18.5 66h83q0 -21 13.5 -36t36.5 -15q22 0 35.5 15t13.5 36h81q0 -37 -18 -66.5t-48 -46.5t-64 -17t-65 17z" />
    <glyph glyph-name="uni041A" unicode="&#x41a;" horiz-adv-x="643" 
d="M79 716h112v-347h6l283 347h141v-6l-299 -358l316 -346v-6h-148l-293 328h-6v-328h-112v716z" />
    <glyph glyph-name="uni041B" unicode="&#x41b;" horiz-adv-x="726" 
d="M26 -4v107q11 -5 33 -5q38 0 62 24q20 20 27 66.5t7 138.5v389h492v-716h-112v609h-268v-326q0 -97 -16.5 -154.5t-50.5 -91.5q-46 -45 -135 -45q-19 0 -39 4z" />
    <glyph glyph-name="uni041C" unicode="&#x41c;" horiz-adv-x="880" 
d="M79 716h153l205 -543h6l206 543h152v-716h-111v401l6 129h-6l-205 -530h-90l-205 530h-6l6 -129v-401h-111v716z" />
    <glyph glyph-name="uni041D" unicode="&#x41d;" horiz-adv-x="714" 
d="M79 716h112v-297h332v297h112v-716h-112v313h-332v-313h-112v716z" />
    <glyph glyph-name="uni041E" unicode="&#x41e;" horiz-adv-x="829" 
d="M225.5 33.5q-84.5 49.5 -133 135.5t-48.5 189t48.5 188.5t133 135.5t188.5 50t189 -50t133.5 -135.5t48.5 -188.5t-48.5 -189t-133.5 -135.5t-189 -49.5t-188.5 49.5zM544 125q59 34 93.5 94.5t34.5 138.5t-34.5 138.5t-93.5 94.5t-130 34t-129.5 -34t-93 -94.5
t-34.5 -138.5t34.5 -138.5t93 -94.5t129.5 -34t130 34z" />
    <glyph glyph-name="uni041F" unicode="&#x41f;" horiz-adv-x="691" 
d="M79 716h533v-716h-112v609h-309v-609h-112v716z" />
    <glyph glyph-name="uni0420" unicode="&#x420;" horiz-adv-x="590" 
d="M79 716h248q63 0 116.5 -28t85 -78t31.5 -113t-31.5 -113t-85 -78t-116.5 -28h-136v-278h-112v716zM330 384q36 0 63 16.5t41 42.5t14 54t-14 54t-41 42t-63 16h-139v-225h139z" />
    <glyph glyph-name="uni0421" unicode="&#x421;" horiz-adv-x="743" 
d="M227.5 33q-85.5 49 -134.5 134.5t-49 190.5t49 190.5t134.5 134.5t189.5 49q161 0 265 -117l-79 -77q-37 44 -82.5 65.5t-103.5 21.5q-72 0 -131.5 -33t-94 -93.5t-34.5 -140.5t34.5 -140.5t94 -93.5t131.5 -33q120 0 204 100l81 -78q-51 -61 -124.5 -95t-160.5 -34
q-104 0 -189.5 49z" />
    <glyph glyph-name="uni0422" unicode="&#x422;" horiz-adv-x="564" 
d="M226 609h-200v107h512v-107h-200v-609h-112v609z" />
    <glyph glyph-name="uni0423" unicode="&#x423;" horiz-adv-x="619" 
d="M95 -3v109q33 -18 60 -18t43 10.5t30 39.5l25 52l-239 526h126l167 -397h5l168 397h125l-273 -602q-31 -67 -73.5 -98.5t-99.5 -31.5q-38 0 -64 13z" />
    <glyph glyph-name="uni0424" unicode="&#x424;" horiz-adv-x="827" 
d="M744 214.5q-39 -64.5 -110.5 -105t-164.5 -50.5v-107h-112v107q-92 10 -163 51t-110.5 105t-39.5 143t39.5 143t110.5 105t163 51v107h112v-107q93 -10 164.5 -50.5t110.5 -105t39 -143.5t-39 -143.5zM210.5 226.5q53.5 -52.5 146.5 -64.5v392q-93 -12 -146.5 -64.5
t-53.5 -131.5t53.5 -131.5zM616 227q54 52 54 131t-54 131t-147 65v-392q93 13 147 65z" />
    <glyph glyph-name="uni0425" unicode="&#x425;" horiz-adv-x="662" 
d="M256 372l-222 344h137l157 -255h6l158 255h136l-221 -344l237 -372h-136l-174 277h-6l-174 -277h-136z" />
    <glyph glyph-name="uni0426" unicode="&#x426;" horiz-adv-x="732" 
d="M577 0h-498v716h112v-609h297v609h112v-609h87v-275h-110v168z" />
    <glyph glyph-name="uni0427" unicode="&#x427;" horiz-adv-x="609" 
d="M439 316q-66 -56 -162 -56q-65 0 -117.5 26.5t-83 76.5t-30.5 118v235h113v-216q0 -64 37.5 -99t101.5 -35q86 0 141 66v284h112v-716h-112v316z" />
    <glyph glyph-name="uni0428" unicode="&#x428;" horiz-adv-x="927" 
d="M79 716h112v-609h217v609h112v-609h217v609h111v-716h-769v716z" />
    <glyph glyph-name="uni0429" unicode="&#x429;" horiz-adv-x="976" 
d="M821 0h-742v716h112v-609h217v609h112v-609h217v609h111v-609h83v-275h-110v168z" />
    <glyph glyph-name="uni042A" unicode="&#x42a;" horiz-adv-x="767" 
d="M216 612h-190v104h302v-254h151q67 0 124 -28t91.5 -80t34.5 -122q0 -71 -34.5 -123.5t-91.5 -80.5t-124 -28h-263v612zM488 105q39 0 68 18t44 47.5t15 61.5q0 31 -15.5 60t-44 47.5t-67.5 18.5h-160v-253h160z" />
    <glyph glyph-name="uni042B" unicode="&#x42b;" horiz-adv-x="856" 
d="M79 716h112v-254h151q67 0 124 -28t91.5 -80t34.5 -122q0 -71 -34.5 -123.5t-91.5 -80.5t-124 -28h-263v716zM665 716h112v-716h-112v716zM351 105q39 0 68 18t44 47.5t15 61.5q0 31 -15.5 60t-44 47.5t-67.5 18.5h-160v-253h160z" />
    <glyph glyph-name="uni042C" unicode="&#x42c;" horiz-adv-x="630" 
d="M79 716h112v-254h151q67 0 124 -28t91.5 -80t34.5 -122q0 -71 -34.5 -123.5t-91.5 -80.5t-124 -28h-263v716zM351 105q39 0 68 18t44 47.5t15 61.5q0 31 -15.5 60t-44 47.5t-67.5 18.5h-160v-253h160z" />
    <glyph glyph-name="uni042D" unicode="&#x42d;" horiz-adv-x="740" 
d="M515.5 683q84.5 -49 133 -134.5t48.5 -190.5t-48.5 -190.5t-133 -134.5t-188.5 -49q-87 0 -161 34.5t-125 94.5l79 77q40 -47 92.5 -73t114.5 -26q64 0 119 26.5t91.5 75.5t46.5 115h-324v100h324q-10 66 -46.5 115t-91.5 75.5t-119 26.5q-58 0 -105.5 -22.5t-82.5 -64.5
l-78 77q50 56 117.5 86.5t148.5 30.5q104 0 188.5 -49z" />
    <glyph glyph-name="uni042E" unicode="&#x42e;" horiz-adv-x="1094" 
d="M868.5 682q84.5 -50 133.5 -135.5t49 -188.5t-48.5 -189t-133.5 -135.5t-189 -49.5q-97 0 -177.5 43t-131 118t-60.5 168h-120v-313h-112v716h112v-297h123q13 89 64 160.5t129.5 112t172.5 40.5q104 0 188.5 -50zM809.5 125q58.5 34 93 94.5t34.5 138.5t-34.5 138.5
t-93 94.5t-129.5 34t-130 -34t-93.5 -94.5t-34.5 -138.5t34.5 -138.5t93.5 -94.5t130 -34t129.5 34z" />
    <glyph glyph-name="uni042F" unicode="&#x42f;" horiz-adv-x="615" 
d="M20 6l197 283l-2 5q-70 19 -116 75t-46 128q0 63 30.5 113t83 78t117.5 28h252v-716h-112v280h-84l-189 -280h-131v6zM424 384v227h-142q-36 0 -62 -16.5t-40 -42.5t-14 -54q0 -50 35 -82t85 -32h138z" />
    <glyph glyph-name="uni0430" unicode="&#x430;" horiz-adv-x="536" 
d="M124.5 5.5q-42.5 21.5 -67 60t-24.5 87.5q0 78 58.5 123t148.5 45q79 0 135 -27v21q0 45 -35.5 74.5t-85.5 29.5q-76 0 -122 -62l-84 58q35 47 87.5 72t118.5 25q109 0 168.5 -54.5t59.5 -153.5v-304h-107v61h-6q-24 -34 -61 -55.5t-88 -21.5q-53 0 -95.5 21.5z
M306.5 93.5q31.5 18.5 50 49t18.5 65.5q-53 29 -113 29q-55 0 -86 -24t-31 -61q0 -34 27.5 -55.5t65.5 -21.5q37 0 68.5 18.5z" />
    <glyph glyph-name="uni0431" unicode="&#x431;" horiz-adv-x="608" 
d="M186 19q-59 35 -93.5 108t-34.5 182q0 127 26.5 202.5t74.5 119.5q76 70 193 70q37 0 56.5 3.5t27.5 10t12 18.5h102q-12 -72 -56 -99t-133 -27q-48 0 -77.5 -11.5t-52.5 -31.5q-25 -22 -41.5 -56t-20.5 -78h5q26 36 69.5 59t100.5 23q64 0 117.5 -35t85 -95.5
t31.5 -133.5q0 -75 -33.5 -135.5t-92 -94.5t-132.5 -34q-75 0 -134 35zM393 105q34 20 54.5 57t20.5 86t-20.5 86t-54.5 57t-73 20q-40 0 -73.5 -19.5t-54 -56.5t-20.5 -87q0 -47 20.5 -84.5t54.5 -58t73 -20.5t73 20z" />
    <glyph glyph-name="uni0432" unicode="&#x432;" horiz-adv-x="516" 
d="M62 496h253q41 0 76.5 -18t56.5 -48.5t21 -68.5q0 -37 -17.5 -63t-46.5 -40v-6q37 -15 59.5 -43.5t22.5 -66.5q0 -42 -22.5 -74.5t-58.5 -50t-77 -17.5h-267v496zM302 295q24 0 41.5 16t17.5 39q0 24 -17.5 39.5t-41.5 15.5h-133v-110h133zM317 93q27 0 45.5 17t18.5 43
q0 25 -19 42t-45 17h-148v-119h148z" />
    <glyph glyph-name="uni0433" unicode="&#x433;" horiz-adv-x="437" 
d="M62 496h348v-97h-238v-399h-110v496z" />
    <glyph glyph-name="uni0434" unicode="&#x434;" horiz-adv-x="658" 
d="M32 98h57q21 27 35.5 92.5t14.5 135.5v170h410v-398h78v-250h-102v152h-392v-152h-101v250zM442 98v300h-197v-81q0 -59 -11.5 -116.5t-32.5 -102.5h241z" />
    <glyph glyph-name="uni0435" unicode="&#x435;" horiz-adv-x="562" 
d="M158.5 18q-58.5 34 -91.5 94.5t-33 135.5q0 72 31.5 132.5t88.5 96t130 35.5q75 0 130.5 -33t84.5 -91.5t29 -134.5q0 -9 -1 -18t-1 -10h-382q5 -68 49 -105t100 -37q86 0 132 80l94 -45q-33 -61 -91.5 -97.5t-137.5 -36.5q-73 0 -131.5 34zM416 309q-2 24 -16 49
t-43.5 42.5t-73.5 17.5q-49 0 -84.5 -30t-48.5 -79h266z" />
    <glyph glyph-name="uni0436" unicode="&#x436;" horiz-adv-x="758" 
d="M2 6l204 257l-194 227v6h132l174 -213h6v213h110v-213h6l174 213h132v-6l-195 -227l205 -257v-6h-132l-184 238h-6v-238h-110v238h-6l-184 -238h-132v6z" />
    <glyph glyph-name="uni0437" unicode="&#x437;" horiz-adv-x="505" 
d="M137 7q-52 23 -91 66l71 70q31 -32 62.5 -47.5t70.5 -15.5q47 0 75.5 18t28.5 47q0 28 -23 47t-63 19h-82v83h79q32 0 53.5 17t21.5 46q0 26 -24.5 44t-63.5 18q-37 0 -65 -12t-55 -40l-69 67q40 40 85.5 59t103.5 19q53 0 97 -19t69.5 -52.5t25.5 -74.5q0 -77 -64 -106
v-6q38 -17 60.5 -47.5t22.5 -68.5q0 -71 -58 -112.5t-155 -41.5q-61 0 -113 23z" />
    <glyph glyph-name="uni0438" unicode="&#x438;" horiz-adv-x="574" 
d="M62 496h110v-235l-6 -96h6l230 331h110v-496h-110v236l5 96h-5l-230 -332h-110v496z" />
    <glyph glyph-name="uni0439" unicode="&#x439;" horiz-adv-x="574" 
d="M62 496h110v-235l-6 -96h6l230 331h110v-496h-110v236l5 96h-5l-230 -332h-110v496zM223 606q-31 17 -49.5 47t-18.5 66h83q0 -21 13.5 -36t36.5 -15q22 0 35.5 15t13.5 36h81q0 -37 -18 -66.5t-48 -46.5t-64 -17t-65 17z" />
    <glyph glyph-name="uni043A" unicode="&#x43a;" horiz-adv-x="508" 
d="M62 496h110v-218h6l183 218h134v-6l-200 -229l211 -255v-6h-133l-195 244h-6v-244h-110v496z" />
    <glyph glyph-name="uni043B" unicode="&#x43b;" horiz-adv-x="628" 
d="M47 0l1 98q16 -5 32 -5q22 0 34 14.5t17.5 49t5.5 95.5v244h429v-496h-108v397h-216v-173q0 -232 -142 -232q-33 0 -53 8z" />
    <glyph glyph-name="uni043C" unicode="&#x43c;" horiz-adv-x="692" 
d="M60 496h132l151 -293h5l152 293h132v-496h-108v234l6 96h-6l-140 -266h-77l-139 266h-6l6 -96v-234h-108v496z" />
    <glyph glyph-name="uni043D" unicode="&#x43d;" horiz-adv-x="578" 
d="M62 496h110v-195h234v195h110v-496h-110v199h-234v-199h-110v496z" />
    <glyph glyph-name="uni043E" unicode="&#x43e;" horiz-adv-x="586" 
d="M160 18.5q-59 34.5 -92.5 94.5t-33.5 135t33.5 135t92.5 94.5t133 34.5q75 0 134 -34.5t92 -94.5t33 -135t-33 -135t-92 -94.5t-134 -34.5q-74 0 -133 34.5zM367 105q34 20 55 57t21 86q0 50 -21 87t-55 56.5t-74 19.5q-39 0 -73.5 -19.5t-55 -56.5t-20.5 -87
q0 -49 21 -86t55 -57t73 -20q40 0 74 20z" />
    <glyph glyph-name="uni043F" unicode="&#x43f;" horiz-adv-x="562" 
d="M62 496h438v-496h-110v395h-218v-395h-110v496z" />
    <glyph glyph-name="uni0440" unicode="&#x440;" horiz-adv-x="600" 
d="M58 496h104v-64h6q21 34 63.5 57t96.5 23q64 0 118.5 -34t87 -94.5t32.5 -135.5t-32.5 -135t-87 -94.5t-118.5 -34.5q-54 0 -96.5 23t-63.5 58h-6l6 -70v-211h-110v712zM381.5 105q33.5 20 54 57.5t20.5 85.5t-20.5 85.5t-54 57.5t-72.5 20t-72.5 -20t-54 -57t-20.5 -86
t20.5 -86t54 -57t72.5 -20t72.5 20z" />
    <glyph glyph-name="uni0441" unicode="&#x441;" horiz-adv-x="547" 
d="M159 18q-59 34 -92 94.5t-33 135.5q0 76 33 136t92 94t133 34q82 0 139.5 -38.5t83.5 -101.5l-101 -42q-36 81 -126 81q-38 0 -71 -20.5t-53 -57.5t-20 -85t20 -85t53 -57.5t71 -20.5q46 0 80 21.5t52 61.5l99 -43q-29 -63 -87 -102t-140 -39q-74 0 -133 34z" />
    <glyph glyph-name="uni0442" unicode="&#x442;" horiz-adv-x="477" 
d="M183 395h-156v101h423v-101h-157v-395h-110v395z" />
    <glyph glyph-name="uni0443" unicode="&#x443;" horiz-adv-x="535" 
d="M214 28l-207 468h123l138 -333h5l133 333h122l-310 -712h-116z" />
    <glyph glyph-name="uni0444" unicode="&#x444;" horiz-adv-x="769" 
d="M646.5 68q-78.5 -69 -207.5 -81v-203h-110v203q-128 12 -206.5 81t-78.5 180t78.5 180t206.5 81v207h110v-207q129 -12 207.5 -81t78.5 -180t-78.5 -180zM571.5 139q47.5 42 47.5 109t-47.5 109t-132.5 53v-324q85 11 132.5 53zM196.5 139q47.5 -42 132.5 -53v324
q-85 -11 -132.5 -53t-47.5 -109t47.5 -109z" />
    <glyph glyph-name="uni0445" unicode="&#x445;" horiz-adv-x="502" 
d="M185 252l-171 244h128l109 -159h3l102 159h132l-173 -244l176 -252h-130l-109 165h-3l-108 -165h-129z" />
    <glyph glyph-name="uni0446" unicode="&#x446;" horiz-adv-x="608" 
d="M475 0h-413v496h110v-396h218v396h110v-396h76v-252h-101v152z" />
    <glyph glyph-name="uni0447" unicode="&#x447;" horiz-adv-x="527" 
d="M355 182q-45 -24 -120 -24q-58 0 -103 24t-70 67.5t-25 99.5v147h112v-143q0 -45 27.5 -70t77.5 -25q65 0 101 27v211h110v-496h-110v182z" />
    <glyph glyph-name="uni0448" unicode="&#x448;" horiz-adv-x="797" 
d="M62 496h109v-396h163v396h109v-396h163v396h109v-496h-653v496z" />
    <glyph glyph-name="uni0449" unicode="&#x449;" horiz-adv-x="845" 
d="M689 0h-627v496h109v-396h163v396h109v-396h163v396h109v-396h76v-252h-102v152z" />
    <glyph glyph-name="uni044A" unicode="&#x44a;" horiz-adv-x="602" 
d="M146 403h-119v93h225v-165h142q50 0 91 -20.5t65.5 -58t24.5 -86.5t-24.5 -86.5t-65.5 -58.5t-91 -21h-248v403zM390 93q33 0 56 20t23 53q0 32 -23 52t-56 20h-138v-145h138z" />
    <glyph glyph-name="uni044B" unicode="&#x44b;" horiz-adv-x="728" 
d="M62 496h107v-165h142q50 0 91 -20.5t65 -58t24 -86.5t-24 -86.5t-65.5 -58.5t-90.5 -21h-249v496zM559 496h107v-496h-107v496zM307 93q33 0 55.5 20t22.5 53q0 32 -23 52t-55 20h-138v-145h138z" />
    <glyph glyph-name="uni044C" unicode="&#x44c;" horiz-adv-x="518" 
d="M62 496h107v-165h142q50 0 91 -20.5t65 -58t24 -86.5t-24 -86.5t-65.5 -58.5t-90.5 -21h-249v496zM307 93q33 0 55.5 20t22.5 53q0 32 -23 52t-55 20h-138v-145h138z" />
    <glyph glyph-name="uni044D" unicode="&#x44d;" horiz-adv-x="540" 
d="M112.5 23q-57.5 39 -84.5 102l93 41q37 -87 136 -87q53 0 93 34t52 93h-211v83h211q-11 59 -51.5 93.5t-93.5 34.5q-48 0 -81 -22t-50 -62l-94 38q27 63 82.5 102t137.5 39q74 0 132 -34t90 -94t32 -136q0 -75 -32 -135.5t-90 -94.5t-132 -34q-82 0 -139.5 39z" />
    <glyph glyph-name="uni044E" unicode="&#x44e;" horiz-adv-x="806" 
d="M393 11.5q-54 27.5 -89.5 76t-45.5 111.5h-82v-199h-110v496h110v-195h83q11 61 46 109t89 75t119 27q75 0 134 -34.5t92 -94.5t33 -135t-33 -135t-92 -94.5t-134 -34.5q-66 0 -120 27.5zM587 105q34 20 54.5 57t20.5 86q0 50 -20.5 87t-54.5 56.5t-74 19.5
q-39 0 -73.5 -19.5t-55 -56.5t-20.5 -87q0 -49 21 -86t55 -57t73 -20q40 0 74 20z" />
    <glyph glyph-name="uni044F" unicode="&#x44f;" horiz-adv-x="504" 
d="M3 7l134 171l-3 4q-50 17 -81 57t-31 93q0 47 24.5 84.5t65.5 58.5t89 21h241v-496h-107v170h-85l-126 -170h-121v7zM335 260v143h-127q-32 0 -55 -20t-23 -51q0 -32 22.5 -52t55.5 -20h127z" />
    <glyph glyph-name="uni0450" unicode="&#x450;" horiz-adv-x="562" 
d="M158.5 18q-58.5 34 -91.5 94.5t-33 135.5q0 72 31.5 132.5t88.5 96t130 35.5q75 0 130.5 -33t84.5 -91.5t29 -134.5q0 -9 -1 -18t-1 -10h-382q5 -68 49 -105t100 -37q86 0 132 80l94 -45q-33 -61 -91.5 -97.5t-137.5 -36.5q-73 0 -131.5 34zM416 309q-2 24 -16 49
t-43.5 42.5t-73.5 17.5q-49 0 -84.5 -30t-48.5 -79h266zM159 726h124l48 -132h-92z" />
    <glyph glyph-name="uni0451" unicode="&#x451;" horiz-adv-x="562" 
d="M158.5 18q-58.5 34 -91.5 94.5t-33 135.5q0 72 31.5 132.5t88.5 96t130 35.5q75 0 130.5 -33t84.5 -91.5t29 -134.5q0 -9 -1 -18t-1 -10h-382q5 -68 49 -105t100 -37q86 0 132 80l94 -45q-33 -61 -91.5 -97.5t-137.5 -36.5q-73 0 -131.5 34zM416 309q-2 24 -16 49
t-43.5 42.5t-73.5 17.5q-49 0 -84.5 -30t-48.5 -79h266zM151 620q-19 19 -19 45q0 27 18.5 45.5t45.5 18.5t45.5 -18t18.5 -46q0 -26 -18.5 -45t-45.5 -19q-26 0 -45 19zM330 620q-19 19 -19 45q0 27 18.5 45.5t44.5 18.5q28 0 46 -18t18 -46q0 -26 -18.5 -45t-45.5 -19
q-25 0 -44 19z" />
    <glyph glyph-name="uni0452" unicode="&#x452;" horiz-adv-x="572" 
d="M306 -219v106q24 -12 46 -12q28 0 40 17t12 51v351q0 59 -29 88t-77 29q-37 0 -65.5 -21t-44.5 -56t-16 -74v-260h-110v570h-61v81h61v65h110v-65h141v-81h-141v-62l-6 -78h6q21 36 63 59t91 23q94 0 141 -54.5t47 -148.5v-368q0 -85 -41.5 -126t-111.5 -41q-30 0 -55 7z
" />
    <glyph glyph-name="uni0453" unicode="&#x453;" horiz-adv-x="437" 
d="M62 496h348v-97h-238v-399h-110v496zM237 726h125l-80 -132h-92z" />
    <glyph glyph-name="uni0454" unicode="&#x454;" horiz-adv-x="540" 
d="M157 18q-58 34 -90.5 94.5t-32.5 135.5q0 76 32.5 136t91 94t131.5 34q82 0 137 -38.5t82 -102.5l-94 -38q-36 84 -130 84q-53 0 -93.5 -34.5t-52.5 -93.5h211v-83h-211q12 -59 52.5 -93t93.5 -34q98 0 135 87l93 -41q-27 -63 -84 -102t-139 -39q-74 0 -132 34z" />
    <glyph glyph-name="uni0455" unicode="&#x455;" horiz-adv-x="478" 
d="M104.5 23.5q-55.5 39.5 -78.5 99.5l98 42q17 -41 49.5 -62t71.5 -21q41 0 67 15.5t26 40.5q0 24 -21 39.5t-69 27.5l-68 16q-56 13 -96.5 48.5t-40.5 92.5q0 69 57 109.5t140 40.5q69 0 122.5 -29t77.5 -84l-97 -41q-14 31 -43 46t-63 15q-33 0 -58 -14.5t-25 -38.5
q0 -21 17.5 -34t55.5 -22l74 -18q75 -19 112 -57.5t37 -92.5q0 -44 -26.5 -80t-73 -57t-105.5 -21q-85 0 -140.5 39.5z" />
    <glyph glyph-name="uni0456" unicode="&#x456;" horiz-adv-x="250" 
d="M72.5 601.5q-21.5 21.5 -21.5 52.5t21.5 52.5t52.5 21.5t52.5 -21.5t21.5 -52.5t-21.5 -52.5t-52.5 -21.5t-52.5 21.5zM70 496h110v-496h-110v496z" />
    <glyph glyph-name="uni0457" unicode="&#x457;" horiz-adv-x="250" 
d="M6 621.5q-19 18.5 -19 43.5q0 27 18.5 45t44.5 18t44 -18t18 -45q0 -25 -18 -43.5t-44 -18.5q-25 0 -44 18.5zM156.5 621.5q-18.5 18.5 -18.5 43.5q0 27 18.5 45t43.5 18q27 0 45 -18t18 -45q0 -25 -18 -43.5t-45 -18.5q-25 0 -43.5 18.5zM70 496h110v-496h-110v496z" />
    <glyph glyph-name="uni0458" unicode="&#x458;" horiz-adv-x="250" 
d="M72.5 601.5q-21.5 21.5 -21.5 52.5t21.5 52.5t52.5 21.5t52.5 -21.5t21.5 -52.5t-21.5 -52.5t-52.5 -21.5t-52.5 21.5zM-28 -219v106q22 -12 46 -12q28 0 40 17t12 51v553h110v-555q0 -85 -42 -126t-112 -41q-29 0 -54 7z" />
    <glyph glyph-name="uni0459" unicode="&#x459;" horiz-adv-x="911" 
d="M47 0l1 98q16 -5 32 -5q22 0 34 14.5t17.5 49t5.5 95.5v244h429v-174h140q48 0 88.5 -20t64 -57t23.5 -84t-23.5 -84t-64 -57t-88.5 -20h-248v397h-216v-173q0 -232 -142 -232q-33 0 -53 8zM702 93q31 0 52.5 19t21.5 49t-21.5 49t-52.5 19h-136v-136h136z" />
    <glyph glyph-name="uni045A" unicode="&#x45a;" horiz-adv-x="856" 
d="M62 496h110v-174h215v174h110v-174h155q48 0 88 -20t63.5 -57t23.5 -84t-23.5 -84t-63.5 -57t-88 -20h-265v229h-215v-229h-110v496zM647 93q31 0 52.5 19t21.5 49t-21.5 49t-52.5 19h-150v-136h150z" />
    <glyph glyph-name="uni045B" unicode="&#x45b;" horiz-adv-x="572" 
d="M467 457.5q47 -54.5 47 -148.5v-309h-110v294q0 59 -29 88t-77 29q-37 0 -65.5 -21t-44.5 -56t-16 -74v-260h-110v570h-61v81h61v65h110v-65h141v-81h-141v-62l-6 -78h6q21 36 63 59t91 23q94 0 141 -54.5z" />
    <glyph glyph-name="uni045C" unicode="&#x45c;" horiz-adv-x="508" 
d="M62 496h110v-218h6l183 218h134v-6l-200 -229l211 -255v-6h-133l-195 244h-6v-244h-110v496zM255 726h125l-80 -132h-92z" />
    <glyph glyph-name="uni045D" unicode="&#x45d;" horiz-adv-x="574" 
d="M62 496h110v-235l-6 -96h6l230 331h110v-496h-110v236l5 96h-5l-230 -332h-110v496zM161 726h124l48 -132h-92z" />
    <glyph glyph-name="uni045E" unicode="&#x45e;" horiz-adv-x="535" 
d="M214 28l-207 468h123l138 -333h5l133 333h122l-310 -712h-116zM204 606q-31 17 -49.5 47t-18.5 66h83q0 -21 13.5 -36t36.5 -15q22 0 35.5 15t13.5 36h81q0 -37 -18 -66.5t-48 -46.5t-64 -17t-65 17z" />
    <glyph glyph-name="uni045F" unicode="&#x45f;" horiz-adv-x="576" 
d="M237 0h-175v496h110v-395h232v395h110v-496h-175v-152h-102v152z" />
    <glyph glyph-name="uni0490" unicode="&#x490;" horiz-adv-x="528" 
d="M72 716h323v117h109v-224h-320v-609h-112v716z" />
    <glyph glyph-name="uni0491" unicode="&#x491;" horiz-adv-x="427" 
d="M56 496h247v103h100v-200h-237v-399h-110v496z" />
    <glyph glyph-name="uni04AE" unicode="&#x4ae;" horiz-adv-x="618" 
d="M255 333l-241 383h133l161 -266h6l156 266h134l-237 -383v-333h-112v333z" />
    <glyph glyph-name="uni04AF" unicode="&#x4af;" horiz-adv-x="526" 
d="M207 1l-201 495h122l135 -366l138 366h119l-203 -495v-217h-110v217z" />
    <glyph glyph-name="uni04B0" unicode="&#x4b0;" horiz-adv-x="618" 
d="M255 270h-174v84h161l-228 362h133l161 -266h6l156 266h134l-224 -362h161v-84h-174v-270h-112v270z" />
    <glyph glyph-name="uni04B1" unicode="&#x4b1;" horiz-adv-x="526" 
d="M207 0h-143v79h112l-15 35l-155 382h122l135 -366l138 366h119l-157 -382l-15 -35h113v-79h-144v-216h-110v216z" />
    <glyph glyph-name="uni0E3F" unicode="&#xe3f;" horiz-adv-x="599" 
d="M258 0h-186v684h186v100h82v-100q54 0 101.5 -24t75.5 -66t28 -93q0 -50 -25.5 -87t-68.5 -57v-5q53 -19 84.5 -60.5t31.5 -98.5t-29.5 -101t-80 -68t-109.5 -24h-8v-100h-82v100zM258 399v183h-76v-183h76zM410 427q26 27 26 63t-25.5 63.5t-67.5 28.5h-3v-183
q44 1 70 28zM258 103v198h-76v-198h76zM351 103q48 0 76.5 30t28.5 70q0 39 -28.5 68t-79.5 30h-8v-198h11z" />
    <glyph glyph-name="Wgrave" unicode="&#x1e80;" horiz-adv-x="964" 
d="M17 716h124l112 -461l12 -62h6l15 62l143 461h112l137 -461l15 -61h6l13 61l111 461h124l-188 -716h-119l-136 472l-16 64h-5l-17 -64l-142 -472h-116zM359 904h124l48 -132h-92z" />
    <glyph glyph-name="wgrave" unicode="&#x1e81;" horiz-adv-x="789" 
d="M6 496h120l98 -348h4l111 348h114l111 -348h4l97 348h118l-160 -496h-115l-113 352h-3l-112 -352h-115zM269 726h124l48 -132h-92z" />
    <glyph glyph-name="Wacute" unicode="&#x1e82;" horiz-adv-x="964" 
d="M17 716h124l112 -461l12 -62h6l15 62l143 461h112l137 -461l15 -61h6l13 61l111 461h124l-188 -716h-119l-136 472l-16 64h-5l-17 -64l-142 -472h-116zM486 904h125l-80 -132h-92z" />
    <glyph glyph-name="wacute" unicode="&#x1e83;" horiz-adv-x="789" 
d="M6 496h120l98 -348h4l111 348h114l111 -348h4l97 348h118l-160 -496h-115l-113 352h-3l-112 -352h-115zM396 726h125l-80 -132h-92z" />
    <glyph glyph-name="Wdieresis" unicode="&#x1e84;" horiz-adv-x="964" 
d="M17 716h124l112 -461l12 -62h6l15 62l143 461h112l137 -461l15 -61h6l13 61l111 461h124l-188 -716h-119l-136 472l-16 64h-5l-17 -64l-142 -472h-116zM351 798q-19 19 -19 45q0 27 19 45.5t45 18.5q27 0 45.5 -18.5t18.5 -45.5q0 -26 -18.5 -45t-45.5 -19q-26 0 -45 19z
M530 798q-19 19 -19 45q0 27 18.5 45.5t44.5 18.5q28 0 46 -18.5t18 -45.5q0 -26 -18.5 -45t-45.5 -19q-25 0 -44 19z" />
    <glyph glyph-name="wdieresis" unicode="&#x1e85;" horiz-adv-x="789" 
d="M6 496h120l98 -348h4l111 348h114l111 -348h4l97 348h118l-160 -496h-115l-113 352h-3l-112 -352h-115zM261 620q-19 19 -19 45q0 27 18.5 45.5t45.5 18.5t45.5 -18t18.5 -46q0 -26 -18.5 -45t-45.5 -19q-26 0 -45 19zM440 620q-19 19 -19 45q0 27 18.5 45.5t44.5 18.5
q28 0 46 -18t18 -46q0 -26 -18.5 -45t-45.5 -19q-25 0 -44 19z" />
    <glyph glyph-name="Ygrave" unicode="&#x1ef2;" horiz-adv-x="618" 
d="M255 333l-241 383h133l161 -266h6l156 266h134l-237 -383v-333h-112v333zM183 904h124l48 -132h-92z" />
    <glyph glyph-name="ygrave" unicode="&#x1ef3;" horiz-adv-x="535" 
d="M214 28l-207 468h123l138 -333h5l133 333h122l-310 -712h-116zM142 726h124l48 -132h-92z" />
    <glyph glyph-name="uni2000" unicode="&#x2000;" horiz-adv-x="415" 
d="M0 0z" />
    <glyph glyph-name="uni2001" unicode="&#x2001;" horiz-adv-x="830" 
d="M0 0z" />
    <glyph glyph-name="uni2002" unicode="&#x2002;" horiz-adv-x="415" 
d="M0 0z" />
    <glyph glyph-name="uni2003" unicode="&#x2003;" horiz-adv-x="830" 
d="M0 0z" />
    <glyph glyph-name="uni2004" unicode="&#x2004;" horiz-adv-x="275" 
d="M0 0z" />
    <glyph glyph-name="uni2005" unicode="&#x2005;" horiz-adv-x="207" 
d="M0 0z" />
    <glyph glyph-name="uni2006" unicode="&#x2006;" horiz-adv-x="138" 
d="M0 0z" />
    <glyph glyph-name="uni2007" unicode="&#x2007;" 
d="M0 0z" />
    <glyph glyph-name="uni2008" unicode="&#x2008;" horiz-adv-x="232" 
d="M0 0z" />
    <glyph glyph-name="uni2009" unicode="&#x2009;" horiz-adv-x="138" 
d="M0 0z" />
    <glyph glyph-name="uni200A" unicode="&#x200a;" horiz-adv-x="70" 
d="M0 0z" />
    <glyph glyph-name="endash" unicode="&#x2013;" horiz-adv-x="611" 
d="M61 357h489v-94h-489v94z" />
    <glyph glyph-name="emdash" unicode="&#x2014;" horiz-adv-x="914" 
d="M61 357h792v-94h-792v94z" />
    <glyph glyph-name="uni2015" unicode="&#x2015;" horiz-adv-x="1049" 
d="M61 357h927v-94h-927v94z" />
    <glyph glyph-name="quoteleft" unicode="&#x2018;" horiz-adv-x="249" 
d="M70.5 498q-22.5 22 -22.5 54q0 18 7 34t21 37l74 109l50 -33l-50 -77q21 -6 36 -25t15 -45q0 -31 -22 -53.5t-54 -22.5t-54.5 22z" />
    <glyph glyph-name="quoteright" unicode="&#x2019;" horiz-adv-x="249" 
d="M49 509l51 77q-22 6 -37 24.5t-15 44.5q0 32 22.5 54.5t54.5 22.5t54 -22.5t22 -54.5q0 -18 -7 -34.5t-20 -35.5l-75 -109z" />
    <glyph glyph-name="quotesinglbase" unicode="&#x201a;" horiz-adv-x="249" 
d="M49 -77l55 76q-23 6 -39.5 25t-16.5 45q0 32 22.5 54.5t54.5 22.5t54 -22.5t22 -54.5q0 -18 -7 -34.5t-20 -35.5l-75 -109z" />
    <glyph glyph-name="quotedblleft" unicode="&#x201c;" horiz-adv-x="445" 
d="M70.5 498q-22.5 22 -22.5 54q0 18 7 34t21 37l74 109l50 -33l-50 -77q21 -6 36 -25t15 -45q0 -31 -22 -53.5t-54 -22.5t-54.5 22zM266.5 498q-22.5 22 -22.5 54q0 18 7 34t21 37l74 109l50 -33l-50 -77q21 -6 36 -25t15 -45q0 -31 -22 -53.5t-54 -22.5t-54.5 22z" />
    <glyph glyph-name="quotedblright" unicode="&#x201d;" horiz-adv-x="445" 
d="M49 509l55 76q-23 6 -39.5 25t-16.5 45q0 32 22.5 54.5t54.5 22.5t54 -22.5t22 -54.5q0 -18 -7 -34.5t-20 -35.5l-75 -109zM245 509l55 76q-23 6 -39.5 25t-16.5 45q0 32 22.5 54.5t54.5 22.5t54 -22.5t22 -54.5q0 -18 -7 -34.5t-20 -35.5l-75 -109z" />
    <glyph glyph-name="quotedblbase" unicode="&#x201e;" horiz-adv-x="441" 
d="M49 -77l55 76q-23 6 -39.5 25t-16.5 45q0 32 22.5 54.5t54.5 22.5t54 -22.5t22 -54.5q0 -18 -7 -34.5t-20 -35.5l-75 -109zM241 -77l55 76q-23 6 -39.5 25t-16.5 45q0 32 22.5 54.5t54.5 22.5t54 -22.5t22 -54.5q0 -18 -7 -34.5t-20 -35.5l-75 -109z" />
    <glyph glyph-name="dagger" unicode="&#x2020;" horiz-adv-x="453" 
d="M175 485h-143v94h143v137h103v-137h143v-94h-143v-327h-103v327z" />
    <glyph glyph-name="daggerdbl" unicode="&#x2021;" horiz-adv-x="453" 
d="M175 153h-143v94h143v238h-143v94h143v137h103v-137h143v-94h-143v-238h143v-94h-143v-153h-103v153z" />
    <glyph glyph-name="bullet" unicode="&#x2022;" horiz-adv-x="410" 
d="M116.5 235.5q-36.5 36.5 -36.5 88.5t36.5 88.5t88.5 36.5t88.5 -36.5t36.5 -88.5t-36.5 -88.5t-88.5 -36.5t-88.5 36.5z" />
    <glyph glyph-name="ellipsis" unicode="&#x2026;" horiz-adv-x="738" 
d="M76.5 16.5q-22.5 22.5 -22.5 54.5t22.5 54t54.5 22t54 -22t22 -54t-22 -54.5t-54 -22.5t-54.5 22.5zM314.5 16.5q-22.5 22.5 -22.5 54.5t22.5 54t54.5 22t54 -22t22 -54t-22 -54.5t-54 -22.5t-54.5 22.5zM553.5 16.5q-22.5 22.5 -22.5 54.5t22.5 54t54.5 22t54 -22
t22 -54t-22 -54.5t-54 -22.5t-54.5 22.5z" />
    <glyph glyph-name="perthousand" unicode="&#x2030;" horiz-adv-x="1105" 
d="M123.5 381q-39.5 23 -62.5 62.5t-23 85.5t23 85.5t62.5 62.5t87.5 23t88 -23t63 -62.5t23 -85.5t-23 -85.5t-63 -62.5t-88 -23t-87.5 23zM163 33l445 663l66 -45l-444 -663zM271 465q24 25 24 64t-24 64t-60 25q-35 0 -59 -25t-24 -64t24 -64t59 -25q36 0 60 25zM539.5 7
q-39.5 23 -63 62.5t-23.5 85.5t23.5 85.5t63 62.5t87.5 23q41 0 75.5 -19.5t57.5 -52.5q22 33 57 52.5t76 19.5q48 0 88 -23t63 -62.5t23 -85.5t-23 -85.5t-63 -62.5t-88 -23q-41 0 -76 19.5t-57 52.5q-23 -33 -57.5 -52.5t-75.5 -19.5q-48 0 -87.5 23zM687 91q24 25 24 64
t-24 64t-60 25t-60 -25t-24 -64t24 -64t60 -25t60 25zM953 91q24 25 24 64t-24 64t-60 25q-35 0 -59.5 -25t-24.5 -64q0 -38 24.5 -63.5t59.5 -25.5q36 0 60 25z" />
    <glyph glyph-name="uni2031" unicode="&#x2031;" horiz-adv-x="1359" 
d="M117.5 381q-39.5 23 -62.5 62.5t-23 85.5t23 85.5t62.5 62.5t87.5 23t88 -23t63 -62.5t23 -85.5t-23 -85.5t-63 -62.5t-88 -23t-87.5 23zM157 33l445 663l66 -45l-444 -663zM265 465q24 25 24 64t-24 64t-60 25q-35 0 -59 -25t-24 -64t24 -64t59 -25q36 0 60 25zM533.5 7
q-39.5 23 -63 62.5t-23.5 85.5t23.5 85.5t63 62.5t87.5 23q41 0 75.5 -19.5t57.5 -52.5q22 33 57 52.5t76 19.5t75.5 -19.5t57.5 -52.5q22 33 57 52.5t76 19.5q48 0 88 -23t63 -62.5t23 -85.5t-23 -85.5t-63 -62.5t-88 -23q-41 0 -76 19.5t-57 52.5q-23 -33 -57.5 -52.5
t-75.5 -19.5t-76 19.5t-57 52.5q-23 -33 -57.5 -52.5t-75.5 -19.5q-48 0 -87.5 23zM681 91q24 25 24 64t-24 64t-60 25t-60 -25t-24 -64t24 -64t60 -25t60 25zM947 91q24 25 24 64t-24 64t-60 25q-35 0 -59.5 -25t-24.5 -64q0 -38 24.5 -63.5t59.5 -25.5q36 0 60 25z
M1213 91q24 25 24 64t-24 64t-60 25t-60 -25t-24 -64t24 -64t60 -25t60 25z" />
    <glyph glyph-name="guilsinglleft" unicode="&#x2039;" horiz-adv-x="370" 
d="M40 271l207 224l63 -59l-155 -165l155 -165l-63 -59z" />
    <glyph glyph-name="guilsinglright" unicode="&#x203a;" horiz-adv-x="370" 
d="M60 106l155 165l-155 165l64 59l206 -224l-206 -224z" />
    <glyph glyph-name="exclamdbl" unicode="&#x203c;" horiz-adv-x="497" 
d="M75 499v217h112v-217l-12 -266h-89zM76.5 16.5q-22.5 22.5 -22.5 54.5t22.5 54t54.5 22t54 -22t22 -54t-22 -54.5t-54 -22.5t-54.5 22.5zM310 499v217h112v-217l-12 -266h-89zM311.5 16.5q-22.5 22.5 -22.5 54.5t22.5 54t54.5 22t54 -22t22 -54t-22 -54.5t-54 -22.5
t-54.5 22.5z" />
    <glyph glyph-name="uni2042" unicode="&#x2042;" horiz-adv-x="893" 
d="M308 433l69 93l-3 8l-101 35l26 77l101 -36l6 3v108h82v-108l5 -3l101 36l26 -77l-102 -35l-2 -8l69 -93l-66 -48l-69 95h-7l-69 -95zM75 31l69 93l-3 8l-101 35l26 77l101 -36l5 3v108h82v-108l5 -3l102 36l26 -77l-102 -35l-2 -8l69 -93l-66 -48l-69 95h-7l-69 -95z
M541 31l69 93l-3 8l-101 35l26 77l101 -36l5 3v108h82v-108l5 -3l102 36l26 -77l-102 -35l-2 -8l69 -93l-66 -48l-69 95h-7l-69 -95z" />
    <glyph glyph-name="uni2043" unicode="&#x2043;" horiz-adv-x="407" 
d="M72 361h263v-102h-263v102z" />
    <glyph glyph-name="fraction" unicode="&#x2044;" horiz-adv-x="180" 
d="M-176 33l466 694l66 -45l-465 -694z" />
    <glyph glyph-name="uni2047" unicode="&#x2047;" horiz-adv-x="982" 
d="M196 274q0 46 19.5 79.5t69.5 78.5q35 32 50 54t15 53q0 39 -26.5 64t-71.5 25q-44 0 -71 -26t-40 -64l-99 42q20 60 73 106t135 46q61 0 109.5 -24.5t75 -68t26.5 -97.5q0 -53 -25.5 -90.5t-67.5 -77.5q-33 -30 -46.5 -55t-13.5 -57v-29h-112v41zM197 16.5
q-22 22.5 -22 54.5t22.5 54t53.5 22q32 0 54.5 -22t22.5 -54t-22.5 -54.5t-54.5 -22.5t-54 22.5zM664 274q0 46 19.5 79.5t69.5 78.5q35 32 50 54t15 53q0 39 -26.5 64t-71.5 25q-44 0 -71 -26t-40 -64l-99 42q20 60 73 106t135 46q61 0 109.5 -24.5t75 -68t26.5 -97.5
q0 -53 -25.5 -90.5t-67.5 -77.5q-33 -30 -46.5 -55t-13.5 -57v-29h-112v41zM665 16.5q-22 22.5 -22 54.5t22.5 54t53.5 22q32 0 54.5 -22t22.5 -54t-22.5 -54.5t-54.5 -22.5t-54 22.5z" />
    <glyph glyph-name="uni2048" unicode="&#x2048;" horiz-adv-x="739" 
d="M196 274q0 46 19.5 79.5t69.5 78.5q35 32 50 54t15 53q0 39 -26.5 64t-71.5 25q-44 0 -71 -26t-40 -64l-99 42q20 60 73 106t135 46q61 0 109.5 -24.5t75 -68t26.5 -97.5q0 -53 -25.5 -90.5t-67.5 -77.5q-33 -30 -46.5 -55t-13.5 -57v-29h-112v41zM197 16.5
q-22 22.5 -22 54.5t22.5 54t53.5 22q32 0 54.5 -22t22.5 -54t-22.5 -54.5t-54.5 -22.5t-54 22.5zM553 499v217h112v-217l-12 -266h-89zM554.5 16.5q-22.5 22.5 -22.5 54.5t22.5 54t54.5 22t54 -22t22 -54t-22 -54.5t-54 -22.5t-54.5 22.5z" />
    <glyph glyph-name="uni2049" unicode="&#x2049;" horiz-adv-x="739" 
d="M420 274q0 46 19.5 79.5t69.5 78.5q35 32 50 54t15 53q0 39 -26.5 64t-71.5 25q-44 0 -71 -26t-40 -64l-99 42q20 60 73 106t135 46q61 0 109.5 -24.5t75 -68t26.5 -97.5q0 -53 -25.5 -90.5t-67.5 -77.5q-33 -30 -46.5 -55t-13.5 -57v-29h-112v41zM421 16.5
q-22 22.5 -22 54.5t22.5 54t53.5 22q32 0 54.5 -22t22.5 -54t-22.5 -54.5t-54.5 -22.5t-54 22.5zM75 499v217h112v-217l-12 -266h-89zM76.5 16.5q-22.5 22.5 -22.5 54.5t22.5 54t54.5 22t54 -22t22 -54t-22 -54.5t-54 -22.5t-54.5 22.5z" />
    <glyph glyph-name="uni204E" unicode="&#x204e;" horiz-adv-x="413" 
d="M60 37l74 101l-2 8l-110 38l27 81l109 -39l6 2v117h85v-117l6 -2l109 39l27 -81l-109 -38l-3 -8l74 -101l-68 -50l-75 103h-7l-75 -103z" />
    <glyph glyph-name="uni2051" unicode="&#x2051;" horiz-adv-x="427" 
d="M75 433l69 93l-3 8l-101 35l26 77l101 -36l5 3v108h82v-108l5 -3l102 36l26 -77l-102 -35l-2 -8l69 -93l-66 -48l-69 95h-7l-69 -95zM75 33l69 93l-3 8l-101 35l26 77l101 -36l5 3v108h82v-108l5 -3l102 36l26 -77l-102 -35l-2 -8l69 -93l-66 -48l-69 95h-7l-69 -95z" />
    <glyph glyph-name="uni2055" unicode="&#x2055;" horiz-adv-x="670" 
d="M291 220l-122 -122l-62 62l123 121h-174v88h174l-123 121l62 62l122 -122v174h88v-174l122 122l62 -62l-123 -121h174v-88h-174l123 -121l-62 -62l-122 122v-174h-88v174z" />
    <glyph glyph-name="uni2074" unicode="&#x2074;" horiz-adv-x="353" 
d="M200 419h-172v55l172 242h77v-231h48v-66h-48v-69h-77v69zM200 485v120h-6l-86 -120h92z" />
    <glyph glyph-name="franc" unicode="&#x20a3;" horiz-adv-x="566" 
d="M206 583v-199h288v-100h-288v-94h132v-76h-132v-114h-106v114h-73v76h73v494h426v-101h-320z" />
    <glyph glyph-name="lira" unicode="&#x20a4;" horiz-adv-x="541" 
d="M522 121q-19 -57 -60 -89t-106 -32h-313v92q64 28 90 85h-95v76h106q-4 33 -21 73h-85v76h47q-25 54 -25 98q0 54 26.5 99.5t74.5 73t109 27.5q83 0 134 -43t70 -102l-98 -40q-10 35 -36.5 59.5t-69.5 24.5q-47 0 -75 -30t-28 -71q0 -24 6.5 -46t19.5 -50h160v-76h-127
q13 -37 16 -73h111v-76h-121q-15 -41 -45 -71l4 -5h164q32 0 51 14.5t29 43.5z" />
    <glyph glyph-name="uni20A9" unicode="&#x20a9;" horiz-adv-x="997" 
d="M145 326h-108v76h89l-76 282h121l68 -282h118l88 282h114l84 -282h116l68 282h121l-75 -282h84v-76h-104l-86 -326h-113l-95 326h-117l-100 -326h-109zM537 402l-15 52l-17 70h-6l-17 -70l-16 -52h71zM294 183l17 64l24 79h-78l18 -79l14 -64h5zM709 184l14 63l18 79h-76
l23 -79l16 -63h5z" />
    <glyph glyph-name="dong" unicode="&#x20ab;" horiz-adv-x="589" 
d="M151.5 16q-53.5 32 -85.5 90t-32 131t32 131t85.5 90t115.5 32q54 0 92.5 -22.5t59.5 -57.5h6l-6 69v60h-140v74h140v71h110v-71h62v-74h-62v-539h-104v64h-6q-21 -35 -59.5 -57.5t-92.5 -22.5q-62 0 -115.5 32zM386 125q39 40 39 112t-39 112t-99 40t-101.5 -40.5
t-41.5 -111.5t41.5 -111.5t101.5 -40.5t99 40zM71 -84h458v-85h-458v85z" />
    <glyph glyph-name="Euro" unicode="&#x20ac;" horiz-adv-x="648" 
d="M620 27q-73 -43 -168 -43q-115 0 -203.5 64t-123.5 172h-97v84h81q-2 24 -2 38t2 38h-81v84h97q35 108 123.5 172t203.5 64q85 0 153 -43l-52 -89q-46 27 -101 27q-68 0 -123.5 -34t-84.5 -97h214v-84h-237q-2 -24 -2 -38t2 -38h237v-84h-214q29 -63 84.5 -97t123.5 -34
q65 0 120 33z" />
    <glyph glyph-name="uni20AE" unicode="&#x20ae;" horiz-adv-x="544" 
d="M219 117l-121 -76h-3v101l124 77v78l-124 -78v104l124 77v183h-193v101h492v-101h-193v-122l121 76h3v-101l-124 -78v-77l124 79v-104l-124 -78v-178h-106v117z" />
    <glyph glyph-name="uni20B1" unicode="&#x20b1;" horiz-adv-x="652" 
d="M633 438h-62q-13 -79 -75.5 -125t-149.5 -46h-135v-267h-106v438h-76v76h76v170h241q86 0 149 -46t76 -124h62v-76zM211 514h250q-12 31 -41 50t-70 19h-139v-69zM420 387.5q29 19.5 41 50.5h-250v-70h139q41 0 70 19.5z" />
    <glyph glyph-name="uni20B8" unicode="&#x20b8;" horiz-adv-x="544" 
d="M26 684h492v-93h-492v93zM219 426h-193v92h492v-92h-193v-426h-106v426z" />
    <glyph glyph-name="uni20B9" unicode="&#x20b9;" horiz-adv-x="572" 
d="M436 608q37 -38 47 -90h63v-76h-62q-13 -74 -72 -121.5t-136 -50.5h-13l-2 -5l255 -259v-6h-150l-255 264v105h152q39 0 69 19.5t42 53.5h-348v76h347q-11 32 -39 52.5t-67 20.5h-241v93h520v-76h-110z" />
    <glyph glyph-name="uni20BA" unicode="&#x20ba;" horiz-adv-x="547" 
d="M521 261q0 -73 -36 -132.5t-98 -94t-139 -34.5h-99v176l-123 -77v103l123 77v86l-123 -77v104l123 77v215h106v-154l125 79v-104l-125 -79v-85l125 79v-104l-125 -79v-138q47 2 84.5 25t58 59.5t20.5 77.5h103z" />
    <glyph glyph-name="uni20BD" unicode="&#x20bd;" horiz-adv-x="602" 
d="M103 114h-76v76h76v77h-76v93h76v324h241q63 0 115 -25.5t82.5 -72.5t30.5 -110t-30.5 -110.5t-82.5 -73t-115 -25.5h-135v-77h133v-76h-133v-114h-106v114zM348 368q54 0 86 32t32 76t-32 75.5t-86 31.5h-139v-215h139z" />
    <glyph glyph-name="uni2103" unicode="&#x2103;" horiz-adv-x="971" 
d="M97.5 459.5q-30.5 17.5 -48 47t-17.5 64.5t17.5 65t48 47t65.5 17t65 -17t47.5 -47t17.5 -65t-17.5 -64.5t-47.5 -47t-65 -17.5t-65.5 17.5zM481 31q-82 47 -129 129t-47 182t47 182t129 129t182 47q77 0 140.5 -29.5t112.5 -83.5l-76 -75q-68 83 -177 83q-69 0 -125 -31
t-89 -88.5t-33 -133.5t33 -133.5t89 -88.5t125 -31q116 0 195 95l77 -75q-50 -59 -119 -92t-153 -33q-100 0 -182 47zM203 529.5q16 17.5 16 41.5q0 25 -16 42t-40 17q-25 0 -41 -17t-16 -42q0 -24 16.5 -41.5t40.5 -17.5t40 17.5z" />
    <glyph glyph-name="uni2109" unicode="&#x2109;" horiz-adv-x="822" 
d="M97.5 459.5q-30.5 17.5 -48 47t-17.5 64.5t17.5 65t48 47t65.5 17t65 -17t47.5 -47t17.5 -65t-17.5 -64.5t-47.5 -47t-65 -17.5t-65.5 17.5zM372 684h418v-105h-308v-193h278v-104h-278v-282h-110v684zM203 529.5q16 17.5 16 41.5q0 25 -16 42t-40 17q-25 0 -41 -17
t-16 -42q0 -24 16.5 -41.5t40.5 -17.5t40 17.5z" />
    <glyph glyph-name="uni2113" unicode="&#x2113;" horiz-adv-x="441" 
d="M151 36.5q-46 44.5 -46 122.5v114h-89v95h89v196q0 74 40 121t115 47q41 0 75 -22.5t54 -64t20 -95.5q0 -64 -25 -121t-70 -96.5t-102 -53.5v-107q0 -40 18 -60t49 -20q35 0 69 22v-110q-34 -12 -74 -12q-77 0 -123 44.5zM281.5 442q23.5 46 23.5 108q0 41 -14 63.5
t-34 22.5q-45 0 -45 -70v-188q46 18 69.5 64z" />
    <glyph glyph-name="uni2114" unicode="&#x2114;" horiz-adv-x="824" 
d="M678 472q54 -34 86 -93.5t32 -133.5t-32 -133.5t-86 -93.5t-116 -34q-54 0 -96 22.5t-63 57.5h-6v-64h-104v572h-95v-572h-110v572h-64v72h64v72h110v-72h95v72h110v-72h138v-72h-138v-77l-6 -69h6q21 35 63 57.5t96 22.5q62 0 116 -34zM613 104.5q33 19.5 53 56t20 84.5
t-20 84.5t-53 56t-71 19.5q-39 0 -72 -19.5t-53 -56t-20 -84.5t20 -84.5t53 -56t72 -19.5q38 0 71 19.5z" />
    <glyph glyph-name="uni2116" unicode="&#x2116;" horiz-adv-x="1085" 
d="M795.5 413q-39.5 23 -62.5 62.5t-23 85.5t23 85.5t62.5 62.5t86.5 23t86 -23t62 -62.5t23 -85.5t-23 -85.5t-62 -62.5t-86 -23t-86.5 23zM72 716h133l320 -521h6l-6 138v383h111v-716h-117l-336 548h-6l6 -138v-410h-111v716zM944.5 493q25.5 27 25.5 68t-25.5 68
t-62.5 27t-63 -27t-26 -68t26 -68t63 -27t62.5 27zM742 316h280v-78h-280v78z" />
    <glyph glyph-name="uni2117" unicode="&#x2117;" horiz-adv-x="532" 
d="M151 303q-53 31 -84 84t-31 115t31 115t84 84t115 31t115 -31t84 -84t31 -115t-31 -115t-84 -84t-115 -31t-115 31zM357.5 344.5q41.5 24.5 66 66.5t24.5 91q0 50 -24.5 91.5t-66 66t-91.5 24.5q-49 0 -91 -24.5t-66.5 -66t-24.5 -91.5q0 -49 25 -90.5t66.5 -66.5
t90.5 -25q50 0 91.5 24.5zM197 615h96q29 0 51 -21t22 -51t-22 -51t-51 -21h-50v-82h-46v226zM289 515q13 0 22 8t9 20q0 11 -8.5 19.5t-21.5 8.5h-47v-56h46z" />
    <glyph glyph-name="prescription" unicode="&#x211e;" horiz-adv-x="707" 
d="M258 -154l157 223l-146 211h-85v-280h-112v716h252q64 0 117 -27.5t83.5 -76.5t30.5 -111q0 -75 -46.5 -131.5t-118.5 -75.5l-1 -5l90 -129l91 130h117v-6l-146 -213l158 -225v-6h-125l-97 140l-96 -140h-123v6zM321 385q51 0 86 32t35 81q0 28 -14 53.5t-40.5 41.5
t-62.5 16h-141v-224h137z" />
    <glyph glyph-name="uni2120" unicode="&#x2120;" horiz-adv-x="498" 
d="M50 502q-25 16 -34 44l41 18q5 -15 19 -25.5t28 -10.5t25 7t11 18q0 12 -12 20t-40 16q-29 7 -46.5 24t-17.5 42q0 29 23.5 47t56.5 18q25 0 47.5 -14.5t30.5 -37.5l-40 -16q-2 8 -13 17t-25 9q-15 0 -24.5 -6.5t-9.5 -16.5q0 -16 39 -28q35 -11 56 -27t21 -47
q0 -33 -26 -50t-56 -17q-29 0 -54 16zM222 716h62l63 -162h2l63 162h62v-226h-44v118l2 44h-2l-66 -162h-32l-66 162h-2l2 -44v-118h-44v226z" />
    <glyph glyph-name="trademark" unicode="&#x2122;" horiz-adv-x="501" 
d="M77 674h-69v42h181v-42h-66v-184h-46v184zM225 716h62l63 -162h2l63 162h62v-226h-44v118l2 44h-2l-66 -162h-32l-66 162h-2l2 -44v-118h-44v226z" />
    <glyph glyph-name="uni2126" unicode="&#x2126;" horiz-adv-x="807" 
d="M63 102h146v6q-73 40 -116.5 113t-43.5 168q0 92 46 170.5t127 125.5t181 47t181.5 -46.5t127.5 -125.5t46 -171q0 -95 -43.5 -168t-116.5 -113v-6h146v-102h-288v145q82 21 135.5 85.5t53.5 154.5q0 68 -32.5 122.5t-88 86t-121.5 31.5q-65 0 -120.5 -31.5t-88 -86
t-32.5 -122.5q0 -89 53 -154t135 -86v-145h-287v102z" />
    <glyph glyph-name="estimated" unicode="&#x212e;" horiz-adv-x="784" 
d="M218.5 33q-82.5 49 -128.5 134.5t-46 190.5q0 100 44.5 185.5t124 137t179.5 51.5q104 0 182.5 -46.5t122 -131t43.5 -196.5l-1 -23l-551 1v-185q37 -52 95.5 -77.5t123.5 -25.5q81 0 144 37t98 119l68 -28q-34 -82 -115.5 -137t-195.5 -55q-105 0 -187.5 49zM596 396
v194q-34 39 -87.5 58.5t-116.5 19.5q-61 0 -114 -23t-90 -68v-181h408z" />
    <glyph glyph-name="uni2153" unicode="&#x2153;" horiz-adv-x="826" 
d="M141 616l-49 -42l-44 59l102 83h70v-366h-79v266zM117 33l466 694l66 -45l-465 -694zM532 17.5q-38 25.5 -50 74.5l73 27q7 -29 24.5 -43t39.5 -14q23 0 39.5 14t16.5 36q0 21 -17 33.5t-42 12.5h-40v64h36q23 0 37 11.5t14 31.5q0 17 -13 28t-32 11q-40 0 -55 -40
l-69 28q13 38 45 60t80 22q54 0 88.5 -30t34.5 -74q0 -48 -44 -77q26 -14 41.5 -35.5t15.5 -48.5q0 -53 -40 -85t-96 -32q-49 0 -87 25.5z" />
    <glyph glyph-name="uni2154" unicode="&#x2154;" horiz-adv-x="885" 
d="M51 412l131 131q21 22 31.5 37t10.5 33q0 17 -14 28.5t-33 11.5q-22 0 -37 -13.5t-20 -40.5l-72 29q10 44 46 70t82 26q53 0 90.5 -30t37.5 -78q0 -31 -18.5 -58.5t-44.5 -53.5q-23 -22 -48.5 -47.5l-35.5 -35.5h149v-71h-255v62zM176 33l466 694l66 -45l-465 -694z
M586 17.5q-38 25.5 -50 74.5l73 27q7 -29 24.5 -43t39.5 -14q23 0 39.5 14t16.5 36q0 21 -17 33.5t-42 12.5h-40v64h36q23 0 37 11.5t14 31.5q0 17 -13 28t-32 11q-40 0 -55 -40l-69 28q13 38 45 60t80 22q54 0 88.5 -30t34.5 -74q0 -48 -44 -77q26 -14 41.5 -35.5
t15.5 -48.5q0 -53 -40 -85t-96 -32q-49 0 -87 25.5z" />
    <glyph glyph-name="oneeighth" unicode="&#x215b;" horiz-adv-x="809" 
d="M141 616l-49 -42l-44 59l102 83h70v-366h-79v266zM113 33l466 694l66 -45l-465 -694zM522 23q-41 31 -41 83q0 26 13.5 49t37.5 38q-18 11 -28.5 31t-10.5 41q0 49 36.5 79t87.5 30t87.5 -30t36.5 -79q0 -20 -11 -40t-29 -32q24 -15 38 -37.5t14 -49.5q0 -52 -41 -83
t-95 -31t-95 31zM648.5 234q13.5 12 13.5 30q0 17 -13 29t-32 12q-20 0 -32.5 -11.5t-12.5 -29.5t13.5 -30t31.5 -12t31.5 12zM655.5 75q17.5 14 17.5 36q0 20 -17.5 34t-38.5 14q-22 0 -39.5 -13.5t-17.5 -34.5q0 -22 17 -36t40 -14q21 0 38.5 14z" />
    <glyph glyph-name="threeeighths" unicode="&#x215c;" horiz-adv-x="847" 
d="M98 367.5q-38 25.5 -50 74.5l73 27q7 -29 24.5 -43t39.5 -14q23 0 39.5 14t16.5 36q0 21 -17 33.5t-42 12.5h-40v64h36q23 0 37 11.5t14 31.5q0 17 -13 28t-32 11q-40 0 -55 -40l-69 28q13 38 45 60t80 22q54 0 88.5 -30t34.5 -74q0 -48 -44 -77q26 -14 41.5 -35.5
t15.5 -48.5q0 -53 -40 -85t-96 -32q-49 0 -87 25.5zM158 33l466 694l66 -45l-465 -694zM560 23q-41 31 -41 83q0 26 13.5 49t37.5 38q-18 11 -28.5 31t-10.5 41q0 49 36.5 79t87.5 30t87.5 -30t36.5 -79q0 -20 -11 -40t-29 -32q24 -15 38 -37.5t14 -49.5q0 -52 -41 -83
t-95 -31t-95 31zM686.5 234q13.5 12 13.5 30q0 17 -13 29t-32 12q-20 0 -32.5 -11.5t-12.5 -29.5t13.5 -30t31.5 -12t31.5 12zM693.5 75q17.5 14 17.5 36q0 20 -17.5 34t-38.5 14q-22 0 -39.5 -13.5t-17.5 -34.5q0 -22 17 -36t40 -14q21 0 38.5 14z" />
    <glyph glyph-name="fiveeighths" unicode="&#x215d;" horiz-adv-x="847" 
d="M99 365.5q-38 22.5 -51 68.5l72 28q5 -23 22 -36t40 -13q24 0 40.5 17t16.5 42t-16.5 41.5t-39.5 16.5q-35 0 -57 -31l-67 28l24 189h214v-66h-151l-12 -74q23 19 61 19q51 0 87 -34.5t36 -90.5q0 -36 -18.5 -65t-49.5 -45.5t-67 -16.5q-46 0 -84 22.5zM155 33l466 694
l66 -45l-465 -694zM561 23q-41 31 -41 83q0 26 13.5 49t37.5 38q-18 11 -28.5 31t-10.5 41q0 49 36.5 79t87.5 30t87.5 -30t36.5 -79q0 -20 -11 -40t-29 -32q24 -15 38 -37.5t14 -49.5q0 -52 -41 -83t-95 -31t-95 31zM687.5 234q13.5 12 13.5 30q0 17 -13 29t-32 12
q-20 0 -32.5 -11.5t-12.5 -29.5t13.5 -30t31.5 -12t31.5 12zM694.5 75q17.5 14 17.5 36q0 20 -17.5 34t-38.5 14q-22 0 -39.5 -13.5t-17.5 -34.5q0 -22 17 -36t40 -14q21 0 38.5 14z" />
    <glyph glyph-name="seveneighths" unicode="&#x215e;" horiz-adv-x="772" 
d="M60 371l151 273h-163v72h255v-68l-173 -313zM65 33l466 694l66 -45l-465 -694zM486 23q-41 31 -41 83q0 26 13.5 49t37.5 38q-18 11 -28.5 31t-10.5 41q0 49 36.5 79t87.5 30t87.5 -30t36.5 -79q0 -20 -11 -40t-29 -32q24 -15 38 -37.5t14 -49.5q0 -52 -41 -83t-95 -31
t-95 31zM612.5 234q13.5 12 13.5 30q0 17 -13 29t-32 12q-20 0 -32.5 -11.5t-12.5 -29.5t13.5 -30t31.5 -12t31.5 12zM619.5 75q17.5 14 17.5 36q0 20 -17.5 34t-38.5 14q-22 0 -39.5 -13.5t-17.5 -34.5q0 -22 17 -36t40 -14q21 0 38.5 14z" />
    <glyph glyph-name="uni2160" unicode="&#x2160;" horiz-adv-x="464" 
d="M24 102h153v480h-153v102h416v-102h-153v-480h153v-102h-416v102z" />
    <glyph glyph-name="uni2161" unicode="&#x2161;" horiz-adv-x="724" 
d="M24 102h153v480h-153v102h676v-102h-153v-480h153v-102h-676v102zM437 102v480h-150v-480h150z" />
    <glyph glyph-name="uni2162" unicode="&#x2162;" horiz-adv-x="984" 
d="M24 102h153v480h-153v102h936v-102h-153v-480h153v-102h-936v102zM437 102v480h-150v-480h150zM697 102v480h-150v-480h150z" />
    <glyph glyph-name="uni2163" unicode="&#x2163;" horiz-adv-x="1006" 
d="M24 102h153v480h-153v102h958v-102h-122l-152 -480h274v-102h-958v102zM542 102l-152 480h-103v-480h255zM628 171l17 68l100 343h-240l99 -343l18 -68h6z" />
    <glyph glyph-name="uni2164" unicode="&#x2164;" horiz-adv-x="762" 
d="M24 102h274l-152 480h-122v102h714v-102h-122l-152 -480h274v-102h-714v102zM384 171l17 68l100 343h-240l99 -343l18 -68h6z" />
    <glyph glyph-name="uni2165" unicode="&#x2165;" horiz-adv-x="1034" 
d="M24 102h274l-152 480h-122v102h958v-102h-153v-480h153v-102h-958v102zM384 171l17 68l100 343h-240l99 -343l18 -68h6zM719 102v480h-103l-152 -480h255z" />
    <glyph glyph-name="uni2166" unicode="&#x2166;" horiz-adv-x="1274" 
d="M24 102h274l-152 480h-122v102h1218v-102h-153v-480h153v-102h-1218v102zM384 171l17 68l100 343h-240l99 -343l18 -68h6zM719 102v480h-103l-152 -480h255zM979 102v480h-150v-480h150z" />
    <glyph glyph-name="uni2167" unicode="&#x2167;" horiz-adv-x="1526" 
d="M24 102h274l-152 480h-122v102h1478v-102h-153v-480h153v-102h-1478v102zM384 171l17 68l100 343h-240l99 -343l18 -68h6zM719 102v480h-103l-152 -480h255zM979 102v480h-150v-480h150zM1239 102v480h-150v-480h150z" />
    <glyph glyph-name="uni2168" unicode="&#x2168;" horiz-adv-x="952" 
d="M24 102h153v480h-153v102h904v-102h-109l-158 -240l159 -240h108v-102h-904v102zM376 102l159 240l-158 240h-90v-480h89zM599 433l18 32l76 117h-191l77 -117l17 -32h3zM693 102l-76 116l-18 33h-3l-17 -33l-77 -116h191z" />
    <glyph glyph-name="uni2169" unicode="&#x2169;" horiz-adv-x="707" 
d="M24 102h107l159 240l-158 240h-108v102h659v-102h-109l-158 -240l159 -240h108v-102h-659v102zM354 433l18 32l76 117h-191l77 -117l17 -32h3zM448 102l-76 116l-18 33h-3l-17 -33l-77 -116h191z" />
    <glyph glyph-name="uni216A" unicode="&#x216a;" horiz-adv-x="952" 
d="M24 102h107l159 240l-158 240h-108v102h904v-102h-153v-480h153v-102h-904v102zM355 433l18 32l76 117h-192l78 -117l17 -32h3zM665 102v480h-91l-157 -240l158 -240h90zM449 102l-76 116l-18 33h-3l-18 -33l-76 -116h191z" />
    <glyph glyph-name="uni216B" unicode="&#x216b;" horiz-adv-x="1212" 
d="M24 102h107l159 240l-158 240h-108v102h1164v-102h-153v-480h153v-102h-1164v102zM355 433l18 32l76 117h-192l78 -117l17 -32h3zM665 102v480h-91l-157 -240l158 -240h90zM925 102v480h-150v-480h150zM449 102l-76 116l-18 33h-3l-18 -33l-76 -116h191z" />
    <glyph glyph-name="uni216C" unicode="&#x216c;" horiz-adv-x="639" 
d="M24 102h129v480h-129v102h368v-102h-129v-480h238v138h110v-240h-587v102z" />
    <glyph glyph-name="uni216D" unicode="&#x216d;" horiz-adv-x="739" 
d="M221 30.5q-82 46.5 -129.5 128t-47.5 183.5q0 101 48 183t129 128.5t177 46.5q56 0 103 -19t83 -53h6v56h100v-201h-100q-28 54 -77 84t-113 30t-120.5 -30.5t-91 -88.5t-34.5 -136t34.5 -136t91.5 -88.5t123 -30.5q71 0 124 30t94 95l90 -58q-109 -170 -308 -170
q-100 0 -182 46.5z" />
    <glyph glyph-name="uni216E" unicode="&#x216e;" horiz-adv-x="745" 
d="M24 102h126v480h-126v102h320q108 0 189 -43t124.5 -120.5t43.5 -178.5t-43.5 -178.5t-124.5 -120.5t-189 -43h-320v102zM347 102q116 0 181 64t65 176q0 111 -65 175.5t-181 64.5h-91v-480h91z" />
    <glyph glyph-name="uni216F" unicode="&#x216f;" horiz-adv-x="994" 
d="M24 102h127v480h-127v102h274l196 -513h6l196 513h274v-102h-127v-480h127v-102h-324v102h91v285l6 122h-6l-196 -509h-87l-197 509h-6l6 -122v-285h92v-102h-325v102z" />
    <glyph glyph-name="uni2180" unicode="&#x2180;" horiz-adv-x="1120" 
d="M212 43q-81 43 -124.5 120.5t-43.5 178.5t43.5 178.5t124.5 120.5t188 43h284q107 0 188 -43t124.5 -120.5t43.5 -178.5t-43.5 -178.5t-124.5 -120.5t-188 -43h-284q-107 0 -188 43zM489 102v480h-91q-117 0 -181.5 -64.5t-64.5 -175.5q0 -112 64.5 -176t181.5 -64h91z
M686 102q116 0 181 64t65 176q0 111 -65 175.5t-181 64.5h-91v-480h91z" />
    <glyph glyph-name="uni2181" unicode="&#x2181;" horiz-adv-x="745" 
d="M24 102h126v480h-126v102h320q108 0 189 -43t124.5 -120.5t43.5 -178.5t-43.5 -178.5t-124.5 -120.5t-189 -43h-320v102zM347 102q116 0 181 64t65 176q0 111 -65 175.5t-181 64.5h-91v-70h36q49 0 89 -23t63 -62t23 -85q0 -47 -23 -85.5t-63 -61.5t-89 -23h-36v-70h91z
M295 252q36 0 60 25.5t24 64.5q0 40 -24 65t-60 25h-39v-180h39z" />
    <glyph glyph-name="uni2182" unicode="&#x2182;" horiz-adv-x="1084" 
d="M212 43q-81 43 -124.5 120.5t-43.5 178.5t43.5 178.5t124.5 120.5t188 43h284q107 0 188 -43t124.5 -120.5t43.5 -178.5t-43.5 -178.5t-124.5 -120.5t-188 -43h-284q-107 0 -188 43zM489 102v70h-36q-49 0 -89 23t-63 62t-23 85q0 47 23 85.5t63 61.5t89 23h36v70h-91
q-117 0 -181.5 -64.5t-64.5 -175.5q0 -112 64.5 -176t181.5 -64h91zM686 102q116 0 181 64t65 176q0 111 -65 175.5t-181 64.5h-91v-70h36q49 0 89 -23t63 -62t23 -85q0 -47 -23 -85.5t-63 -61.5t-89 -23h-36v-70h91zM489 252v180h-39q-36 0 -60 -25t-24 -65q0 -39 24 -64.5
t60 -25.5h39zM634 252q36 0 60 25.5t24 64.5q0 40 -24 65t-60 25h-39v-180h39z" />
    <glyph glyph-name="arrowleft" unicode="&#x2190;" horiz-adv-x="1101" 
d="M48 310l217 217v-168h780v-98h-780v-168z" />
    <glyph glyph-name="arrowup" unicode="&#x2191;" horiz-adv-x="514" 
d="M208 610h-168l217 217l217 -217h-168v-742h-98v742z" />
    <glyph glyph-name="arrowright" unicode="&#x2192;" horiz-adv-x="1101" 
d="M836 261h-780v98h780v168l217 -217l-217 -217v168z" />
    <glyph glyph-name="arrowdown" unicode="&#x2193;" horiz-adv-x="514" 
d="M40 60h168v741h98v-741h168l-217 -217z" />
    <glyph glyph-name="uni2196" unicode="&#x2196;" horiz-adv-x="781" 
d="M159 534l-119 -119v307h307l-119 -119l553 -551l-70 -70z" />
    <glyph glyph-name="uni2197" unicode="&#x2197;" horiz-adv-x="781" 
d="M0 52l553 551l-119 119h307v-307l-119 119l-552 -552z" />
    <glyph glyph-name="uni2198" unicode="&#x2198;" horiz-adv-x="781" 
d="M40 301l119 -119l552 552l70 -70l-553 -551l119 -119h-307v307z" />
    <glyph glyph-name="uni2199" unicode="&#x2199;" horiz-adv-x="781" 
d="M553 113l-553 551l70 70l552 -552l119 119v-307h-307z" />
    <glyph glyph-name="uni21C4" unicode="&#x21c4;" horiz-adv-x="1120" 
d="M855 485h-780v98h780v168l217 -217l-217 -217v168zM48 192l217 217v-168h780v-98h-780v-168z" />
    <glyph glyph-name="partialdiff" unicode="&#x2202;" horiz-adv-x="574" 
d="M162.5 16.5q-56.5 32.5 -89.5 89t-33 125.5q0 70 33 125.5t87.5 86.5t114.5 31q71 0 114 -41l5 5q-35 76 -107.5 124.5t-163.5 72.5l37 89q122 -30 205.5 -97t126 -161t42.5 -207q0 -82 -31.5 -144t-88 -96.5t-129.5 -34.5q-66 0 -122.5 32.5zM354.5 104q31.5 18 50.5 51
t19 75t-18.5 75t-50 51t-68.5 18q-38 0 -69.5 -18t-50 -51t-18.5 -75t18.5 -75t50 -51t68.5 -18t68.5 18z" />
    <glyph glyph-name="uni2206" unicode="&#x2206;" horiz-adv-x="686" 
d="M279 716h128l265 -716h-658zM512 105l-166 473h-6l-166 -473h338z" />
    <glyph glyph-name="product" unicode="&#x220f;" horiz-adv-x="691" 
d="M79 716h533v-716h-112v609h-309v-609h-112v716z" />
    <glyph glyph-name="summation" unicode="&#x2211;" horiz-adv-x="523" 
d="M47 113l203 253l-203 237v113h445v-105h-316l207 -245l-207 -261h316v-105h-445v113z" />
    <glyph glyph-name="minus" unicode="&#x2212;" horiz-adv-x="569" 
d="M61 318h447v-94h-447v94z" />
    <glyph glyph-name="uni2215" unicode="&#x2215;" horiz-adv-x="457" 
d="M327 716h106l-297 -716h-106z" />
    <glyph glyph-name="radical" unicode="&#x221a;" horiz-adv-x="707" 
d="M12 490h124l89 -287l20 -79h6l21 79l201 613h222v-96h-130l-261 -768h-112z" />
    <glyph glyph-name="infinity" unicode="&#x221e;" horiz-adv-x="746" 
d="M109 124.5q-39 22.5 -62 61t-23 84.5t23 84.5t62 61t86 22.5q39 0 69 -13.5t52 -33.5t56 -58q46 53 84 79t95 26q47 0 86 -22.5t62 -61t23 -84.5t-23 -84.5t-62 -61t-86 -22.5q-57 0 -96 26t-84 80q-32 -37 -55 -58t-52.5 -34.5t-68.5 -13.5q-47 0 -86 22.5zM235 188.5
q17 8.5 32.5 24t54.5 57.5q-7 7 -36 39q-29 31 -48.5 41t-42.5 10q-37 0 -61.5 -25t-24.5 -65t24.5 -65t61.5 -25q23 0 40 8.5zM612 205q24 25 24 65t-24 65t-61 25q-33 0 -56.5 -18t-72.5 -72q35 -39 52.5 -55.5t35.5 -25.5t41 -9q37 0 61 25z" />
    <glyph glyph-name="integral" unicode="&#x222b;" horiz-adv-x="352" 
d="M32 -122h13q34 0 55 20t21 57v658q0 82 46.5 130.5t126.5 48.5h26v-104h-12q-35 0 -56 -20t-21 -57v-659q0 -82 -46 -130t-126 -48h-27v104z" />
    <glyph glyph-name="approxequal" unicode="&#x2248;" horiz-adv-x="581" 
d="M347.5 347q-29.5 9 -69.5 26q-35 14 -55 20.5t-35 6.5q-22 0 -34.5 -13.5t-14.5 -33.5h-87q0 65 36 104t91 39q27 0 55.5 -9t71.5 -27q7 -3 27 -10.5t34.5 -11.5t25.5 -4q22 0 34.5 13.5t14.5 33.5h87q0 -65 -36 -104t-91 -39q-25 0 -54.5 9zM347.5 151q-29.5 9 -69.5 26
q-35 14 -55 20.5t-35 6.5q-22 0 -34.5 -13.5t-14.5 -33.5h-87q0 65 36 104t91 39q27 0 55.5 -9t71.5 -27q7 -3 27 -10.5t34.5 -11.5t25.5 -4q22 0 34.5 13.5t14.5 33.5h87q0 -65 -36 -104t-91 -39q-25 0 -54.5 9z" />
    <glyph glyph-name="notequal" unicode="&#x2260;" horiz-adv-x="571" 
d="M366 369l-62 -100h211v-95h-271l-78 -126l-72 44l51 82h-89v95h148l63 100h-211v95h270l79 127l71 -45l-51 -82h90v-95h-149z" />
    <glyph glyph-name="lessequal" unicode="&#x2264;" horiz-adv-x="518" 
d="M56 323v84l402 188v-105l-277 -122v-6l277 -122v-105zM56 95h402v-95h-402v95z" />
    <glyph glyph-name="greaterequal" unicode="&#x2265;" horiz-adv-x="518" 
d="M60 240l277 122v6l-277 122v105l402 -188v-84l-402 -188v105zM60 95h402v-95h-402v95z" />
    <glyph glyph-name="filledbox" unicode="&#x25a0;" horiz-adv-x="860" 
d="M72 716h716v-716h-716v716z" />
    <glyph glyph-name="uni25A1" unicode="&#x25a1;" horiz-adv-x="860" 
d="M72 716h716v-716h-716v716zM700 88v540h-540v-540h540z" />
    <glyph glyph-name="triagup" unicode="&#x25b2;" horiz-adv-x="870" 
d="M435 748l431 -748h-862z" />
    <glyph glyph-name="uni25B3" unicode="&#x25b3;" horiz-adv-x="870" 
d="M435 748l431 -748h-862zM714 88l-279 485l-278 -485h557z" />
    <glyph glyph-name="lozenge" unicode="&#x25ca;" horiz-adv-x="542" 
d="M24 358l197 358h100l197 -358l-197 -358h-100zM274 106l132 252l-132 252h-6l-132 -252l132 -252h6z" />
    <glyph glyph-name="circle" unicode="&#x25cb;" horiz-adv-x="836" 
d="M231 34.5q-86 50.5 -136.5 136.5t-50.5 187t50.5 187t136.5 136.5t187 50.5t187 -50.5t136.5 -136.5t50.5 -187t-50.5 -187t-136.5 -136.5t-187 -50.5t-187 50.5zM561.5 110.5q65.5 38.5 104 104.5t38.5 143q0 78 -38.5 143.5t-104 104t-143.5 38.5q-77 0 -143 -38.5
t-104.5 -104t-38.5 -143.5q0 -77 38.5 -143t104.5 -104.5t143 -38.5q78 0 143.5 38.5z" />
    <glyph glyph-name="uni25CF" unicode="&#x25cf;" horiz-adv-x="836" 
d="M231 34.5q-86 50.5 -136.5 136.5t-50.5 187t50.5 187t136.5 136.5t187 50.5t187 -50.5t136.5 -136.5t50.5 -187t-50.5 -187t-136.5 -136.5t-187 -50.5t-187 50.5z" />
    <glyph glyph-name="uni2713" unicode="&#x2713;" horiz-adv-x="934" 
d="M8 300l68 68l224 -238l560 605l66 -65l-627 -678z" />
    <glyph glyph-name="uni2715" unicode="&#x2715;" horiz-adv-x="741" 
d="M8 51l301 307l-301 307l63 64l300 -309l299 309l63 -64l-300 -307l300 -307l-63 -65l-299 309l-300 -309z" />
    <glyph glyph-name="uni275B" unicode="&#x275b;" horiz-adv-x="351" 
d="M89 413q-33 47 -49 82.5t-16 77.5t20.5 78.5t55.5 58.5t76 22q42 0 76.5 -19.5t54.5 -54t20 -77.5q0 -42 -22.5 -74t-54 -49.5t-57.5 -19.5l-5 -5l109 -155l-76 -52z" />
    <glyph glyph-name="uni275C" unicode="&#x275c;" horiz-adv-x="351" 
d="M54 278l109 155l-5 5q-26 2 -57.5 19.5t-54 49.5t-22.5 74q0 43 20 77.5t54.5 54t76.5 19.5q41 0 76 -22t55.5 -58.5t20.5 -78.5t-16 -77.5t-49 -82.5l-132 -187z" />
    <glyph glyph-name="uni275D" unicode="&#x275d;" horiz-adv-x="710" 
d="M89 413q-33 47 -49 82.5t-16 77.5t20.5 78.5t55.5 58.5t76 22q42 0 76.5 -19.5t54.5 -54t20 -77.5q0 -42 -22.5 -74t-54 -49.5t-57.5 -19.5l-5 -5l109 -155l-76 -52zM440 413q-33 47 -49 82.5t-16 77.5t20.5 78.5t55.5 58.5t76 22q42 0 76.5 -19.5t54.5 -54t20 -77.5
q0 -42 -22.5 -74t-54 -49.5t-57.5 -19.5l-5 -5l109 -155l-76 -52z" />
    <glyph glyph-name="uni275E" unicode="&#x275e;" horiz-adv-x="710" 
d="M54 278l109 155l-5 5q-26 2 -57.5 19.5t-54 49.5t-22.5 74q0 43 20 77.5t54.5 54t76.5 19.5q41 0 76 -22t55.5 -58.5t20.5 -78.5t-16 -77.5t-49 -82.5l-132 -187zM405 278l109 155l-5 5q-26 2 -57.5 19.5t-54 49.5t-22.5 74q0 43 20 77.5t54.5 54t76.5 19.5q41 0 76 -22
t55.5 -58.5t20.5 -78.5t-16 -77.5t-49 -82.5l-132 -187z" />
    <glyph glyph-name="uni2780" unicode="&#x2780;" horiz-adv-x="848" 
d="M237 34.5q-86 50.5 -136.5 136.5t-50.5 187t50.5 187t136.5 136.5t187 50.5t187 -50.5t136.5 -136.5t50.5 -187t-50.5 -187t-136.5 -136.5t-187 -50.5t-187 50.5zM574 98.5q69 40.5 109.5 109.5t40.5 150q0 82 -40.5 150.5t-109 109t-150.5 40.5q-81 0 -150 -40.5
t-109.5 -109.5t-40.5 -150t40.5 -150t109.5 -109.5t150 -40.5t150 40.5zM397 443l-49 -42l-44 59l102 83h70v-366h-79v266z" />
    <glyph glyph-name="uni2781" unicode="&#x2781;" horiz-adv-x="848" 
d="M237 34.5q-86 50.5 -136.5 136.5t-50.5 187t50.5 187t136.5 136.5t187 50.5t187 -50.5t136.5 -136.5t50.5 -187t-50.5 -187t-136.5 -136.5t-187 -50.5t-187 50.5zM574 98.5q69 40.5 109.5 109.5t40.5 150q0 82 -40.5 150.5t-109 109t-150.5 40.5q-81 0 -150 -40.5
t-109.5 -109.5t-40.5 -150t40.5 -150t109.5 -109.5t150 -40.5t150 40.5zM296 239l131 131q21 22 31.5 37t10.5 33q0 17 -14 28.5t-33 11.5q-22 0 -37 -13.5t-20 -40.5l-72 29q10 44 46 70t82 26q53 0 90.5 -30t37.5 -78q0 -31 -18.5 -58.5t-44.5 -53.5q-23 -22 -48.5 -47.5
l-35.5 -35.5h149v-71h-255v62z" />
    <glyph glyph-name="uni2782" unicode="&#x2782;" horiz-adv-x="848" 
d="M237 34.5q-86 50.5 -136.5 136.5t-50.5 187t50.5 187t136.5 136.5t187 50.5t187 -50.5t136.5 -136.5t50.5 -187t-50.5 -187t-136.5 -136.5t-187 -50.5t-187 50.5zM574 98.5q69 40.5 109.5 109.5t40.5 150q0 82 -40.5 150.5t-109 109t-150.5 40.5q-81 0 -150 -40.5
t-109.5 -109.5t-40.5 -150t40.5 -150t109.5 -109.5t150 -40.5t150 40.5zM335 194.5q-38 25.5 -50 74.5l73 27q7 -29 24.5 -43t39.5 -14q23 0 39.5 14t16.5 36q0 21 -17 33.5t-42 12.5h-40v64h36q23 0 37 11.5t14 31.5q0 17 -13 28t-32 11q-40 0 -55 -40l-69 28q13 38 45 60
t80 22q54 0 88.5 -30t34.5 -74q0 -48 -44 -77q26 -14 41.5 -35.5t15.5 -48.5q0 -53 -40 -85t-96 -32q-49 0 -87 25.5z" />
    <glyph glyph-name="uni2783" unicode="&#x2783;" horiz-adv-x="848" 
d="M237 34.5q-86 50.5 -136.5 136.5t-50.5 187t50.5 187t136.5 136.5t187 50.5t187 -50.5t136.5 -136.5t50.5 -187t-50.5 -187t-136.5 -136.5t-187 -50.5t-187 50.5zM574 98.5q69 40.5 109.5 109.5t40.5 150q0 82 -40.5 150.5t-109 109t-150.5 40.5q-81 0 -150 -40.5
t-109.5 -109.5t-40.5 -150t40.5 -150t109.5 -109.5t150 -40.5t150 40.5zM428 246h-172v55l172 242h77v-231h48v-66h-48v-69h-77v69zM428 312v120h-6l-86 -120h92z" />
    <glyph glyph-name="uni2784" unicode="&#x2784;" horiz-adv-x="848" 
d="M237 34.5q-86 50.5 -136.5 136.5t-50.5 187t50.5 187t136.5 136.5t187 50.5t187 -50.5t136.5 -136.5t50.5 -187t-50.5 -187t-136.5 -136.5t-187 -50.5t-187 50.5zM574 98.5q69 40.5 109.5 109.5t40.5 150q0 82 -40.5 150.5t-109 109t-150.5 40.5q-81 0 -150 -40.5
t-109.5 -109.5t-40.5 -150t40.5 -150t109.5 -109.5t150 -40.5t150 40.5zM340 191.5q-38 22.5 -51 68.5l72 28q5 -23 22 -36t40 -13q24 0 40.5 17t16.5 42t-16.5 41.5t-39.5 16.5q-35 0 -57 -31l-67 28l24 189h214v-66h-151l-12 -74q23 19 61 19q51 0 87 -34.5t36 -90.5
q0 -36 -18.5 -65t-49.5 -45.5t-67 -16.5q-46 0 -84 22.5z" />
    <glyph glyph-name="uni2785" unicode="&#x2785;" horiz-adv-x="848" 
d="M237 34.5q-86 50.5 -136.5 136.5t-50.5 187t50.5 187t136.5 136.5t187 50.5t187 -50.5t136.5 -136.5t50.5 -187t-50.5 -187t-136.5 -136.5t-187 -50.5t-187 50.5zM574 98.5q69 40.5 109.5 109.5t40.5 150q0 82 -40.5 150.5t-109 109t-150.5 40.5q-81 0 -150 -40.5
t-109.5 -109.5t-40.5 -150t40.5 -150t109.5 -109.5t150 -40.5t150 40.5zM351 186.5q-31 17.5 -49 46.5t-18 63q0 29 11.5 56.5t32.5 56.5q28 39 61.5 85.5t46.5 64.5l60 -43l-80 -101q10 4 20 4q31 0 58 -17t43.5 -45.5t16.5 -61.5q0 -34 -18 -63t-49 -46t-67 -17
q-38 0 -69 17.5zM459 255.5q16 16.5 16 40.5q0 23 -16 40t-40 17t-40 -17t-16 -40q0 -24 15.5 -40.5t40.5 -16.5q24 0 40 16.5z" />
    <glyph glyph-name="uni2786" unicode="&#x2786;" horiz-adv-x="848" 
d="M237 34.5q-86 50.5 -136.5 136.5t-50.5 187t50.5 187t136.5 136.5t187 50.5t187 -50.5t136.5 -136.5t50.5 -187t-50.5 -187t-136.5 -136.5t-187 -50.5t-187 50.5zM574 98.5q69 40.5 109.5 109.5t40.5 150q0 82 -40.5 150.5t-109 109t-150.5 40.5q-81 0 -150 -40.5
t-109.5 -109.5t-40.5 -150t40.5 -150t109.5 -109.5t150 -40.5t150 40.5zM316 198l156 273h-168v72h255v-68l-173 -313z" />
    </font>
</defs>
</svg>
