<?xml version="1.0" standalone="no"?>
<!DOCTYPE svg PUBLIC "-//W3C//DTD SVG 1.1//EN" "http://www.w3.org/Graphics/SVG/1.1/DTD/svg11.dtd" >
<svg xmlns="http://www.w3.org/2000/svg" xmlns:xlink="http://www.w3.org/1999/xlink" version="1.1">
<metadata>
Created by FontForge 20170731 at Thu Jul 20 19:12:14 2017
 By Aleksey,,,
Copyright 2017 Google, Inc. All Rights Reserved.
</metadata>
<defs>
<font id="GoogleSansDisplay-Italic" horiz-adv-x="650" >
  <font-face 
    font-family="Google Sans Display"
    font-weight="400"
    font-style="italic"
    font-stretch="normal"
    units-per-em="1000"
    panose-1="2 11 5 3 3 5 2 11 2 3"
    ascent="800"
    descent="-200"
    x-height="496"
    cap-height="716"
    bbox="-408 -253 3284 959"
    underline-thickness="84"
    underline-position="-244"
    slope="-10"
    unicode-range="U+0002-2792"
  />
<missing-glyph horiz-adv-x="569" 
d="M496 716v-716h-423v716h423zM435 57v602h-301v-602h301z" />
    <glyph glyph-name="f_b" unicode="fb" horiz-adv-x="953" 
d="M523 9.5q-43 25.5 -64 64.5h-4l-13 -74h-80l113 643h-137q-41 0 -67 -22t-33 -65l-10 -60h123l-14 -77h-123l-73 -419h-85l73 419h-92l13 77h93l13 69q13 72 62.5 113.5t133.5 41.5h222l-41 -229l-16 -68h4q27 39 71 64t105 25q59 0 106 -28.5t73.5 -81t26.5 -121.5
q0 -77 -37 -145.5t-102.5 -110t-145.5 -41.5q-52 0 -95 25.5zM720.5 89.5q44.5 28.5 70 77.5t25.5 108q0 74 -38.5 117t-104.5 43q-53 0 -97 -31t-69 -82t-25 -107q0 -72 39.5 -113t100.5 -41q54 0 98.5 28.5z" />
    <glyph glyph-name="f_f" unicode="ff" horiz-adv-x="677" 
d="M129 419h-92l13 77h93l12 69q12 74 64.5 116.5t122.5 42.5q39 0 73 -12l-15 -83q-14 9 -29.5 12.5t-36.5 3.5q-33 0 -60.5 -23.5t-35.5 -65.5l-10 -60h221l12 69q12 74 64.5 116.5t122.5 42.5q39 0 73 -12l-15 -83q-14 9 -29.5 12.5t-36.5 3.5q-34 0 -61 -23.5t-34 -65.5
l-11 -60h129l-14 -77h-129l-74 -419h-85l74 419h-221l-74 -419h-85z" />
    <glyph glyph-name="f_f_b" unicode="ffb" horiz-adv-x="1258" 
d="M829 9.5q-43 25.5 -64 64.5h-4l-13 -74h-80l113 643h-137q-41 0 -67 -22t-33 -65l-11 -60h123l-13 -77h-123l-74 -419h-84l73 419h-221l-74 -419h-85l74 419h-92l13 77h93l12 69q12 74 64.5 116.5t122.5 42.5q39 0 73 -12l-15 -83q-14 9 -29.5 12.5t-36.5 3.5
q-33 0 -60.5 -23.5t-35.5 -65.5l-10 -60h221l13 69q13 72 62.5 113.5t133.5 41.5h221l-40 -229l-16 -68h4q27 39 71 64t104 25q59 0 106 -28.5t73.5 -81t26.5 -121.5q0 -77 -37 -145.5t-102 -110t-145 -41.5q-52 0 -95 25.5zM1026.5 89.5q44.5 28.5 70 77.5t25.5 108
q0 74 -38.5 117t-104.5 43q-53 0 -97 -31t-69.5 -82t-25.5 -107q0 -72 40 -113t101 -41q54 0 98.5 28.5z" />
    <glyph glyph-name="f_f_h" unicode="ffh" horiz-adv-x="1223" 
d="M129 419h-92l13 77h93l12 69q12 74 64.5 116.5t122.5 42.5q39 0 73 -12l-15 -83q-14 9 -29.5 12.5t-36.5 3.5q-33 0 -60.5 -23.5t-35.5 -65.5l-10 -60h221l13 69q13 72 62.5 113.5t133.5 41.5h222l-41 -228l-17 -71h4q29 41 75 66t101 25q78 0 118 -41t40 -107
q0 -23 -6 -64l-54 -300h-84l53 299q4 30 4 42q0 45 -27.5 69.5t-75.5 24.5q-62 0 -110 -48.5t-61 -119.5l-46 -267h-85l113 643h-137q-41 0 -67 -22t-33 -65l-11 -60h123l-13 -77h-123l-74 -419h-84l73 419h-221l-74 -419h-85z" />
    <glyph glyph-name="f_f_i" unicode="ffi" horiz-adv-x="886" 
d="M129 419h-92l13 77h93l12 69q12 74 64.5 116.5t122.5 42.5q39 0 73 -12l-15 -83q-14 9 -29.5 12.5t-36.5 3.5q-33 0 -60.5 -23.5t-35.5 -65.5l-10 -60h221l11 69q13 75 65 117t123 42q39 0 72 -12l-14 -83q-25 16 -67 16q-33 0 -60.5 -23.5t-34.5 -65.5l-11 -60h307
l-87 -496h-85l73 419h-221l-75 -419h-84l74 419h-221l-74 -419h-85zM783 618q-18 18 -18 43t18 42.5t43 17.5t43 -17.5t18 -42.5t-17.5 -43t-43.5 -18q-25 0 -43 18z" />
    <glyph glyph-name="f_f_j" unicode="ffj" horiz-adv-x="886" 
d="M530 -219l14 79q18 -9 39 -9q31 0 47.5 18.5t22.5 52.5l88 497h-221l-75 -419h-84l74 419h-221l-74 -419h-85l74 419h-92l13 77h93l12 69q12 74 64.5 116.5t122.5 42.5q39 0 73 -12l-15 -83q-14 9 -29.5 12.5t-36.5 3.5q-33 0 -60.5 -23.5t-35.5 -65.5l-10 -60h221l11 69
q13 75 65 117t123 42q39 0 72 -12l-14 -83q-25 16 -67 16q-33 0 -60.5 -23.5t-34.5 -65.5l-11 -60h307l-102 -578q-14 -79 -54.5 -111.5t-106.5 -32.5q-24 0 -47 7zM783 618q-18 18 -18 43t18 42.5t43 17.5t43 -17.5t18 -42.5t-17.5 -43t-43.5 -18q-25 0 -43 18z" />
    <glyph glyph-name="f_f_k" unicode="ffk" horiz-adv-x="1164" 
d="M129 419h-92l13 77h93l12 69q12 74 64.5 116.5t122.5 42.5q39 0 73 -12l-15 -83q-14 9 -29.5 12.5t-36.5 3.5q-33 0 -60.5 -23.5t-35.5 -65.5l-10 -60h221l13 69q13 72 62.5 113.5t133.5 41.5h222l-80 -450l263 226h112l-1 -4l-227 -193l150 -295l-1 -4h-99l-118 242
l-99 -84l-28 -158h-84l113 643h-137q-41 0 -67 -22t-33 -65l-11 -60h123l-13 -77h-123l-74 -419h-84l73 419h-221l-74 -419h-85z" />
    <glyph glyph-name="f_f_l" unicode="ffl" horiz-adv-x="879" 
d="M129 419h-92l13 77h93l12 69q12 74 64.5 116.5t122.5 42.5q39 0 73 -12l-15 -83q-14 9 -29.5 12.5t-36.5 3.5q-33 0 -60.5 -23.5t-35.5 -65.5l-10 -60h221l13 69q13 72 62.5 113.5t133.5 41.5h222l-127 -720h-85l113 643h-137q-41 0 -67 -22t-33 -65l-11 -60h123l-13 -77
h-123l-74 -419h-84l73 419h-221l-74 -419h-85z" />
    <glyph glyph-name="f_f_t" unicode="fft" horiz-adv-x="975" 
d="M723 23q-33 31 -33 80q0 23 5 49l46 267h-221l-75 -419h-84l74 419h-221l-74 -419h-85l74 419h-92l13 77h93l12 69q12 74 64.5 116.5t122.5 42.5q39 0 73 -12l-15 -83q-14 9 -29.5 12.5t-36.5 3.5q-33 0 -60.5 -23.5t-35.5 -65.5l-10 -60h221l11 69q13 75 65 117t123 42
q39 0 72 -12l-14 -83q-25 16 -67 16q-33 0 -60.5 -23.5t-34.5 -65.5l-11 -60h222l26 148h84l-25 -148h122l-14 -77h-122l-45 -257q-5 -28 -5 -39q0 -24 14.5 -38t41.5 -14q31 0 58 15l-15 -83q-31 -11 -68 -11q-51 0 -84 31z" />
    <glyph glyph-name="f_h" unicode="fh" horiz-adv-x="917" 
d="M129 419h-92l13 77h93l13 69q13 72 62.5 113.5t133.5 41.5h222l-41 -228l-16 -71h4q28 41 74 66t101 25q78 0 118.5 -41t40.5 -107q0 -26 -7 -64l-54 -300h-84l53 299q4 30 4 42q0 44 -27.5 69t-74.5 25q-62 0 -110.5 -48.5t-61.5 -119.5l-46 -267h-85l113 643h-137
q-41 0 -67 -22t-33 -65l-10 -60h123l-14 -77h-123l-73 -419h-85z" />
    <glyph glyph-name="f_i" unicode="fi" horiz-adv-x="580" 
d="M129 419h-92l13 77h93l12 69q12 74 64.5 116.5t122.5 42.5q39 0 73 -12l-15 -83q-14 9 -29.5 12.5t-36.5 3.5q-33 0 -60.5 -23.5t-35.5 -65.5l-10 -60h305l-87 -496h-84l73 419h-221l-74 -419h-85zM477 618q-18 18 -18 43t18 42.5t43 17.5t42.5 -17.5t17.5 -42.5
t-17.5 -43t-42.5 -18t-43 18z" />
    <glyph glyph-name="f_j" unicode="fj" horiz-adv-x="580" 
d="M224 -219l14 79q7 -4 18 -6.5t21 -2.5q31 0 47.5 18.5t22.5 52.5l88 497h-221l-74 -419h-85l74 419h-92l13 77h93l12 69q12 74 64.5 116.5t122.5 42.5q39 0 73 -12l-15 -83q-14 9 -29.5 12.5t-36.5 3.5q-33 0 -60.5 -23.5t-35.5 -65.5l-10 -60h305l-101 -578
q-14 -79 -55 -111.5t-106 -32.5q-24 0 -47 7zM477 616q-18 18 -18 43q0 26 18 43.5t43 17.5q26 0 43.5 -17.5t17.5 -43.5q0 -25 -17.5 -43t-43.5 -18q-25 0 -43 18z" />
    <glyph glyph-name="f_k" unicode="fk" horiz-adv-x="858" 
d="M129 419h-92l13 77h93l13 69q13 72 62.5 113.5t133.5 41.5h222l-79 -450l261 226h114l-1 -4l-228 -193l150 -295l-1 -4h-99l-118 242l-98 -84l-28 -158h-85l113 643h-137q-41 0 -67 -22t-33 -65l-10 -60h123l-14 -77h-123l-73 -419h-85z" />
    <glyph glyph-name="f_l" unicode="fl" horiz-adv-x="573" 
d="M475 643h-137q-41 0 -67 -22t-33 -65l-10 -60h123l-14 -77h-123l-73 -419h-85l73 419h-92l13 77h93l13 69q13 72 62.5 113.5t133.5 41.5h222l-127 -720h-85z" />
    <glyph glyph-name="f_t" unicode="ft" horiz-adv-x="669" 
d="M416 23q-33 31 -33 80q0 23 5 49l47 267h-221l-74 -419h-85l74 419h-92l13 77h93l12 69q12 74 64.5 116.5t122.5 42.5q39 0 73 -12l-15 -83q-14 9 -29.5 12.5t-36.5 3.5q-33 0 -60.5 -23.5t-35.5 -65.5l-10 -60h221l26 148h84l-26 -148h122l-13 -77h-122l-46 -257
q-4 -23 -4 -39q0 -24 14.5 -38t41.5 -14q32 0 57 15l-14 -83q-18 -6 -32.5 -8.5t-36.5 -2.5q-51 0 -84 31z" />
    <glyph glyph-name="r_f" unicode="rf" horiz-adv-x="734" 
d="M86 496h81l-15 -81h4q23 45 69 70t102 25q16 0 34 -2l-15 -88q-13 4 -42 4q-40 0 -77 -19.5t-62.5 -55.5t-33.5 -81l-48 -268h-84zM492 419h-92l13 77h93l12 69q12 74 64.5 116.5t122.5 42.5q39 0 73 -12l-15 -83q-14 9 -29.5 12.5t-36.5 3.5q-33 0 -60.5 -23.5
t-35.5 -65.5l-10 -60h129l-14 -77h-129l-74 -419h-85z" />
    <glyph glyph-name="r_f_f" unicode="rff" horiz-adv-x="1047" 
d="M86 496h81l-15 -81h4q23 45 69 70t102 25q16 0 34 -2l-15 -88q-13 4 -42 4q-40 0 -77 -19.5t-62.5 -55.5t-33.5 -81l-48 -268h-84zM499 419h-92l13 77h93l12 69q12 74 64.5 116.5t122.5 42.5q39 0 73 -12l-15 -83q-14 9 -29.5 12.5t-36.5 3.5q-33 0 -60.5 -23.5
t-35.5 -65.5l-10 -60h221l12 69q12 74 64.5 116.5t122.5 42.5q39 0 73 -12l-15 -83q-14 9 -29.5 12.5t-36.5 3.5q-34 0 -61 -23.5t-34 -65.5l-11 -60h129l-14 -77h-129l-74 -419h-85l74 419h-221l-74 -419h-85z" />
    <glyph glyph-name="r_t" unicode="rt" horiz-adv-x="731" 
d="M86 496h81l-15 -81h4q23 45 69 70t102 25q16 0 34 -2l-15 -88q-13 4 -42 4q-40 0 -77 -19.5t-62.5 -55.5t-33.5 -81l-48 -268h-84zM479 23q-33 31 -33 80q0 23 5 49l47 267h-88l14 77h87l26 148h85l-26 -148h122l-14 -77h-122l-45 -257q-5 -28 -5 -39q0 -24 14.5 -38
t41.5 -14q31 0 58 15l-14 -83q-18 -6 -32.5 -8.5t-36.5 -2.5q-51 0 -84 31z" />
    <glyph glyph-name="t_f" unicode="tf" horiz-adv-x="673" 
d="M106 23q-33 31 -33 80q0 23 5 49l47 267h-88l14 77h87l26 148h85l-26 -148h222l12 69q12 74 64.5 116.5t122.5 42.5q39 0 73 -12l-15 -83q-14 9 -29 12.5t-37 3.5q-33 0 -60.5 -23.5t-34.5 -65.5l-11 -60h129l-14 -77h-129l-74 -419h-85l75 419h-223l-45 -257
q-5 -28 -5 -39q0 -24 14.5 -38t41.5 -14q31 0 58 15l-14 -83q-18 -6 -32.5 -8.5t-36.5 -2.5q-51 0 -84 31z" />
    <glyph glyph-name="t_t" unicode="tt" horiz-adv-x="670" 
d="M106 23q-33 31 -33 80q0 23 5 49l47 267h-88l14 77h87l26 148h85l-26 -148h227l26 148h84l-26 -148h122l-13 -77h-122l-46 -257q-4 -23 -4 -39q0 -24 14.5 -38t41.5 -14q32 0 57 15l-14 -83q-18 -6 -32.5 -8.5t-36.5 -2.5q-51 0 -84 31t-33 80q0 23 5 49l47 267h-227
l-45 -257q-5 -28 -5 -39q0 -24 14.5 -38t41.5 -14q31 0 58 15l-14 -83q-18 -6 -32.5 -8.5t-36.5 -2.5q-51 0 -84 31z" />
    <glyph glyph-name=".notdef" horiz-adv-x="569" 
d="M496 716v-716h-423v716h423zM435 57v602h-301v-602h301z" />
    <glyph glyph-name=".null" horiz-adv-x="0" 
 />
    <glyph glyph-name="nonmarkingreturn" unicode="&#xd;" horiz-adv-x="0" 
d="M0 0z" />
    <glyph glyph-name="uni0002" horiz-adv-x="0" 
d="M0 0z" />
    <glyph glyph-name="uni0009" unicode="&#x9;" horiz-adv-x="0" 
d="M0 0z" />
    <glyph glyph-name="uni000A" unicode="&#xa;" horiz-adv-x="0" 
d="M0 0z" />
    <glyph glyph-name="space" unicode=" " horiz-adv-x="224" 
d="M0 0z" />
    <glyph glyph-name="exclam" unicode="!" horiz-adv-x="224" 
d="M90 473l43 243h84l-43 -243l-55 -262h-66zM14.5 12.5q-18.5 18.5 -18.5 45.5q0 26 18.5 44.5t45.5 18.5t45.5 -18.5t18.5 -44.5q0 -27 -18.5 -45.5t-45.5 -18.5t-45.5 18.5z" />
    <glyph glyph-name="quotedbl" unicode="&#x22;" horiz-adv-x="309" 
d="M107 716h77l-39 -221h-77zM250 716h77l-39 -221h-77z" />
    <glyph glyph-name="numbersign" unicode="#" horiz-adv-x="627" 
d="M143 206h-124l14 70h122l25 141h-125l13 70h124l34 197h75l-35 -197h142l34 197h75l-35 -197h124l-13 -70h-123l-25 -141h126l-13 -70h-125l-35 -206h-75l36 206h-142l-35 -206h-75zM371 276l25 141h-142l-25 -141h142z" />
    <glyph glyph-name="dollar" unicode="$" horiz-adv-x="530" 
d="M171 -12q-66 11 -116.5 58t-60.5 122l80 30q5 -49 34 -84t78 -45l44 251q-72 32 -112.5 77t-40.5 113q0 50 27 91t76.5 67t115.5 31l15 85h71l-16 -88q57 -11 94.5 -47.5t52.5 -86.5l-81 -32q-21 67 -80 83l-42 -237q76 -36 114.5 -78.5t38.5 -107.5q0 -88 -62 -142
t-160 -62l-14 -86h-71zM282 617q-53 -5 -85.5 -32.5t-32.5 -76.5q0 -62 81 -103zM342.5 102q34.5 29 34.5 81q0 37 -20.5 62t-61.5 45l-40 -223q53 6 87.5 35z" />
    <glyph glyph-name="percent" unicode="%" horiz-adv-x="812" 
d="M102 400q-42 42 -42 107q0 53 26 97.5t71 70t101 25.5q65 0 106 -42t41 -107q0 -53 -26 -97.5t-71 -70t-100 -25.5q-64 0 -106 42zM99 32l562 659l47 -40l-561 -658zM302 456q34 36 34 89q0 41 -24.5 67t-61.5 26q-52 0 -86 -35.5t-34 -89.5q0 -41 24.5 -67t61.5 -26
q52 0 86 36zM445 26q-42 42 -42 107q0 53 26 97.5t71 70t101 25.5q65 0 106 -42t41 -107q0 -53 -26 -97.5t-71 -70t-100 -25.5q-64 0 -106 42zM645 82q34 36 34 89q0 41 -24.5 67t-61.5 26q-52 0 -86 -35.5t-34 -89.5q0 -41 24.5 -67t61.5 -26q52 0 86 36z" />
    <glyph glyph-name="ampersand" unicode="&#x26;" horiz-adv-x="614" 
d="M113 11q-50 27 -79 76t-29 114q0 80 42 143t125 104l-1 2q-33 57 -33 110q0 44 22 83.5t63.5 64t97.5 24.5q66 0 105.5 -33.5t55.5 -92.5l-83 -34q-20 79 -87 79q-37 0 -62.5 -25.5t-25.5 -65.5q0 -33 25 -78l176 -299l80 116l55 -41l-97 -140l55 -93l-74 -41l-40 68
q-80 -68 -180 -68q-61 0 -111 27zM367 115l-158 270q-56 -26 -90.5 -72t-34.5 -108q0 -39 18.5 -72t52.5 -52.5t77 -19.5q79 0 135 54z" />
    <glyph glyph-name="quotesingle" unicode="'" horiz-adv-x="166" 
d="M107 716h77l-39 -221h-77z" />
    <glyph glyph-name="parenleft" unicode="(" horiz-adv-x="324" 
d="M88.5 34q-33.5 99 -33.5 216q0 153 73.5 293.5t194.5 236.5l48 -45q-112 -105 -171.5 -226.5t-59.5 -273.5q0 -177 93 -327l-61 -44q-50 71 -83.5 170z" />
    <glyph glyph-name="parenright" unicode=")" horiz-adv-x="324" 
d="M-45 -91q112 104 171.5 226t59.5 274q0 177 -93 327l61 44q50 -71 83.5 -170t33.5 -216q0 -153 -73 -293.5t-195 -236.5z" />
    <glyph glyph-name="asterisk" unicode="*" horiz-adv-x="430" 
d="M88 421l97 104l-1 8l-101 38l27 64l104 -40l6 2l21 119h71l-21 -119l5 -2l106 37l22 -65l-117 -43l-3 -7l56 -99l-65 -42l-56 101h-7l-91 -101z" />
    <glyph glyph-name="plus" unicode="+" horiz-adv-x="547" 
d="M217 236h-182l12 70h182l32 182h70l-32 -182h182l-12 -70h-182l-32 -182h-70z" />
    <glyph glyph-name="comma" unicode="," horiz-adv-x="227" 
d="M45 0q-13 5 -25 20t-12 38q0 27 18.5 45t43.5 18q27 0 46 -18t19 -45q0 -15 -9 -29t-30 -40l-83 -99l-35 29z" />
    <glyph glyph-name="hyphen" unicode="-" horiz-adv-x="430" 
d="M370 345l-12 -70h-317l12 70h317z" />
    <glyph glyph-name="period" unicode="." horiz-adv-x="224" 
d="M14.5 12.5q-18.5 18.5 -18.5 45.5q0 26 18.5 44.5t44.5 18.5q27 0 45.5 -18.5t18.5 -44.5q0 -27 -18.5 -45.5t-45.5 -18.5q-26 0 -44.5 18.5z" />
    <glyph glyph-name="slash" unicode="/" horiz-adv-x="431" 
d="M385 716h82l-424 -716h-81z" />
    <glyph glyph-name="zero" unicode="0" horiz-adv-x="643" 
d="M146.5 20q-51.5 36 -79 103t-27.5 156q0 110 43.5 207t119.5 155.5t170 58.5q108 0 168.5 -78t60.5 -216q0 -111 -43.5 -208t-120 -155.5t-170.5 -58.5q-70 0 -121.5 36zM393.5 111q55.5 46 88.5 123t33 165q0 103 -38.5 161.5t-113.5 58.5q-61 0 -115.5 -47
t-87.5 -124.5t-33 -162.5q0 -104 39.5 -162t108.5 -58q63 0 118.5 46z" />
    <glyph glyph-name="one" unicode="1" horiz-adv-x="381" 
d="M242 564l-127 -85l-39 65l217 140h56l-121 -684h-85z" />
    <glyph glyph-name="two" unicode="2" horiz-adv-x="525" 
d="M-2 85q36 31 127.5 110.5t167.5 146.5q42 37 64 60t36 50.5t14 60.5q0 48 -30.5 77t-84.5 29q-53 0 -88 -32t-49 -71l-76 34q23 61 79 105.5t144 44.5q56 0 100 -22.5t68.5 -62.5t24.5 -89q0 -48 -19.5 -88.5t-50 -74t-79.5 -76.5l-239 -206h321l-13 -81h-432z" />
    <glyph glyph-name="three" unicode="3" horiz-adv-x="535" 
d="M118 3q-45 19 -75.5 58t-37.5 94l82 32q7 -57 43 -89.5t92 -32.5q66 0 110.5 37.5t44.5 100.5q0 55 -34.5 85.5t-90.5 30.5h-59l14 79h53q68 0 108.5 32.5t40.5 89.5q0 44 -32 71.5t-79 27.5q-50 0 -82.5 -27t-51.5 -68l-75 35q26 62 80.5 101.5t137.5 39.5
q54 0 97 -21.5t67.5 -59.5t24.5 -85q0 -62 -33 -104.5t-88 -65.5v-4q38 -17 64 -56t26 -91q0 -68 -34.5 -120.5t-92.5 -80.5t-126 -28q-49 0 -94 19z" />
    <glyph glyph-name="four" unicode="4" horiz-adv-x="592" 
d="M334 147h-328l11 64l399 473h97l-80 -457h88l-14 -80h-88l-27 -147h-84zM348 227l59 332h-4l-276 -332h221z" />
    <glyph glyph-name="five" unicode="5" horiz-adv-x="562" 
d="M124 5q-46 21 -77 63t-36 101l81 30q5 -60 39.5 -97t91.5 -37q49 0 89.5 21t64 58.5t23.5 85.5q0 60 -34 96.5t-93 36.5q-36 0 -70.5 -16.5t-59.5 -45.5l-80 38l104 345h355l-14 -81h-285l-64 -207l4 -1q60 45 131 45q86 0 139 -54t53 -147q0 -69 -34 -127.5t-95 -93
t-138 -34.5q-49 0 -95 21z" />
    <glyph glyph-name="six" unicode="6" horiz-adv-x="556" 
d="M123.5 11q-49.5 27 -77.5 74.5t-28 106.5q0 63 27 114t90 122l238 272l60 -47l-207 -237l2 -2q37 20 77 20q52 0 94.5 -26.5t67 -73t24.5 -104.5q0 -73 -35.5 -129t-94.5 -86.5t-128 -30.5q-60 0 -109.5 27zM323.5 85q37.5 20 59 56t21.5 82q0 60 -38 97.5t-98 37.5
q-47 0 -84.5 -22t-58.5 -59t-21 -82q0 -37 18.5 -66.5t50 -46.5t67.5 -17q46 0 83.5 20z" />
    <glyph glyph-name="seven" unicode="7" horiz-adv-x="528" 
d="M22 33l413 570h-347l16 81h437l-14 -87l-441 -613z" />
    <glyph glyph-name="eight" unicode="8" horiz-adv-x="551" 
d="M110 8q-47 24 -73 65.5t-26 90.5q0 66 40.5 117.5t106.5 77.5l1 4q-68 54 -68 130q0 55 31 103t85 76t120 28q83 0 134 -46t51 -122q0 -62 -35 -104.5t-85 -65.5l-1 -4q38 -19 63 -58.5t25 -86.5q0 -67 -36 -119.5t-96.5 -81t-129.5 -28.5q-60 0 -107 24zM356 414
q32 16 50.5 43t18.5 59q0 48 -30 75.5t-78 27.5q-58 0 -98.5 -34t-40.5 -88q0 -44 30.5 -71.5t77.5 -27.5q38 0 70 16zM304.5 82.5q38.5 17.5 63 50t24.5 75.5q0 49 -36.5 80t-91.5 31q-42 0 -80 -18.5t-61.5 -52t-23.5 -77.5q0 -47 35.5 -76.5t89.5 -29.5q42 0 80.5 17.5z
" />
    <glyph glyph-name="nine" unicode="9" horiz-adv-x="555" 
d="M121 31l206 237l-2 2q-37 -20 -73 -20q-53 0 -96.5 26.5t-68.5 73t-25 104.5q0 73 35.5 129t94.5 86.5t128 30.5q60 0 109.5 -27t78 -74.5t28.5 -106.5q0 -63 -27.5 -114t-90.5 -122l-238 -272zM370 348q37 22 58 59t21 82q0 56 -40 93t-96 37q-46 0 -83.5 -20t-59 -56
t-21.5 -82q0 -60 38 -97.5t99 -37.5q47 0 84 22z" />
    <glyph glyph-name="colon" unicode=":" horiz-adv-x="224" 
d="M81.5 393.5q-18.5 18.5 -18.5 45.5q0 26 18.5 44.5t45.5 18.5q26 0 44.5 -18.5t18.5 -44.5q0 -27 -18.5 -45.5t-44.5 -18.5q-27 0 -45.5 18.5zM14.5 12.5q-18.5 18.5 -18.5 45.5q0 26 18.5 44.5t44.5 18.5q27 0 45.5 -18.5t18.5 -44.5q0 -27 -18.5 -45.5t-45.5 -18.5
q-26 0 -44.5 18.5z" />
    <glyph glyph-name="semicolon" unicode=";" horiz-adv-x="225" 
d="M83.5 393.5q-18.5 18.5 -18.5 45.5q0 26 18.5 44.5t45.5 18.5q26 0 44.5 -18.5t18.5 -44.5q0 -27 -18.5 -45.5t-44.5 -18.5q-27 0 -45.5 18.5zM-24 -64l67 80q-13 5 -25 20t-12 38q0 27 18.5 45.5t43.5 18.5q27 0 46 -18t19 -45q0 -15 -9 -29t-30 -40l-83 -99z" />
    <glyph glyph-name="less" unicode="&#x3c;" horiz-adv-x="500" 
d="M36 240l10 62l416 184l-14 -82l-316 -134l-1 -4l269 -137l-13 -73z" />
    <glyph glyph-name="equal" unicode="=" horiz-adv-x="559" 
d="M72 449h446l-12 -70h-446zM39 259h446l-13 -70h-446z" />
    <glyph glyph-name="greater" unicode="&#x3e;" horiz-adv-x="500" 
d="M21 138l316 134l1 4l-268 137l13 73l351 -184l-11 -62l-416 -184z" />
    <glyph glyph-name="question" unicode="?" horiz-adv-x="490" 
d="M175 259q9 52 32.5 84.5t83.5 77.5q46 34 72 66t26 70q0 42 -29.5 68t-78.5 26q-50 0 -84.5 -28t-48.5 -71l-74 33q24 65 79 106t140 41q52 0 94 -22t65.5 -59t23.5 -82q0 -59 -33.5 -103t-97.5 -93q-39 -30 -58.5 -57t-25.5 -63l-8 -42h-86zM137.5 12.5
q-18.5 18.5 -18.5 45.5q0 26 18.5 44.5t44.5 18.5q27 0 45.5 -18.5t18.5 -44.5q0 -27 -18.5 -45.5t-45.5 -18.5q-26 0 -44.5 18.5z" />
    <glyph glyph-name="at" unicode="@" horiz-adv-x="867" 
d="M202.5 -35.5q-78.5 46.5 -122.5 126t-44 173.5q0 118 58 215.5t160 154t228 56.5q93 0 172.5 -41.5t126 -116.5t46.5 -170q0 -70 -22 -131t-64 -98t-97 -37q-38 0 -65.5 21t-37.5 55q-27 -36 -66.5 -56t-83.5 -20q-45 0 -84 22.5t-62.5 63t-23.5 92.5q0 56 26.5 109.5
t77 87t119.5 33.5q44 0 76.5 -18t48.5 -44h4l9 48h67l-46 -261q-2 -14 -2 -22q0 -20 13 -35t38 -15q32 0 56 29.5t37.5 76t13.5 96.5q0 79 -36.5 138.5t-102.5 92.5t-151 33q-102 0 -184.5 -46.5t-129.5 -127.5t-47 -181q0 -81 37 -145.5t100.5 -101t139.5 -36.5t136 28
l22 -62q-73 -33 -165 -33q-97 0 -175.5 46.5zM480.5 186.5q32.5 20.5 51.5 55.5t19 77q0 53 -30 84t-81 31q-42 0 -75 -21t-51 -57t-18 -79q0 -53 32 -82t81 -29q39 0 71.5 20.5z" />
    <glyph glyph-name="A" unicode="A" horiz-adv-x="668" 
d="M348 716h96l145 -716h-90l-36 197h-309l-108 -197h-96zM447 277l-50 258l-14 77h-4l-183 -335h251z" />
    <glyph glyph-name="B" unicode="B" horiz-adv-x="604" 
d="M142 716h244q57 0 99 -23.5t64.5 -63t22.5 -86.5q0 -63 -36.5 -107.5t-90.5 -63.5l-1 -4q96 -49 96 -150q0 -60 -33.5 -110t-91.5 -79t-129 -29h-271zM343 406q62 0 103 33.5t41 90.5q0 45 -28.5 75t-79.5 30h-167l-41 -229h172zM304 81q37 0 71.5 16t56 46.5t21.5 72.5
q0 50 -32.5 80t-87.5 30h-176l-43 -245h190z" />
    <glyph glyph-name="C" unicode="C" horiz-adv-x="738" 
d="M188.5 24q-71.5 40 -111.5 113t-40 169q0 110 56.5 208.5t155.5 158t220 59.5q81 0 146 -33.5t99 -86.5l-68 -56q-33 49 -78 72t-108 23q-92 0 -169.5 -48t-122.5 -126.5t-45 -166.5q0 -73 31 -128.5t85.5 -86t121.5 -30.5q73 0 129 27t111 81l54 -61q-67 -66 -138.5 -97
t-165.5 -31q-91 0 -162.5 40z" />
    <glyph glyph-name="D" unicode="D" horiz-adv-x="701" 
d="M142 716h216q97 0 166 -40t104.5 -109.5t35.5 -158.5q0 -109 -51 -202.5t-147 -149.5t-226 -56h-225zM246 81q93 0 169 42.5t119 116t43 162.5q0 113 -61.5 173t-172.5 60h-131l-98 -554h132z" />
    <glyph glyph-name="E" unicode="E" horiz-adv-x="550" 
d="M142 716h414l-15 -81h-329l-42 -237h297l-13 -80h-298l-42 -237h330l-15 -81h-414z" />
    <glyph glyph-name="F" unicode="F" horiz-adv-x="530" 
d="M142 716h414l-15 -81h-329l-43 -245h297l-13 -80h-298l-56 -310h-84z" />
    <glyph glyph-name="G" unicode="G" horiz-adv-x="811" 
d="M199 24q-73 40 -117 115t-44 174q0 113 55.5 209t155 153t226.5 57q78 0 145 -29.5t101 -80.5l-70 -58q-25 40 -77 63.5t-113 23.5q-93 0 -170 -44t-121.5 -120.5t-44.5 -169.5q0 -78 33 -135t88.5 -87t122.5 -30q132 0 219 90q56 57 77 147h-259l14 79h344q0 -20 -5 -52
q-23 -140 -110 -229q-111 -116 -292 -116q-85 0 -158 40z" />
    <glyph glyph-name="H" unicode="H" horiz-adv-x="697" 
d="M142 716h84l-55 -310h369l56 310h84l-127 -716h-84l57 326h-369l-58 -326h-84z" />
    <glyph glyph-name="I" unicode="I" horiz-adv-x="243" 
d="M142 716h84l-127 -716h-84z" />
    <glyph glyph-name="J" unicode="J" horiz-adv-x="529" 
d="M55 29q-53 45 -62 121l82 32q6 -62 39 -89.5t84 -27.5q59 0 102.5 42t54.5 107l88 502h84l-87 -496q-20 -117 -88 -176.5t-165 -59.5q-79 0 -132 45z" />
    <glyph glyph-name="K" unicode="K" horiz-adv-x="624" 
d="M142 716h84l-65 -374h4l385 374h112l-1 -4l-319 -306l213 -402l-1 -4h-99l-180 341l-138 -131l-38 -210h-84z" />
    <glyph glyph-name="L" unicode="L" horiz-adv-x="507" 
d="M142 716h84l-112 -635h314l-15 -81h-398z" />
    <glyph glyph-name="M" unicode="M" horiz-adv-x="865" 
d="M142 716h119l126 -587h4l331 587h126l-127 -716h-84l80 455l29 136h-4l-335 -591h-71l-132 591h-4l-21 -136l-80 -455h-84z" />
    <glyph glyph-name="N" unicode="N" horiz-adv-x="706" 
d="M142 716h97l265 -570h4l21 138l76 432h85l-127 -716h-81l-277 597h-4l-20 -138l-82 -459h-84z" />
    <glyph glyph-name="O" unicode="O" horiz-adv-x="822" 
d="M197.5 25.5q-74.5 41.5 -117.5 115.5t-43 168q0 110 54 207.5t150.5 156.5t218.5 59q90 0 164 -41.5t117 -115.5t43 -168q0 -110 -53.5 -207.5t-150 -156.5t-217.5 -59q-91 0 -165.5 41.5zM534.5 112.5q74.5 47.5 118 125t43.5 162.5q0 76 -32.5 133t-88.5 87.5
t-125 30.5q-89 0 -164 -47.5t-118.5 -125t-43.5 -162.5q0 -76 32.5 -133t89 -87.5t125.5 -30.5q89 0 163.5 47.5z" />
    <glyph glyph-name="P" unicode="P" horiz-adv-x="574" 
d="M142 716h235q56 0 100 -23.5t69 -65.5t25 -96q0 -73 -34 -127.5t-93.5 -83t-135.5 -28.5h-156l-53 -292h-84zM323 373q71 0 116 37.5t45 109.5q0 53 -32.5 84t-81.5 31h-158l-47 -262h158z" />
    <glyph glyph-name="Q" unicode="Q" horiz-adv-x="822" 
d="M533 20q-81 -36 -170 -36q-91 0 -165.5 41.5t-117.5 115.5t-43 168q0 110 54 207.5t150.5 156.5t218.5 59q90 0 164 -41.5t117 -115.5t43 -168q0 -102 -47.5 -194t-129.5 -151l33 -69l-75 -38zM496 92l-66 134l77 40l62 -127q59 48 93 117t34 144q0 76 -32.5 133
t-88.5 87.5t-125 30.5q-89 0 -164 -47.5t-118.5 -125t-43.5 -162.5q0 -76 32.5 -133t89 -87.5t125.5 -30.5q63 0 125 27z" />
    <glyph glyph-name="R" unicode="R" horiz-adv-x="585" 
d="M142 716h235q56 0 100 -24t69 -67t25 -99q0 -88 -57.5 -149t-151.5 -79l-3 -3l149 -291l-1 -4h-95l-146 292h-114l-53 -292h-84zM318 371q71 0 118.5 41t47.5 112q0 48 -32.5 79.5t-88.5 31.5h-151l-47 -264h153z" />
    <glyph glyph-name="S" unicode="S" horiz-adv-x="560" 
d="M77 35.5q-62 51.5 -76 142.5l82 33q8 -65 47.5 -105.5t106.5 -40.5q42 0 79.5 17.5t61 49.5t23.5 74q0 45 -30.5 74.5t-99.5 54.5l-43 16q-63 24 -103 67t-40 111q0 58 32.5 104t87.5 72.5t119 26.5q65 0 109.5 -23.5t68 -57.5t28.5 -67l-81 -30q-7 38 -38 67.5t-93 29.5
q-61 0 -103 -31.5t-42 -83.5q0 -41 28 -68t84 -48l43 -16q161 -61 161 -186q0 -70 -34.5 -123t-94 -82t-132.5 -29q-89 0 -151 51.5z" />
    <glyph glyph-name="T" unicode="T" horiz-adv-x="538" 
d="M275 635h-201l14 81h487l-15 -81h-201l-112 -635h-85z" />
    <glyph glyph-name="U" unicode="U" horiz-adv-x="657" 
d="M154.5 10.5q-50.5 26.5 -80 75t-29.5 113.5q0 38 9 94l75 423h84l-78 -443q-6 -35 -6 -61q0 -68 38 -107.5t112 -39.5q85 0 140.5 54.5t70.5 141.5l81 455h84l-82 -466q-23 -126 -102 -196t-206 -70q-60 0 -110.5 26.5z" />
    <glyph glyph-name="V" unicode="V" horiz-adv-x="630" 
d="M76 716h92l85 -519l12 -71h4l37 71l277 519h96l-389 -716h-87z" />
    <glyph glyph-name="W" unicode="W" horiz-adv-x="944" 
d="M80 716h91l38 -526l4 -49h4l23 49l252 526h88l61 -526l6 -49h4l20 49l223 526h95l-316 -716h-88l-65 518l-7 56h-4l-26 -56l-248 -518h-89z" />
    <glyph glyph-name="X" unicode="X" horiz-adv-x="630" 
d="M267 375l-169 341h100l130 -277h4l228 277h105l-290 -348l182 -368h-100l-146 299h-4l-249 -299h-100z" />
    <glyph glyph-name="Y" unicode="Y" horiz-adv-x="594" 
d="M251 331l-174 385h96l130 -300h4l233 300h102l-307 -385l-58 -331h-85z" />
    <glyph glyph-name="Z" unicode="Z" horiz-adv-x="570" 
d="M-11 89l480 546h-368l15 81h467l-16 -89l-480 -546h388l-15 -81h-486z" />
    <glyph glyph-name="bracketleft" unicode="[" horiz-adv-x="306" 
d="M152 792h202l-12 -70h-125l-137 -776h124l-11 -70h-201z" />
    <glyph glyph-name="backslash" unicode="\" horiz-adv-x="431" 
d="M91 716h78l170 -716h-78z" />
    <glyph glyph-name="bracketright" unicode="]" horiz-adv-x="306" 
d="M-36 -54h123l136 776h-123l12 70h201l-161 -916h-200z" />
    <glyph glyph-name="asciicircum" unicode="^" horiz-adv-x="465" 
d="M286 634h-4l-167 -224h-94l241 306h67l133 -306h-85z" />
    <glyph glyph-name="underscore" unicode="_" horiz-adv-x="476" 
d="M406 -146l-13 -70h-475l13 70h475z" />
    <glyph glyph-name="grave" unicode="`" horiz-adv-x="397" 
d="M162 716h91l29 -127h-72z" />
    <glyph glyph-name="a" unicode="a" horiz-adv-x="521" 
d="M99 3.5q-38 19.5 -60 54t-22 78.5q0 55 30 96.5t84 64t122 22.5q76 0 142 -33l5 26q2 14 2 24q0 45 -33.5 73t-86.5 28q-80 0 -135 -68l-66 47q35 46 89.5 71t120.5 25q92 0 142 -44t50 -119q0 -20 -5 -52l-53 -297h-81l13 72h-4q-27 -40 -71 -64t-98 -24q-47 0 -85 19.5
zM283.5 79.5q38.5 20.5 65 56.5t33.5 79q-56 36 -135 36q-59 0 -100.5 -28.5t-41.5 -79.5q0 -39 28 -61.5t69 -22.5q43 0 81.5 20.5z" />
    <glyph glyph-name="b" unicode="b" horiz-adv-x="589" 
d="M160 9.5q-43 25.5 -64 64.5h-4l-13 -74h-80l126 716h84l-39 -225l-16 -68h4q27 39 71 64t104 25q59 0 106 -28.5t73.5 -81t26.5 -121.5q0 -77 -37 -145.5t-102 -110t-145 -41.5q-52 0 -95 25.5zM357.5 89.5q44.5 28.5 70 77.5t25.5 108q0 74 -38.5 117t-104.5 43
q-53 0 -97 -31t-69.5 -82t-25.5 -107q0 -72 40 -113t101 -41q54 0 98.5 28.5z" />
    <glyph glyph-name="c" unicode="c" horiz-adv-x="533" 
d="M114 14.5q-49 30.5 -76 83t-27 115.5q0 83 38.5 151.5t106 108t149.5 39.5t132 -40.5t67 -99.5l-79 -31q-14 45 -46.5 69.5t-83.5 24.5q-55 0 -100 -28.5t-71.5 -78t-26.5 -109.5q0 -67 39 -112.5t105 -45.5q49 0 88.5 25.5t66.5 71.5l68 -33q-44 -74 -99 -107.5
t-139 -33.5q-63 0 -112 30.5z" />
    <glyph glyph-name="d" unicode="d" horiz-adv-x="590" 
d="M110.5 12q-46.5 28 -73 80t-26.5 121q0 78 37.5 147t103 110.5t146.5 41.5q53 0 94.5 -25.5t62.5 -64.5h4l9 69l39 225h85l-126 -716h-81l13 73h-4q-28 -40 -73 -64.5t-106 -24.5q-58 0 -104.5 28zM336.5 91.5q44.5 30.5 70.5 81.5t26 109q0 72 -39.5 112.5t-101.5 40.5
q-54 0 -99 -29t-70.5 -78.5t-25.5 -108.5q0 -74 38 -116t103 -42q54 0 98.5 30.5z" />
    <glyph glyph-name="e" unicode="e" horiz-adv-x="550" 
d="M115.5 14q-50.5 30 -77.5 82t-27 115q0 77 35.5 146.5t100 112t148.5 42.5q66 0 112.5 -27.5t70.5 -74.5t24 -105q0 -41 -8 -73h-395q-2 -22 -2 -31q0 -44 20 -75.5t52 -48t69 -16.5q54 0 95 24.5t68 68.5l66 -37q-38 -64 -98.5 -98.5t-134.5 -34.5q-68 0 -118.5 30z
M417 303v13q0 49 -34.5 84t-96.5 35t-108 -36.5t-64 -95.5h303z" />
    <glyph glyph-name="f" unicode="f" horiz-adv-x="371" 
d="M129 419h-92l13 77h93l12 69q12 74 64.5 116.5t122.5 42.5q39 0 73 -12l-15 -83q-14 9 -29.5 12.5t-36.5 3.5q-33 0 -60.5 -23.5t-35.5 -65.5l-10 -60h129l-14 -77h-129l-74 -419h-85z" />
    <glyph glyph-name="g" unicode="g" horiz-adv-x="588" 
d="M101 -210.5q-43 21.5 -68 54.5t-33 68l82 32q9 -44 42 -71.5t86 -27.5q78 0 129.5 47t65.5 129l9 52h-4q-27 -40 -72 -63.5t-106 -23.5q-56 0 -102 28t-73 80t-27 122q0 74 35.5 142.5t100 111t148.5 42.5q56 0 97.5 -25.5t60.5 -63.5h4l13 73h81l-87 -490
q-21 -120 -97.5 -179t-184.5 -59q-57 0 -100 21.5zM353 94q45 31 70.5 82t25.5 109q0 70 -39 110t-97 40q-60 0 -104.5 -30.5t-68.5 -80.5t-24 -107q0 -72 38.5 -113t98.5 -41q55 0 100 31z" />
    <glyph glyph-name="h" unicode="h" horiz-adv-x="554" 
d="M125 716h84l-39 -224l-17 -71h4q29 41 75 66t101 25q78 0 118 -41t40 -107q0 -23 -6 -64l-54 -300h-85l53 299q5 25 5 42q0 45 -27.5 69.5t-75.5 24.5q-62 0 -110.5 -49t-60.5 -119l-47 -267h-84z" />
    <glyph glyph-name="i" unicode="i" horiz-adv-x="224" 
d="M121 618q-18 18 -18 43t18 42.5t43 17.5t43 -17.5t18 -42.5t-17.5 -43t-43.5 -18q-25 0 -43 18zM92 496h85l-87 -496h-85z" />
    <glyph glyph-name="j" unicode="j" horiz-adv-x="225" 
d="M122 616q-18 18 -18 43t18 43t43 18q26 0 43.5 -17.5t17.5 -43.5q0 -25 -17.5 -43t-43.5 -18q-25 0 -43 18zM-131 -219l14 79q18 -9 39 -9q31 0 48 18.5t23 52.5l101 574h85l-102 -578q-14 -79 -54.5 -111.5t-106.5 -32.5q-24 0 -47 7z" />
    <glyph glyph-name="k" unicode="k" horiz-adv-x="495" 
d="M125 716h85l-78 -444l259 224h116l-1 -4l-228 -193l150 -295l-1 -4h-98l-119 242l-98 -84l-28 -158h-85z" />
    <glyph glyph-name="l" unicode="l" horiz-adv-x="209" 
d="M125 716h84l-126 -716h-84z" />
    <glyph glyph-name="m" unicode="m" horiz-adv-x="864" 
d="M167 496l-14 -74h4q27 42 69.5 66t98.5 24t92.5 -26t49.5 -73q28 46 76 72.5t108 26.5q74 0 113 -38.5t39 -101.5q0 -27 -9 -77l-52 -295h-84l52 300q5 30 5 49q0 41 -23.5 63.5t-70.5 22.5q-59 0 -103 -47.5t-57 -115.5l-48 -272h-85l53 300q5 28 5 48q0 41 -24.5 64
t-70.5 23q-60 0 -104 -48.5t-56 -115.5l-48 -271h-84l87 496h81z" />
    <glyph glyph-name="n" unicode="n" horiz-adv-x="554" 
d="M157 422q27 40 72 65t102 25q72 0 115.5 -41.5t43.5 -109.5q0 -34 -7 -70l-51 -291h-85l53 298q5 28 5 44q0 45 -28 69t-77 24q-62 0 -109 -46.5t-59 -114.5l-49 -274h-84l87 496h81l-14 -74h4z" />
    <glyph glyph-name="o" unicode="o" horiz-adv-x="574" 
d="M121.5 15.5q-52.5 31.5 -81.5 85.5t-29 119q0 81 37.5 148t105 105.5t151.5 38.5q66 0 118.5 -31.5t81.5 -85.5t29 -119q0 -81 -37.5 -147.5t-104.5 -105.5t-152 -39q-66 0 -118.5 31.5zM353 90q45 29 70 77t25 104q0 47 -20 84.5t-55 58.5t-77 21q-58 0 -103.5 -29
t-70.5 -77t-25 -104q0 -47 20 -84.5t55 -58.5t77 -21q59 0 104 29z" />
    <glyph glyph-name="p" unicode="p" horiz-adv-x="586" 
d="M92 496h80l-13 -73h4q29 40 73.5 64.5t105.5 24.5q59 0 105.5 -28t73 -80t26.5 -121q0 -78 -37.5 -147t-103 -110.5t-146.5 -41.5q-53 0 -95 25.5t-63 64.5h-4l-8 -69l-40 -221h-84zM364.5 90q44.5 29 70 78.5t25.5 108.5q0 74 -38 116t-103 42q-54 0 -98.5 -31t-70 -82
t-25.5 -109q0 -71 40 -111.5t101 -40.5q54 0 98.5 29z" />
    <glyph glyph-name="q" unicode="q" horiz-adv-x="586" 
d="M382 5l16 69h-4q-24 -42 -68 -66t-105 -24t-108.5 28.5t-74.5 81t-27 121.5q0 77 37 145.5t102 110t146 41.5q53 0 95.5 -25.5t63.5 -64.5h4l13 74h80l-125 -713h-84zM338 92q44 31 69.5 82t25.5 107q0 73 -40 113.5t-102 40.5q-53 0 -97.5 -28.5t-70 -77.5t-25.5 -108
q0 -74 38.5 -117t104.5 -43q53 0 97 31z" />
    <glyph glyph-name="r" unicode="r" horiz-adv-x="366" 
d="M86 496h81l-14 -76h4q21 41 66 66t92 25q36 0 59 -9l-17 -93q-27 16 -67 16q-34 0 -68.5 -20.5t-58.5 -54.5t-31 -74l-49 -276h-84z" />
    <glyph glyph-name="s" unicode="s" horiz-adv-x="461" 
d="M57.5 23q-50.5 39 -68.5 101l81 32q10 -46 45 -71.5t82 -25.5q48 0 79.5 21.5t31.5 55.5q0 30 -19.5 48.5t-63.5 30.5l-54 14q-126 35 -126 132q0 43 26 77.5t71.5 54t100.5 19.5q68 0 118 -32t67 -84l-81 -31q-12 32 -40.5 52t-68.5 20q-47 0 -76 -18.5t-29 -50.5
q0 -22 18.5 -40t54.5 -27l63 -17q61 -17 94 -52t33 -86q0 -73 -57 -117.5t-151 -44.5q-80 0 -130.5 39z" />
    <glyph glyph-name="t" unicode="t" horiz-adv-x="358" 
d="M106 23q-33 31 -33 80q0 23 5 49l47 267h-88l14 77h87l26 148h85l-26 -148h122l-14 -77h-122l-45 -257q-5 -28 -5 -39q0 -24 14.5 -38t41.5 -14q31 0 58 15l-14 -83q-18 -6 -32.5 -8.5t-36.5 -2.5q-51 0 -84 31z" />
    <glyph glyph-name="u" unicode="u" horiz-adv-x="554" 
d="M357 74q-27 -41 -71.5 -65.5t-101.5 -24.5q-73 0 -116 41.5t-43 109.5q0 33 7 71l51 290h85l-53 -298q-5 -21 -5 -44q0 -45 28 -69t77 -24q62 0 109 46.5t59 114.5l48 274h85l-87 -496h-81l13 74h-4z" />
    <glyph glyph-name="v" unicode="v" horiz-adv-x="502" 
d="M30 496h90l82 -396h2l224 396h92l-291 -496h-86z" />
    <glyph glyph-name="w" unicode="w" horiz-adv-x="760" 
d="M30 496h86l47 -386h1l194 386h89l58 -386h1l183 386h88l-248 -496h-87l-58 393l-196 -393h-86z" />
    <glyph glyph-name="x" unicode="x" horiz-adv-x="476" 
d="M165 255l-126 241h96l91 -180h1l151 180h104l-216 -246l132 -250h-96l-95 190h-1l-158 -190h-102z" />
    <glyph glyph-name="y" unicode="y" horiz-adv-x="503" 
d="M170 33l-124 463h89l92 -365h2l214 365h94l-436 -712h-90z" />
    <glyph glyph-name="z" unicode="z" horiz-adv-x="469" 
d="M332 419h-278l14 77h385l-13 -73l-348 -346h290l-13 -77h-397l12 73z" />
    <glyph glyph-name="braceleft" unicode="{" horiz-adv-x="315" 
d="M80 -89.5q-38 34.5 -38 89.5q0 21 3 39l31 176q2 14 2 21q0 31 -16 47t-45 16l12 70q34 0 58 21t31 64l31 175q15 81 60.5 122t127.5 41h25l-12 -70h-21q-41 0 -67.5 -25t-35.5 -71l-32 -175q-8 -49 -29 -76t-57 -39l-1 -4q26 -10 38.5 -29t12.5 -50q0 -17 -4 -36
l-32 -176q-3 -18 -3 -26q0 -33 20.5 -51t52.5 -18h21l-12 -70h-22q-61 0 -99 34.5z" />
    <glyph glyph-name="bar" unicode="|" horiz-adv-x="222" 
d="M153 792h77l-161 -912h-77z" />
    <glyph glyph-name="braceright" unicode="}" horiz-adv-x="315" 
d="M-37 -54h22q41 0 67.5 25t34.5 71l32 175q9 49 29.5 76t57.5 39l1 4q-26 10 -39 29t-13 50q0 17 4 36l32 176q3 18 3 26q0 33 -20.5 51t-52.5 18h-21l12 70h22q61 0 99 -34.5t38 -89.5q0 -21 -3 -39l-31 -176q-2 -14 -2 -21q0 -31 16 -47t45 -16l-12 -70q-33 0 -57 -21
t-32 -64l-31 -175q-14 -81 -59.5 -122t-127.5 -41h-26z" />
    <glyph glyph-name="asciitilde" unicode="~" horiz-adv-x="526" 
d="M301 245q-26 9 -62 27q-36 17 -56.5 24.5t-41.5 7.5q-26 0 -42.5 -16.5t-22.5 -38.5h-66q7 62 42.5 96.5t95.5 34.5q26 0 53 -9.5t61 -26.5q35 -16 56 -24t42 -8q26 0 43 16.5t22 38.5h67q-8 -62 -43 -96.5t-95 -34.5q-27 0 -53 9z" />
    <glyph glyph-name="uni00A0" unicode="&#xa0;" horiz-adv-x="224" 
d="M0 0z" />
    <glyph glyph-name="exclamdown" unicode="&#xa1;" horiz-adv-x="224" 
d="M91.5 403.5q-18.5 18.5 -18.5 45.5q0 26 18.5 44.5t44.5 18.5q27 0 45.5 -18.5t18.5 -44.5q0 -27 -18.5 -45.5t-45.5 -18.5q-26 0 -44.5 18.5zM21 27l56 267h66l-37 -267l-43 -243h-85z" />
    <glyph glyph-name="cent" unicode="&#xa2;" horiz-adv-x="519" 
d="M195 86q-50 8 -89.5 39.5t-61 80t-21.5 104.5q0 77 34 141t94 103t135 45l15 85h70l-16 -87q62 -11 100.5 -48t53.5 -87l-80 -32q-23 75 -87 90l-63 -359q40 8 68 31t52 63l70 -33q-41 -66 -88 -99t-116 -39l-15 -84h-70zM272 523q-72 -11 -118 -69.5t-46 -137.5
q0 -57 27 -98.5t74 -55.5z" />
    <glyph glyph-name="sterling" unicode="&#xa3;" horiz-adv-x="515" 
d="M-16 73q55 26 91 71t36 96v9h-96l12 71h68q-2 6 -4 14q-3 8 -6 17q-14 41 -21.5 70t-7.5 62q0 58 28 108t81 79.5t123 29.5q77 0 121.5 -39.5t60.5 -101.5l-83 -32q-23 92 -111 92q-58 0 -96 -39.5t-38 -97.5q0 -27 7 -52.5t21 -63.5q4 -10 16 -46h141l-12 -71h-120
q1 -2 1 -5q-2 -46 -25.5 -86.5t-63.5 -72.5l3 -4h183q37 0 60 15t39 44l64 -29q-27 -56 -68.5 -83.5t-108.5 -27.5h-308z" />
    <glyph glyph-name="currency" unicode="&#xa4;" horiz-adv-x="595" 
d="M61 143l59 58q-38 59 -38 124q0 66 38 124l-59 59l49 50l59 -57q56 43 129 43q72 0 128 -43l59 57l50 -50l-59 -58q37 -58 37 -125q0 -66 -37 -124l59 -58l-50 -50l-59 57q-27 -21 -60 -32.5t-68 -11.5q-72 0 -129 44l-59 -57zM366.5 199.5q31.5 19.5 50 53t18.5 72.5
t-18.5 72.5t-50 53t-68.5 19.5q-38 0 -69.5 -19.5t-50 -53t-18.5 -72.5t18.5 -72.5t50 -53t69.5 -19.5q37 0 68.5 19.5z" />
    <glyph glyph-name="yen" unicode="&#xa5;" horiz-adv-x="565" 
d="M208 169h-170l13 70h170l15 85h-170l12 70h125l-134 290h93l100 -232l25 -57h4l43 57l179 232h97l-233 -290h122l-12 -70h-166l-16 -85h167l-13 -70h-166l-30 -169h-85z" />
    <glyph glyph-name="brokenbar" unicode="&#xa6;" horiz-adv-x="222" 
d="M150 756h77l-67 -380h-77zM68 292h77l-73 -412h-77z" />
    <glyph glyph-name="section" unicode="&#xa7;" horiz-adv-x="531" 
d="M88.5 -209.5q-46.5 22.5 -76.5 65.5t-35 102l80 32q8 -62 43.5 -101.5t97.5 -39.5q61 0 102.5 32t41.5 88q0 47 -31.5 75t-99.5 50l-4 1q-75 24 -118 67.5t-43 102.5q0 50 34 92.5t84 65.5q-28 24 -45.5 56t-17.5 70q0 50 27 92t76.5 66.5t115.5 24.5q83 0 132.5 -42
t63.5 -103l-84 -32q-5 37 -35 66.5t-85 29.5q-48 0 -85.5 -25.5t-37.5 -66.5q0 -37 30 -63t93 -50l3 -1q81 -31 124.5 -75t43.5 -109q0 -54 -27.5 -94.5t-75.5 -67.5q49 -46 49 -119q0 -58 -30 -106.5t-84.5 -77t-125.5 -28.5q-54 0 -100.5 22.5zM372.5 186.5
q22.5 27.5 22.5 60.5q0 41 -33.5 73.5t-96.5 53.5l-20 6q-45 -13 -77.5 -42t-32.5 -67q0 -35 28 -58.5t83 -41.5q42 -15 71 -29q33 17 55.5 44.5z" />
    <glyph glyph-name="dieresis" unicode="&#xa8;" horiz-adv-x="392" 
d="M127.5 621.5q-16.5 16.5 -16.5 37.5q0 23 16 38.5t38 15.5q23 0 38.5 -15.5t15.5 -38.5q0 -22 -15.5 -38t-38.5 -16q-21 0 -37.5 16.5zM292 621.5q-16 16.5 -16 37.5q0 23 16 38.5t37 15.5q23 0 38.5 -15.5t15.5 -38.5q0 -22 -15.5 -38t-38.5 -16q-21 0 -37 16.5z" />
    <glyph glyph-name="copyright" unicode="&#xa9;" horiz-adv-x="532" 
d="M151 303q-53 31 -84 84t-31 115t31 115t84 84t115 31t115 -31t84 -84t31 -115t-31 -115t-84 -84t-115 -31t-115 31zM358.5 343q42.5 25 67.5 67.5t25 91.5q0 50 -25 92.5t-67.5 67t-92.5 24.5q-49 0 -91.5 -24.5t-67.5 -67t-25 -92.5q0 -49 25 -91.5t67.5 -67.5t91.5 -25
q50 0 92.5 25zM186 418q-34 35 -34 84q0 50 34 84.5t84 34.5q28 0 48 -10t39 -29l-31 -28q-11 13 -23.5 19t-32.5 6q-30 0 -52 -22.5t-22 -54.5t22 -54.5t52 -22.5q37 0 61 32l33 -26q-36 -48 -94 -48q-50 0 -84 35z" />
    <glyph glyph-name="ordfeminine" unicode="&#xaa;" horiz-adv-x="474" 
d="M90 308q-42 36 -42 96q0 49 29.5 86t77.5 56.5t102 19.5q70 0 128 -30l2 16q2 18 2 19q0 41 -28 65t-71 24q-40 0 -69.5 -13t-51.5 -42l-62 36q24 40 72 65.5t117 25.5q73 0 122 -41t49 -109q0 -18 -3 -36l-46 -260h-78l12 65h-4q-26 -35 -65 -57t-84 -22q-67 0 -109 36z
M318 379q46 37 56 93q-26 16 -52.5 24t-62.5 8q-50 0 -88.5 -23.5t-38.5 -69.5q0 -33 25.5 -51t57.5 -18q57 0 103 37z" />
    <glyph glyph-name="guillemotleft" unicode="&#xab;" horiz-adv-x="551" 
d="M181 54l-162 217l238 217l44 -49l-189 -173l124 -167zM381 54l-162 217l238 217l44 -49l-189 -173l124 -167z" />
    <glyph glyph-name="logicalnot" unicode="&#xac;" horiz-adv-x="559" 
d="M399 312h-363l12 70h430l-48 -277h-67z" />
    <glyph glyph-name="uni00AD" unicode="&#xad;" horiz-adv-x="430" 
d="M370 345l-12 -70h-317l12 70h317z" />
    <glyph glyph-name="registered" unicode="&#xae;" horiz-adv-x="532" 
d="M151 303q-53 31 -84 84t-31 115t31 115t84 84t115 31t115 -31t84 -84t31 -115t-31 -115t-84 -84t-115 -31t-115 31zM358.5 343q42.5 25 67.5 67.5t25 91.5q0 50 -25 92.5t-67.5 67t-92.5 24.5q-49 0 -91.5 -24.5t-67.5 -67t-25 -92.5q0 -49 25 -91.5t67.5 -67.5t91.5 -25
q50 0 92.5 25zM190 615h95q29 0 51 -21t22 -51q0 -23 -14.5 -41t-35.5 -24l-2 -2l60 -85v-2h-50l-56 85h-26v-85h-44v226zM281 514q13 0 23 8t10 21q0 12 -9 21t-23 9h-48v-59h47z" />
    <glyph glyph-name="macron" unicode="&#xaf;" horiz-adv-x="399" 
d="M120 692h276l-12 -66h-276z" />
    <glyph glyph-name="degree" unicode="&#xb0;" horiz-adv-x="324" 
d="M102 474.5q-35 32.5 -35 81.5q0 63 41.5 103.5t104.5 40.5q49 0 83.5 -32.5t34.5 -81.5q0 -63 -41 -103.5t-105 -40.5q-48 0 -83 32.5zM244.5 523.5q22.5 22.5 22.5 55.5q0 27 -16.5 44.5t-42.5 17.5q-31 0 -54 -22.5t-23 -55.5q0 -27 17 -44.5t43 -17.5q31 0 53.5 22.5z
" />
    <glyph glyph-name="plusminus" unicode="&#xb1;" horiz-adv-x="547" 
d="M228 299h-182l12 70h182l28 157h70l-28 -157h182l-12 -70h-182l-28 -157h-70zM5 70h435l-13 -70h-434z" />
    <glyph glyph-name="uni00B2" unicode="&#xb2;" horiz-adv-x="302" 
d="M31 406l158 136q56 42 56 78q0 21 -14.5 33t-36.5 12q-48 0 -71 -61l-55 25q12 45 49 70t83 25q49 0 80.5 -27.5t31.5 -69.5q0 -37 -18.5 -63.5t-57.5 -58.5l-113 -96h155l-11 -59h-246z" />
    <glyph glyph-name="uni00B3" unicode="&#xb3;" horiz-adv-x="322" 
d="M79.5 367.5q-34.5 25.5 -43.5 73.5l60 22q17 -62 70 -62q29 0 50 17.5t21 43.5q0 24 -16.5 37t-46.5 13h-33l11 56h35q28 0 47 15.5t19 39.5q0 20 -14 31t-34 11q-25 0 -40.5 -12.5t-27.5 -32.5l-53 23q14 37 48.5 59t80.5 22q47 0 77.5 -26t30.5 -65q0 -29 -20 -55
t-47 -36q23 -11 36.5 -31t13.5 -47q0 -52 -41.5 -87t-103.5 -35q-45 0 -79.5 25.5z" />
    <glyph glyph-name="acute" unicode="&#xb4;" horiz-adv-x="397" 
d="M266 716h95l-93 -127h-77z" />
    <glyph glyph-name="uni00B5" unicode="&#xb5;" horiz-adv-x="554" 
d="M83 496h85l-54 -301q-4 -21 -4 -41q0 -46 28 -69.5t77 -23.5q62 0 109 46.5t59 114.5l48 274h85l-87 -496h-81l13 74h-4q-27 -40 -72 -65t-102 -25q-30 0 -56.5 12.5t-40.5 32.5h-4l-6 -60l-34 -185h-84z" />
    <glyph glyph-name="paragraph" unicode="&#xb6;" horiz-adv-x="617" 
d="M292 296h-44q-60 0 -111.5 25.5t-82 73.5t-30.5 111t30.5 111t82 73.5t111.5 25.5h288v-932h-77v851h-89v-851h-78v512z" />
    <glyph glyph-name="periodcentered" unicode="&#xb7;" horiz-adv-x="167" 
d="M38.5 278.5q-18.5 18.5 -18.5 45.5t18.5 45.5t44.5 18.5q27 0 45.5 -18.5t18.5 -45.5t-18.5 -45.5t-45.5 -18.5q-26 0 -44.5 18.5z" />
    <glyph glyph-name="cedilla" unicode="&#xb8;" horiz-adv-x="403" 
d="M26.5 -217.5q-25.5 19.5 -31.5 47.5l53 22q2 -15 13.5 -25.5t27.5 -10.5q21 0 35.5 13.5t14.5 36.5q0 16 -11 27t-28 11q-19 0 -36 -17l-41 20l51 93h53l-29 -49q15 3 22 3q34 0 55 -24.5t21 -63.5q0 -45 -30.5 -74t-80.5 -29q-33 0 -58.5 19.5z" />
    <glyph glyph-name="uni00B9" unicode="&#xb9;" horiz-adv-x="239" 
d="M159 629l-55 -41l-31 49l111 79h56l-65 -366h-65z" />
    <glyph glyph-name="ordmasculine" unicode="&#xba;" horiz-adv-x="515" 
d="M148.5 297q-43.5 25 -68 70t-24.5 102q0 66 32.5 127t91.5 98.5t134 37.5q87 0 139.5 -53.5t52.5 -142.5q0 -70 -34.5 -131t-94 -97t-129.5 -36q-56 0 -99.5 25zM338.5 369.5q38.5 23.5 61.5 66t23 95.5q0 56 -35 91.5t-84 35.5q-46 0 -84 -25t-60 -67.5t-22 -91.5
q0 -57 33.5 -92.5t83.5 -35.5q45 0 83.5 23.5z" />
    <glyph glyph-name="guillemotright" unicode="&#xbb;" horiz-adv-x="551" 
d="M133 488l161 -217l-237 -217l-44 49l189 173l-125 167zM333 488l161 -217l-237 -217l-44 49l189 173l-125 167z" />
    <glyph glyph-name="onequarter" unicode="&#xbc;" horiz-adv-x="704" 
d="M184 629l-55 -41l-31 49l111 79h56l-65 -366h-65zM643 723l49 -40l-588 -691l-52 41zM507 74h-172l8 44l219 248h61l-41 -236h49l-11 -56h-49l-13 -74h-65zM517 130l23 132h-4l-117 -132h98z" />
    <glyph glyph-name="onehalf" unicode="&#xbd;" horiz-adv-x="774" 
d="M184 629l-55 -41l-31 49l111 79h56l-65 -366h-65zM642 723l49 -40l-588 -691l-52 41zM446 56l159 136q55 43 55 78q0 21 -14.5 33t-36.5 12q-48 0 -71 -61l-55 25q13 45 49.5 70t83.5 25q49 0 80 -27.5t31 -69.5q0 -37 -18.5 -63.5t-57.5 -58.5l-113 -96h155l-11 -59
h-246z" />
    <glyph glyph-name="threequarters" unicode="&#xbe;" horiz-adv-x="825" 
d="M123.5 367.5q-34.5 25.5 -43.5 73.5l60 22q17 -62 70 -62q29 0 50 17.5t21 43.5q0 24 -16.5 37t-46.5 13h-33l11 56h35q28 0 47 15.5t19 39.5q0 20 -14 31t-34 11q-25 0 -40.5 -12.5t-27.5 -32.5l-53 23q14 37 48.5 59t80.5 22q47 0 77.5 -26t30.5 -65q0 -29 -20 -55
t-47 -36q23 -11 36.5 -31t13.5 -47q0 -52 -41.5 -87t-103.5 -35q-45 0 -79.5 25.5zM729 723l49 -40l-588 -691l-52 41zM620 74h-172l8 44l219 248h61l-41 -236h49l-11 -56h-49l-13 -74h-65zM630 130l23 132h-4l-117 -132h98z" />
    <glyph glyph-name="questiondown" unicode="&#xbf;" horiz-adv-x="479" 
d="M234.5 403.5q-18.5 18.5 -18.5 45.5q0 26 18.5 44.5t45.5 18.5q26 0 44.5 -18.5t18.5 -44.5q0 -27 -18.5 -45.5t-44.5 -18.5q-27 0 -45.5 18.5zM74 -210q-42 22 -65.5 59t-23.5 82q0 59 33.5 103t97.5 93q39 30 58.5 57t25.5 63l9 47h86l-9 -53q-9 -52 -32.5 -84.5
t-83.5 -77.5q-46 -34 -72 -66t-26 -70q0 -42 30 -68t78 -26q50 0 84.5 28t48.5 71l74 -33q-23 -65 -78.5 -106t-140.5 -41q-52 0 -94 22z" />
    <glyph glyph-name="Agrave" unicode="&#xc0;" horiz-adv-x="668" 
d="M348 716h96l145 -716h-90l-36 197h-309l-108 -197h-96zM447 277l-50 258l-14 77h-4l-183 -335h251zM315 900h91l29 -127h-72z" />
    <glyph glyph-name="Aacute" unicode="&#xc1;" horiz-adv-x="668" 
d="M348 716h96l145 -716h-90l-36 197h-309l-108 -197h-96zM447 277l-50 258l-14 77h-4l-183 -335h251zM440 900h95l-93 -127h-77z" />
    <glyph glyph-name="Acircumflex" unicode="&#xc2;" horiz-adv-x="668" 
d="M348 716h96l145 -716h-90l-36 197h-309l-108 -197h-96zM447 277l-50 258l-14 77h-4l-183 -335h251zM261 784l123 116h75l81 -116l-1 -5h-76l-44 63h-8l-63 -63h-88z" />
    <glyph glyph-name="Atilde" unicode="&#xc3;" horiz-adv-x="668" 
d="M348 716h96l145 -716h-90l-36 197h-309l-108 -197h-96zM447 277l-50 258l-14 77h-4l-183 -335h251zM447 786q-15 6 -34 18q-18 11 -31.5 17t-29.5 6q-33 0 -42 -37h-70q8 56 38 85t74 29q17 0 32.5 -6t34.5 -18q18 -11 31.5 -17t28.5 -6q33 0 42 37h70q-7 -56 -37.5 -85
t-74.5 -29q-17 0 -32 6z" />
    <glyph glyph-name="Adieresis" unicode="&#xc4;" horiz-adv-x="668" 
d="M348 716h96l145 -716h-90l-36 197h-309l-108 -197h-96zM447 277l-50 258l-14 77h-4l-183 -335h251zM295.5 805.5q-16.5 16.5 -16.5 37.5q0 23 16 38.5t38 15.5q23 0 38.5 -15.5t15.5 -38.5q0 -22 -15.5 -38t-38.5 -16q-21 0 -37.5 16.5zM460 805.5q-16 16.5 -16 37.5
q0 23 16 38.5t37 15.5q23 0 38.5 -15.5t15.5 -38.5q0 -22 -15.5 -38t-38.5 -16q-21 0 -37 16.5z" />
    <glyph glyph-name="Aring" unicode="&#xc5;" horiz-adv-x="668" 
d="M328 680q-15 15 -24 34.5t-9 41.5q0 44 30 73.5t73 29.5t73.5 -30t30.5 -73q0 -26 -13 -49.5t-35 -37.5l135 -669h-90l-36 197h-309l-108 -197h-96zM429 725q13 13 13 31t-13 31t-31 13t-30.5 -13t-12.5 -31t12.5 -31t30.5 -13t31 13zM447 277l-50 258l-14 75h-5
l-182 -333h251z" />
    <glyph glyph-name="AE" unicode="&#xc6;" horiz-adv-x="959" 
d="M495 716h470l-15 -81h-329l-42 -237h297l-13 -80h-298l-42 -237h330l-15 -81h-414l34 197h-262l-151 -197h-103zM472 277l64 358h-4l-38 -50l-237 -308h215z" />
    <glyph glyph-name="Ccedilla" unicode="&#xc7;" horiz-adv-x="738" 
d="M331 -49q15 3 22 3q34 0 55 -24.5t21 -63.5q0 -45 -30.5 -74t-80.5 -29q-33 0 -58.5 19.5t-31.5 47.5l53 22q2 -15 13.5 -25.5t27.5 -10.5q21 0 35.5 13.5t14.5 36.5q0 16 -11 27t-28 11q-19 0 -36 -17l-41 20l44 80q-78 11 -137.5 53.5t-92.5 110.5t-33 155
q0 110 56.5 208.5t155.5 158t220 59.5q81 0 146 -33.5t99 -86.5l-68 -56q-33 49 -78 72t-108 23q-92 0 -169.5 -48t-122.5 -126.5t-45 -166.5q0 -73 31 -128.5t85.5 -86t121.5 -30.5q73 0 129 27t111 81l54 -61q-67 -66 -138.5 -97t-165.5 -31z" />
    <glyph glyph-name="Egrave" unicode="&#xc8;" horiz-adv-x="550" 
d="M142 716h414l-15 -81h-329l-42 -237h297l-13 -80h-298l-42 -237h330l-15 -81h-414zM276 900h91l29 -127h-72z" />
    <glyph glyph-name="Eacute" unicode="&#xc9;" horiz-adv-x="550" 
d="M142 716h414l-15 -81h-329l-42 -237h297l-13 -80h-298l-42 -237h330l-15 -81h-414zM401 900h95l-93 -127h-77z" />
    <glyph glyph-name="Ecircumflex" unicode="&#xca;" horiz-adv-x="550" 
d="M142 716h414l-15 -81h-329l-42 -237h297l-13 -80h-298l-42 -237h330l-15 -81h-414zM222 784l123 116h75l81 -116l-1 -5h-76l-44 63h-8l-63 -63h-88z" />
    <glyph glyph-name="Edieresis" unicode="&#xcb;" horiz-adv-x="550" 
d="M142 716h414l-15 -81h-329l-42 -237h297l-13 -80h-298l-42 -237h330l-15 -81h-414zM256.5 805.5q-16.5 16.5 -16.5 37.5q0 23 16 38.5t38 15.5q23 0 38.5 -15.5t15.5 -38.5q0 -22 -15.5 -38t-38.5 -16q-21 0 -37.5 16.5zM421 805.5q-16 16.5 -16 37.5q0 23 16 38.5
t37 15.5q23 0 38.5 -15.5t15.5 -38.5q0 -22 -15.5 -38t-38.5 -16q-21 0 -37 16.5z" />
    <glyph glyph-name="Igrave" unicode="&#xcc;" horiz-adv-x="243" 
d="M142 716h84l-127 -716h-84zM106 900h91l29 -127h-72z" />
    <glyph glyph-name="Iacute" unicode="&#xcd;" horiz-adv-x="243" 
d="M142 716h84l-127 -716h-84zM231 900h95l-93 -127h-77z" />
    <glyph glyph-name="Icircumflex" unicode="&#xce;" horiz-adv-x="243" 
d="M142 716h84l-127 -716h-84zM52 784l123 116h75l81 -116l-1 -5h-76l-44 63h-8l-63 -63h-88z" />
    <glyph glyph-name="Idieresis" unicode="&#xcf;" horiz-adv-x="243" 
d="M98 806q-16 16 -16 38q0 23 16 38.5t37 15.5q23 0 38.5 -15.5t15.5 -38.5q0 -22 -15.5 -38t-38.5 -16q-21 0 -37 16zM231 806q-16 16 -16 38q0 23 16 38.5t37 15.5q23 0 38.5 -15.5t15.5 -38.5q0 -22 -15.5 -38t-38.5 -16q-21 0 -37 16zM142 716h84l-127 -716h-84z" />
    <glyph glyph-name="Eth" unicode="&#xd0;" horiz-adv-x="750" 
d="M125 322h-75l12 70h76l57 324h217q97 0 166 -40t104.5 -109.5t35.5 -158.5q0 -109 -51 -202.5t-147 -149.5t-226 -56h-226zM299 81q94 0 170 42.5t119 116t43 162.5q0 113 -61.5 173t-172.5 60h-132l-43 -243h204l-12 -70h-204l-42 -241h131z" />
    <glyph glyph-name="Ntilde" unicode="&#xd1;" horiz-adv-x="706" 
d="M142 716h97l265 -570h4l21 138l76 432h85l-127 -716h-81l-277 597h-4l-20 -138l-82 -459h-84zM459 786q-15 6 -34 18q-18 11 -31.5 17t-29.5 6q-33 0 -42 -37h-70q8 56 38 85t74 29q17 0 32.5 -6t34.5 -18q18 -11 31.5 -17t28.5 -6q33 0 42 37h70q-7 -56 -37.5 -85
t-74.5 -29q-17 0 -32 6z" />
    <glyph glyph-name="Ograve" unicode="&#xd2;" horiz-adv-x="822" 
d="M197.5 25.5q-74.5 41.5 -117.5 115.5t-43 168q0 110 54 207.5t150.5 156.5t218.5 59q90 0 164 -41.5t117 -115.5t43 -168q0 -110 -53.5 -207.5t-150 -156.5t-217.5 -59q-91 0 -165.5 41.5zM534.5 112.5q74.5 47.5 118 125t43.5 162.5q0 76 -32.5 133t-88.5 87.5
t-125 30.5q-89 0 -164 -47.5t-118.5 -125t-43.5 -162.5q0 -76 32.5 -133t89 -87.5t125.5 -30.5q89 0 163.5 47.5zM381 900h91l29 -127h-72z" />
    <glyph glyph-name="Oacute" unicode="&#xd3;" horiz-adv-x="822" 
d="M197.5 25.5q-74.5 41.5 -117.5 115.5t-43 168q0 110 54 207.5t150.5 156.5t218.5 59q90 0 164 -41.5t117 -115.5t43 -168q0 -110 -53.5 -207.5t-150 -156.5t-217.5 -59q-91 0 -165.5 41.5zM534.5 112.5q74.5 47.5 118 125t43.5 162.5q0 76 -32.5 133t-88.5 87.5
t-125 30.5q-89 0 -164 -47.5t-118.5 -125t-43.5 -162.5q0 -76 32.5 -133t89 -87.5t125.5 -30.5q89 0 163.5 47.5zM506 900h95l-93 -127h-77z" />
    <glyph glyph-name="Ocircumflex" unicode="&#xd4;" horiz-adv-x="822" 
d="M197.5 25.5q-74.5 41.5 -117.5 115.5t-43 168q0 110 54 207.5t150.5 156.5t218.5 59q90 0 164 -41.5t117 -115.5t43 -168q0 -110 -53.5 -207.5t-150 -156.5t-217.5 -59q-91 0 -165.5 41.5zM534.5 112.5q74.5 47.5 118 125t43.5 162.5q0 76 -32.5 133t-88.5 87.5
t-125 30.5q-89 0 -164 -47.5t-118.5 -125t-43.5 -162.5q0 -76 32.5 -133t89 -87.5t125.5 -30.5q89 0 163.5 47.5zM327 784l123 116h75l81 -116l-1 -5h-76l-44 63h-8l-63 -63h-88z" />
    <glyph glyph-name="Otilde" unicode="&#xd5;" horiz-adv-x="822" 
d="M197.5 25.5q-74.5 41.5 -117.5 115.5t-43 168q0 110 54 207.5t150.5 156.5t218.5 59q90 0 164 -41.5t117 -115.5t43 -168q0 -110 -53.5 -207.5t-150 -156.5t-217.5 -59q-91 0 -165.5 41.5zM534.5 112.5q74.5 47.5 118 125t43.5 162.5q0 76 -32.5 133t-88.5 87.5
t-125 30.5q-89 0 -164 -47.5t-118.5 -125t-43.5 -162.5q0 -76 32.5 -133t89 -87.5t125.5 -30.5q89 0 163.5 47.5zM513 786q-15 6 -34 18q-18 11 -31.5 17t-29.5 6q-33 0 -42 -37h-70q8 56 38 85t74 29q17 0 32.5 -6t34.5 -18q18 -11 31.5 -17t28.5 -6q33 0 42 37h70
q-7 -56 -37.5 -85t-74.5 -29q-17 0 -32 6z" />
    <glyph glyph-name="Odieresis" unicode="&#xd6;" horiz-adv-x="822" 
d="M197.5 25.5q-74.5 41.5 -117.5 115.5t-43 168q0 110 54 207.5t150.5 156.5t218.5 59q90 0 164 -41.5t117 -115.5t43 -168q0 -110 -53.5 -207.5t-150 -156.5t-217.5 -59q-91 0 -165.5 41.5zM534.5 112.5q74.5 47.5 118 125t43.5 162.5q0 76 -32.5 133t-88.5 87.5
t-125 30.5q-89 0 -164 -47.5t-118.5 -125t-43.5 -162.5q0 -76 32.5 -133t89 -87.5t125.5 -30.5q89 0 163.5 47.5zM361.5 805.5q-16.5 16.5 -16.5 37.5q0 23 16 38.5t38 15.5q23 0 38.5 -15.5t15.5 -38.5q0 -22 -15.5 -38t-38.5 -16q-21 0 -37.5 16.5zM526 805.5
q-16 16.5 -16 37.5q0 23 16 38.5t37 15.5q23 0 38.5 -15.5t15.5 -38.5q0 -22 -15.5 -38t-38.5 -16q-21 0 -37 16.5z" />
    <glyph glyph-name="multiply" unicode="&#xd7;" horiz-adv-x="535" 
d="M16 119l187 155l-130 153l53 45l131 -154l187 156l43 -52l-186 -155l130 -152l-53 -45l-131 153l-188 -156z" />
    <glyph glyph-name="Oslash" unicode="&#xd8;" horiz-adv-x="822" 
d="M81 5l53 66q-46 45 -71.5 105.5t-25.5 132.5q0 110 54 207.5t150.5 156.5t218.5 59q89 0 168 -44l53 68l59 -45l-54 -66q47 -44 72.5 -105t25.5 -133q0 -110 -53.5 -207.5t-150 -156.5t-217.5 -59q-93 0 -170 44l-53 -67zM574 620q-57 31 -124 31q-89 0 -164 -47.5
t-118.5 -125t-43.5 -162.5q0 -109 65 -177zM534.5 112.5q74.5 47.5 118 125t43.5 162.5q0 108 -64 177l-385 -482q57 -30 124 -30q89 0 163.5 47.5z" />
    <glyph glyph-name="Ugrave" unicode="&#xd9;" horiz-adv-x="657" 
d="M154.5 10.5q-50.5 26.5 -80 75t-29.5 113.5q0 38 9 94l75 423h84l-78 -443q-6 -35 -6 -61q0 -68 38 -107.5t112 -39.5q85 0 140.5 54.5t70.5 141.5l81 455h84l-82 -466q-23 -126 -102 -196t-206 -70q-60 0 -110.5 26.5zM307 900h91l29 -127h-72z" />
    <glyph glyph-name="Uacute" unicode="&#xda;" horiz-adv-x="657" 
d="M154.5 10.5q-50.5 26.5 -80 75t-29.5 113.5q0 38 9 94l75 423h84l-78 -443q-6 -35 -6 -61q0 -68 38 -107.5t112 -39.5q85 0 140.5 54.5t70.5 141.5l81 455h84l-82 -466q-23 -126 -102 -196t-206 -70q-60 0 -110.5 26.5zM432 900h95l-93 -127h-77z" />
    <glyph glyph-name="Ucircumflex" unicode="&#xdb;" horiz-adv-x="657" 
d="M154.5 10.5q-50.5 26.5 -80 75t-29.5 113.5q0 38 9 94l75 423h84l-78 -443q-6 -35 -6 -61q0 -68 38 -107.5t112 -39.5q85 0 140.5 54.5t70.5 141.5l81 455h84l-82 -466q-23 -126 -102 -196t-206 -70q-60 0 -110.5 26.5zM253 784l123 116h75l81 -116l-1 -5h-76l-44 63h-8
l-63 -63h-88z" />
    <glyph glyph-name="Udieresis" unicode="&#xdc;" horiz-adv-x="657" 
d="M154.5 10.5q-50.5 26.5 -80 75t-29.5 113.5q0 38 9 94l75 423h84l-78 -443q-6 -35 -6 -61q0 -68 38 -107.5t112 -39.5q85 0 140.5 54.5t70.5 141.5l81 455h84l-82 -466q-23 -126 -102 -196t-206 -70q-60 0 -110.5 26.5zM287.5 805.5q-16.5 16.5 -16.5 37.5q0 23 16 38.5
t38 15.5q23 0 38.5 -15.5t15.5 -38.5q0 -22 -15.5 -38t-38.5 -16q-21 0 -37.5 16.5zM452 805.5q-16 16.5 -16 37.5q0 23 16 38.5t37 15.5q23 0 38.5 -15.5t15.5 -38.5q0 -22 -15.5 -38t-38.5 -16q-21 0 -37 16.5z" />
    <glyph glyph-name="Yacute" unicode="&#xdd;" horiz-adv-x="594" 
d="M251 331l-174 385h96l130 -300h4l233 300h102l-307 -385l-58 -331h-85zM393 900h95l-93 -127h-77z" />
    <glyph glyph-name="Thorn" unicode="&#xde;" horiz-adv-x="562" 
d="M136 716h85l-23 -123h152q56 0 100 -23.5t69 -65.5t25 -96q0 -73 -34 -127.5t-93.5 -83t-135.5 -28.5h-157l-30 -169h-85zM296 250q71 0 116 37.5t45 109.5q0 52 -32.5 83.5t-81.5 31.5h-158l-47 -262h158z" />
    <glyph glyph-name="germandbls" unicode="&#xdf;" horiz-adv-x="558" 
d="M475 324.5q26 -40.5 26 -95.5q0 -70 -34 -123.5t-93.5 -83.5t-132.5 -30q-39 0 -63 5l14 80q27 -4 56 -4q71 0 118.5 40t47.5 108q0 55 -34 89t-100 34h-32l14 78h27q38 0 73 15.5t56.5 45t21.5 69.5q0 45 -31 72t-80 27q-56 0 -94 -36.5t-49 -98.5l-91 -516h-86l91 516
q18 99 77 157.5t161 58.5q57 0 100 -23t66.5 -62.5t23.5 -87.5q0 -61 -33 -105t-87 -65v-4q41 -20 67 -60.5z" />
    <glyph glyph-name="agrave" unicode="&#xe0;" horiz-adv-x="521" 
d="M99 3.5q-38 19.5 -60 54t-22 78.5q0 55 30 96.5t84 64t122 22.5q76 0 142 -33l5 26q2 14 2 24q0 45 -33.5 73t-86.5 28q-80 0 -135 -68l-66 47q35 46 89.5 71t120.5 25q92 0 142 -44t50 -119q0 -20 -5 -52l-53 -297h-81l13 72h-4q-27 -40 -71 -64t-98 -24q-47 0 -85 19.5
zM283.5 79.5q38.5 20.5 65 56.5t33.5 79q-56 36 -135 36q-59 0 -100.5 -28.5t-41.5 -79.5q0 -39 28 -61.5t69 -22.5q43 0 81.5 20.5zM227 722h91l29 -127h-72z" />
    <glyph glyph-name="aacute" unicode="&#xe1;" horiz-adv-x="521" 
d="M99 3.5q-38 19.5 -60 54t-22 78.5q0 55 30 96.5t84 64t122 22.5q76 0 142 -33l5 26q2 14 2 24q0 45 -33.5 73t-86.5 28q-80 0 -135 -68l-66 47q35 46 89.5 71t120.5 25q92 0 142 -44t50 -119q0 -20 -5 -52l-53 -297h-81l13 72h-4q-27 -40 -71 -64t-98 -24q-47 0 -85 19.5
zM283.5 79.5q38.5 20.5 65 56.5t33.5 79q-56 36 -135 36q-59 0 -100.5 -28.5t-41.5 -79.5q0 -39 28 -61.5t69 -22.5q43 0 81.5 20.5zM344 722h95l-93 -127h-76z" />
    <glyph glyph-name="acircumflex" unicode="&#xe2;" horiz-adv-x="521" 
d="M99 3.5q-38 19.5 -60 54t-22 78.5q0 55 30 96.5t84 64t122 22.5q76 0 142 -33l5 26q2 14 2 24q0 45 -33.5 73t-86.5 28q-80 0 -135 -68l-66 47q35 46 89.5 71t120.5 25q92 0 142 -44t50 -119q0 -20 -5 -52l-53 -297h-81l13 72h-4q-27 -40 -71 -64t-98 -24q-47 0 -85 19.5
zM283.5 79.5q38.5 20.5 65 56.5t33.5 79q-56 36 -135 36q-59 0 -100.5 -28.5t-41.5 -79.5q0 -39 28 -61.5t69 -22.5q43 0 81.5 20.5zM167 606l124 116h74l81 -116l-1 -5h-76l-44 63h-8l-63 -63h-88z" />
    <glyph glyph-name="atilde" unicode="&#xe3;" horiz-adv-x="521" 
d="M99 3.5q-38 19.5 -60 54t-22 78.5q0 55 30 96.5t84 64t122 22.5q76 0 142 -33l5 26q2 14 2 24q0 45 -33.5 73t-86.5 28q-80 0 -135 -68l-66 47q35 46 89.5 71t120.5 25q92 0 142 -44t50 -119q0 -20 -5 -52l-53 -297h-81l13 72h-4q-27 -40 -71 -64t-98 -24q-47 0 -85 19.5
zM283.5 79.5q38.5 20.5 65 56.5t33.5 79q-56 36 -135 36q-59 0 -100.5 -28.5t-41.5 -79.5q0 -39 28 -61.5t69 -22.5q43 0 81.5 20.5zM351.5 608.5q-15.5 6.5 -33.5 18.5q-21 12 -33.5 17.5t-27.5 5.5q-33 0 -42 -38h-70q8 56 38 85t74 29q17 0 32.5 -6t34.5 -18
q18 -11 31.5 -17t28.5 -6q33 0 42 37h70q-7 -56 -37 -85t-74 -29q-18 0 -33.5 6.5z" />
    <glyph glyph-name="adieresis" unicode="&#xe4;" horiz-adv-x="521" 
d="M99 3.5q-38 19.5 -60 54t-22 78.5q0 55 30 96.5t84 64t122 22.5q76 0 142 -33l5 26q2 14 2 24q0 45 -33.5 73t-86.5 28q-80 0 -135 -68l-66 47q35 46 89.5 71t120.5 25q92 0 142 -44t50 -119q0 -20 -5 -52l-53 -297h-81l13 72h-4q-27 -40 -71 -64t-98 -24q-47 0 -85 19.5
zM283.5 79.5q38.5 20.5 65 56.5t33.5 79q-56 36 -135 36q-59 0 -100.5 -28.5t-41.5 -79.5q0 -39 28 -61.5t69 -22.5q43 0 81.5 20.5zM201.5 627.5q-16.5 16.5 -16.5 37.5q0 23 16 38.5t38 15.5q23 0 38.5 -15.5t15.5 -38.5q0 -22 -15.5 -38t-38.5 -16q-21 0 -37.5 16.5z
M366 627.5q-16 16.5 -16 37.5q0 23 16 38.5t37 15.5q23 0 38.5 -15.5t15.5 -38.5q0 -22 -15.5 -38t-38.5 -16q-21 0 -37 16.5z" />
    <glyph glyph-name="aring" unicode="&#xe5;" horiz-adv-x="521" 
d="M99 3.5q-38 19.5 -60 54t-22 78.5q0 55 30 96.5t84 64t122 22.5q76 0 142 -33l5 26q2 14 2 24q0 45 -33.5 73t-86.5 28q-80 0 -135 -68l-66 47q35 46 89.5 71t120.5 25q92 0 142 -44t50 -119q0 -20 -5 -52l-53 -297h-81l13 72h-4q-27 -40 -71 -64t-98 -24q-47 0 -85 19.5
zM283.5 79.5q38.5 20.5 65 56.5t33.5 79q-56 36 -135 36q-59 0 -100.5 -28.5t-41.5 -79.5q0 -39 28 -61.5t69 -22.5q43 0 81.5 20.5zM250 605q-30 30 -30 73t30 73.5t73 30.5t73.5 -30.5t30.5 -73.5t-30.5 -73t-73.5 -30t-73 30zM356 644q14 14 14 34t-14 33.5t-33 13.5
t-33 -14t-14 -33t14 -33.5t33 -14.5t33 14z" />
    <glyph glyph-name="ae" unicode="&#xe6;" horiz-adv-x="923" 
d="M100 3.5q-39 19.5 -61 54t-22 78.5q0 57 31.5 98.5t85.5 63t122 21.5q75 0 139 -32l5 26q2 12 2 23q0 46 -32 73.5t-84 27.5q-42 0 -79.5 -19t-57.5 -52l-70 39q32 50 86 78.5t129 28.5q61 0 105 -26.5t64 -71.5q37 46 90.5 72t116.5 26q65 0 111 -27.5t70 -74.5t24 -105
q0 -40 -9 -73h-394q-2 -14 -2 -31q0 -44 20 -75.5t51.5 -48t67.5 -16.5q105 0 164 92l66 -36q-38 -65 -98.5 -99t-136.5 -34q-70 0 -120.5 34.5t-73.5 89.5q-39 -59 -97 -91.5t-126 -32.5q-48 0 -87 19.5zM790 303v13q0 47 -31.5 83t-99.5 36q-59 0 -106 -36.5t-65 -95.5
h302zM283.5 79.5q38.5 20.5 65 56.5t33.5 79q-65 36 -135 36q-59 0 -100.5 -28.5t-41.5 -79.5q0 -39 28 -61.5t69 -22.5q43 0 81.5 20.5z" />
    <glyph glyph-name="ccedilla" unicode="&#xe7;" horiz-adv-x="533" 
d="M329.5 86.5q39.5 25.5 66.5 71.5l68 -33q-44 -74 -99 -107.5t-139 -33.5l-20 -33q15 3 22 3q34 0 55 -24.5t21 -63.5q0 -45 -30.5 -74t-80.5 -29q-33 0 -58.5 19.5t-31.5 47.5l53 22q2 -15 13.5 -25.5t27.5 -10.5q21 0 35.5 13.5t14.5 36.5q0 16 -11 27t-28 11
q-19 0 -36 -17l-41 20l45 82q-75 17 -120 79t-45 145t38.5 151.5t106 108t149.5 39.5t132 -40.5t67 -99.5l-79 -31q-14 45 -46.5 69.5t-83.5 24.5q-55 0 -100 -28.5t-71.5 -78t-26.5 -109.5q0 -67 39 -112.5t105 -45.5q49 0 88.5 25.5z" />
    <glyph glyph-name="egrave" unicode="&#xe8;" horiz-adv-x="550" 
d="M115.5 14q-50.5 30 -77.5 82t-27 115q0 77 35.5 146.5t100 112t148.5 42.5q66 0 112.5 -27.5t70.5 -74.5t24 -105q0 -41 -8 -73h-395q-2 -22 -2 -31q0 -44 20 -75.5t52 -48t69 -16.5q54 0 95 24.5t68 68.5l66 -37q-38 -64 -98.5 -98.5t-134.5 -34.5q-68 0 -118.5 30z
M417 303v13q0 49 -34.5 84t-96.5 35t-108 -36.5t-64 -95.5h303zM229 722h91l29 -127h-72z" />
    <glyph glyph-name="eacute" unicode="&#xe9;" horiz-adv-x="550" 
d="M115.5 14q-50.5 30 -77.5 82t-27 115q0 77 35.5 146.5t100 112t148.5 42.5q66 0 112.5 -27.5t70.5 -74.5t24 -105q0 -41 -8 -73h-395q-2 -22 -2 -31q0 -44 20 -75.5t52 -48t69 -16.5q54 0 95 24.5t68 68.5l66 -37q-38 -64 -98.5 -98.5t-134.5 -34.5q-68 0 -118.5 30z
M417 303v13q0 49 -34.5 84t-96.5 35t-108 -36.5t-64 -95.5h303zM346 722h95l-93 -127h-76z" />
    <glyph glyph-name="ecircumflex" unicode="&#xea;" horiz-adv-x="550" 
d="M115.5 14q-50.5 30 -77.5 82t-27 115q0 77 35.5 146.5t100 112t148.5 42.5q66 0 112.5 -27.5t70.5 -74.5t24 -105q0 -41 -8 -73h-395q-2 -22 -2 -31q0 -44 20 -75.5t52 -48t69 -16.5q54 0 95 24.5t68 68.5l66 -37q-38 -64 -98.5 -98.5t-134.5 -34.5q-68 0 -118.5 30z
M417 303v13q0 49 -34.5 84t-96.5 35t-108 -36.5t-64 -95.5h303zM169 606l124 116h74l81 -116l-1 -5h-76l-44 63h-8l-63 -63h-88z" />
    <glyph glyph-name="edieresis" unicode="&#xeb;" horiz-adv-x="550" 
d="M115.5 14q-50.5 30 -77.5 82t-27 115q0 77 35.5 146.5t100 112t148.5 42.5q66 0 112.5 -27.5t70.5 -74.5t24 -105q0 -41 -8 -73h-395q-2 -22 -2 -31q0 -44 20 -75.5t52 -48t69 -16.5q54 0 95 24.5t68 68.5l66 -37q-38 -64 -98.5 -98.5t-134.5 -34.5q-68 0 -118.5 30z
M417 303v13q0 49 -34.5 84t-96.5 35t-108 -36.5t-64 -95.5h303zM203.5 627.5q-16.5 16.5 -16.5 37.5q0 23 16 38.5t38 15.5q23 0 38.5 -15.5t15.5 -38.5q0 -22 -15.5 -38t-38.5 -16q-21 0 -37.5 16.5zM368 627.5q-16 16.5 -16 37.5q0 23 16 38.5t37 15.5q23 0 38.5 -15.5
t15.5 -38.5q0 -22 -15.5 -38t-38.5 -16q-21 0 -37 16.5z" />
    <glyph glyph-name="igrave" unicode="&#xec;" horiz-adv-x="225" 
d="M93 496h84l-87 -496h-85zM71 722h91l29 -127h-72z" />
    <glyph glyph-name="iacute" unicode="&#xed;" horiz-adv-x="225" 
d="M93 496h84l-87 -496h-85zM188 722h95l-93 -127h-76z" />
    <glyph glyph-name="icircumflex" unicode="&#xee;" horiz-adv-x="225" 
d="M93 496h84l-87 -496h-85zM11 606l124 116h74l81 -116l-1 -5h-76l-44 63h-8l-63 -63h-88z" />
    <glyph glyph-name="idieresis" unicode="&#xef;" horiz-adv-x="225" 
d="M60 627.5q-16 16.5 -16 37.5q0 23 16 38.5t37 15.5q23 0 38.5 -15.5t15.5 -38.5q0 -22 -15.5 -38t-38.5 -16q-21 0 -37 16.5zM193 627.5q-16 16.5 -16 37.5q0 23 16 38.5t37 15.5q23 0 38.5 -15.5t15.5 -38.5q0 -22 -15.5 -38t-38.5 -16q-21 0 -37 16.5zM93 496h84
l-87 -496h-85z" />
    <glyph glyph-name="eth" unicode="&#xf0;" horiz-adv-x="573" 
d="M128 12.5q-52 28.5 -82.5 79t-30.5 113.5q0 73 35 136t97.5 100.5t140.5 37.5q45 0 79.5 -16t57.5 -41l5 3q-18 78 -77 141l-135 -56l-25 59l103 41q-46 30 -103 45l29 71q91 -25 160 -81l112 47l24 -58l-87 -36q45 -54 69 -124.5t24 -149.5q0 -92 -32 -169.5t-95.5 -124
t-153.5 -46.5q-63 0 -115 28.5zM339 90q40 25 64 68t24 94q0 66 -37 107.5t-104 41.5q-52 0 -94.5 -25.5t-66 -69.5t-23.5 -98q0 -63 43 -103t107 -40q47 0 87 25z" />
    <glyph glyph-name="ntilde" unicode="&#xf1;" horiz-adv-x="554" 
d="M157 422q27 40 72 65t102 25q72 0 115.5 -41.5t43.5 -109.5q0 -34 -7 -70l-51 -291h-85l53 298q5 28 5 44q0 45 -28 69t-77 24q-62 0 -109 -46.5t-59 -114.5l-49 -274h-84l87 496h81l-14 -74h4zM376.5 608.5q-15.5 6.5 -33.5 18.5q-21 12 -33.5 17.5t-27.5 5.5
q-33 0 -42 -38h-70q8 56 38 85t74 29q17 0 32.5 -6t34.5 -18q18 -11 31.5 -17t28.5 -6q33 0 42 37h70q-7 -56 -37 -85t-74 -29q-18 0 -33.5 6.5z" />
    <glyph glyph-name="ograve" unicode="&#xf2;" horiz-adv-x="574" 
d="M121.5 15.5q-52.5 31.5 -81.5 85.5t-29 119q0 81 37.5 148t105 105.5t151.5 38.5q66 0 118.5 -31.5t81.5 -85.5t29 -119q0 -81 -37.5 -147.5t-104.5 -105.5t-152 -39q-66 0 -118.5 31.5zM353 90q45 29 70 77t25 104q0 47 -20 84.5t-55 58.5t-77 21q-58 0 -103.5 -29
t-70.5 -77t-25 -104q0 -47 20 -84.5t55 -58.5t77 -21q59 0 104 29zM241 722h91l29 -127h-72z" />
    <glyph glyph-name="oacute" unicode="&#xf3;" horiz-adv-x="574" 
d="M121.5 15.5q-52.5 31.5 -81.5 85.5t-29 119q0 81 37.5 148t105 105.5t151.5 38.5q66 0 118.5 -31.5t81.5 -85.5t29 -119q0 -81 -37.5 -147.5t-104.5 -105.5t-152 -39q-66 0 -118.5 31.5zM353 90q45 29 70 77t25 104q0 47 -20 84.5t-55 58.5t-77 21q-58 0 -103.5 -29
t-70.5 -77t-25 -104q0 -47 20 -84.5t55 -58.5t77 -21q59 0 104 29zM358 722h95l-93 -127h-76z" />
    <glyph glyph-name="ocircumflex" unicode="&#xf4;" horiz-adv-x="574" 
d="M121.5 15.5q-52.5 31.5 -81.5 85.5t-29 119q0 81 37.5 148t105 105.5t151.5 38.5q66 0 118.5 -31.5t81.5 -85.5t29 -119q0 -81 -37.5 -147.5t-104.5 -105.5t-152 -39q-66 0 -118.5 31.5zM353 90q45 29 70 77t25 104q0 47 -20 84.5t-55 58.5t-77 21q-58 0 -103.5 -29
t-70.5 -77t-25 -104q0 -47 20 -84.5t55 -58.5t77 -21q59 0 104 29zM181 606l124 116h74l81 -116l-1 -5h-76l-44 63h-8l-63 -63h-88z" />
    <glyph glyph-name="otilde" unicode="&#xf5;" horiz-adv-x="574" 
d="M121.5 15.5q-52.5 31.5 -81.5 85.5t-29 119q0 81 37.5 148t105 105.5t151.5 38.5q66 0 118.5 -31.5t81.5 -85.5t29 -119q0 -81 -37.5 -147.5t-104.5 -105.5t-152 -39q-66 0 -118.5 31.5zM353 90q45 29 70 77t25 104q0 47 -20 84.5t-55 58.5t-77 21q-58 0 -103.5 -29
t-70.5 -77t-25 -104q0 -47 20 -84.5t55 -58.5t77 -21q59 0 104 29zM365.5 608.5q-15.5 6.5 -33.5 18.5q-21 12 -33.5 17.5t-27.5 5.5q-33 0 -42 -38h-70q8 56 38 85t74 29q17 0 32.5 -6t34.5 -18q18 -11 31.5 -17t28.5 -6q33 0 42 37h70q-7 -56 -37 -85t-74 -29
q-18 0 -33.5 6.5z" />
    <glyph glyph-name="odieresis" unicode="&#xf6;" horiz-adv-x="574" 
d="M121.5 15.5q-52.5 31.5 -81.5 85.5t-29 119q0 81 37.5 148t105 105.5t151.5 38.5q66 0 118.5 -31.5t81.5 -85.5t29 -119q0 -81 -37.5 -147.5t-104.5 -105.5t-152 -39q-66 0 -118.5 31.5zM353 90q45 29 70 77t25 104q0 47 -20 84.5t-55 58.5t-77 21q-58 0 -103.5 -29
t-70.5 -77t-25 -104q0 -47 20 -84.5t55 -58.5t77 -21q59 0 104 29zM215.5 627.5q-16.5 16.5 -16.5 37.5q0 23 16 38.5t38 15.5q23 0 38.5 -15.5t15.5 -38.5q0 -22 -15.5 -38t-38.5 -16q-21 0 -37.5 16.5zM380 627.5q-16 16.5 -16 37.5q0 23 16 38.5t37 15.5q23 0 38.5 -15.5
t15.5 -38.5q0 -22 -15.5 -38t-38.5 -16q-21 0 -37 16.5z" />
    <glyph glyph-name="divide" unicode="&#xf7;" horiz-adv-x="547" 
d="M245.5 413.5q-18.5 18.5 -18.5 44.5q0 27 18.5 45.5t44.5 18.5q27 0 45.5 -18.5t18.5 -45.5q0 -26 -18.5 -44.5t-45.5 -18.5q-26 0 -44.5 18.5zM47 306h434l-13 -70h-434zM179.5 38.5q-18.5 18.5 -18.5 45.5q0 26 18.5 44.5t45.5 18.5q26 0 44.5 -18.5t18.5 -44.5
q0 -27 -18.5 -45.5t-44.5 -18.5q-27 0 -45.5 18.5z" />
    <glyph glyph-name="oslash" unicode="&#xf8;" horiz-adv-x="574" 
d="M39 6l37 45q-31 33 -48 76.5t-17 92.5q0 81 37.5 148t105 105.5t151.5 38.5q64 0 114 -29l40 50l53 -41l-40 -51q30 -32 46 -74.5t16 -90.5q0 -81 -37.5 -147.5t-104.5 -105.5t-152 -39q-60 0 -111 27l-36 -45zM366 417q-33 18 -70 18q-58 0 -103.5 -29t-70.5 -77
t-25 -104q0 -61 33 -105zM353 90q45 29 70 77t25 104q0 58 -32 101l-234 -295q29 -16 67 -16q59 0 104 29z" />
    <glyph glyph-name="ugrave" unicode="&#xf9;" horiz-adv-x="554" 
d="M357 74q-27 -41 -71.5 -65.5t-101.5 -24.5q-73 0 -116 41.5t-43 109.5q0 33 7 71l51 290h85l-53 -298q-5 -21 -5 -44q0 -45 28 -69t77 -24q62 0 109 46.5t59 114.5l48 274h85l-87 -496h-81l13 74h-4zM235 722h91l29 -127h-72z" />
    <glyph glyph-name="uacute" unicode="&#xfa;" horiz-adv-x="554" 
d="M357 74q-27 -41 -71.5 -65.5t-101.5 -24.5q-73 0 -116 41.5t-43 109.5q0 33 7 71l51 290h85l-53 -298q-5 -21 -5 -44q0 -45 28 -69t77 -24q62 0 109 46.5t59 114.5l48 274h85l-87 -496h-81l13 74h-4zM352 722h95l-93 -127h-76z" />
    <glyph glyph-name="ucircumflex" unicode="&#xfb;" horiz-adv-x="554" 
d="M357 74q-27 -41 -71.5 -65.5t-101.5 -24.5q-73 0 -116 41.5t-43 109.5q0 33 7 71l51 290h85l-53 -298q-5 -21 -5 -44q0 -45 28 -69t77 -24q62 0 109 46.5t59 114.5l48 274h85l-87 -496h-81l13 74h-4zM175 606l124 116h74l81 -116l-1 -5h-76l-44 63h-8l-63 -63h-88z" />
    <glyph glyph-name="udieresis" unicode="&#xfc;" horiz-adv-x="554" 
d="M357 74q-27 -41 -71.5 -65.5t-101.5 -24.5q-73 0 -116 41.5t-43 109.5q0 33 7 71l51 290h85l-53 -298q-5 -21 -5 -44q0 -45 28 -69t77 -24q62 0 109 46.5t59 114.5l48 274h85l-87 -496h-81l13 74h-4zM209.5 627.5q-16.5 16.5 -16.5 37.5q0 23 16 38.5t38 15.5
q23 0 38.5 -15.5t15.5 -38.5q0 -22 -15.5 -38t-38.5 -16q-21 0 -37.5 16.5zM374 627.5q-16 16.5 -16 37.5q0 23 16 38.5t37 15.5q23 0 38.5 -15.5t15.5 -38.5q0 -22 -15.5 -38t-38.5 -16q-21 0 -37 16.5z" />
    <glyph glyph-name="yacute" unicode="&#xfd;" horiz-adv-x="503" 
d="M170 33l-124 463h89l92 -365h2l214 365h94l-436 -712h-90zM335 722h95l-93 -127h-76z" />
    <glyph glyph-name="thorn" unicode="&#xfe;" horiz-adv-x="578" 
d="M138 716h84l-39 -224l-16 -69h4q28 40 73 64.5t106 24.5q59 0 105 -28t72.5 -79.5t26.5 -121.5q0 -78 -37.5 -147t-103 -110.5t-146.5 -41.5q-53 0 -95 25.5t-63 64.5h-4l-8 -69l-39 -221h-84zM372.5 90q44.5 29 70 78.5t25.5 108.5q0 74 -38 116t-103 42q-54 0 -99 -31
t-70.5 -82t-25.5 -109q0 -71 40 -111.5t101 -40.5q55 0 99.5 29z" />
    <glyph glyph-name="ydieresis" unicode="&#xff;" horiz-adv-x="503" 
d="M170 33l-124 463h89l92 -365h2l214 365h94l-436 -712h-90zM192.5 627.5q-16.5 16.5 -16.5 37.5q0 23 16 38.5t38 15.5q23 0 38.5 -15.5t15.5 -38.5q0 -22 -15.5 -38t-38.5 -16q-21 0 -37.5 16.5zM357 627.5q-16 16.5 -16 37.5q0 23 16 38.5t37 15.5q23 0 38.5 -15.5
t15.5 -38.5q0 -22 -15.5 -38t-38.5 -16q-21 0 -37 16.5z" />
    <glyph glyph-name="Amacron" unicode="&#x100;" horiz-adv-x="668" 
d="M348 716h96l145 -716h-90l-36 197h-309l-108 -197h-96zM447 277l-50 258l-14 77h-4l-183 -335h251zM283 876h276l-12 -66h-276z" />
    <glyph glyph-name="amacron" unicode="&#x101;" horiz-adv-x="521" 
d="M99 3.5q-38 19.5 -60 54t-22 78.5q0 55 30 96.5t84 64t122 22.5q76 0 142 -33l5 26q2 14 2 24q0 45 -33.5 73t-86.5 28q-80 0 -135 -68l-66 47q35 46 89.5 71t120.5 25q92 0 142 -44t50 -119q0 -20 -5 -52l-53 -297h-81l13 72h-4q-27 -40 -71 -64t-98 -24q-47 0 -85 19.5
zM283.5 79.5q38.5 20.5 65 56.5t33.5 79q-56 36 -135 36q-59 0 -100.5 -28.5t-41.5 -79.5q0 -39 28 -61.5t69 -22.5q43 0 81.5 20.5zM188 698h276l-11 -66h-277z" />
    <glyph glyph-name="Abreve" unicode="&#x102;" horiz-adv-x="668" 
d="M348 716h96l145 -716h-90l-36 197h-309l-108 -197h-96zM447 277l-50 258l-14 77h-4l-183 -335h251zM327.5 801.5q-32.5 29.5 -32.5 73.5q0 7 2 21h69q-1 -5 -1 -12q0 -21 12.5 -34.5t36.5 -13.5q26 0 44.5 16t23.5 44h68q-9 -61 -47.5 -92.5t-96.5 -31.5
q-46 0 -78.5 29.5z" />
    <glyph glyph-name="abreve" unicode="&#x103;" horiz-adv-x="521" 
d="M99 3.5q-38 19.5 -60 54t-22 78.5q0 55 30 96.5t84 64t122 22.5q76 0 142 -33l5 26q2 14 2 24q0 45 -33.5 73t-86.5 28q-80 0 -135 -68l-66 47q35 46 89.5 71t120.5 25q92 0 142 -44t50 -119q0 -20 -5 -52l-53 -297h-81l13 72h-4q-27 -40 -71 -64t-98 -24q-47 0 -85 19.5
zM283.5 79.5q38.5 20.5 65 56.5t33.5 79q-56 36 -135 36q-59 0 -100.5 -28.5t-41.5 -79.5q0 -39 28 -61.5t69 -22.5q43 0 81.5 20.5zM230.5 623.5q-32.5 29.5 -32.5 73.5q0 7 2 21h69q-1 -4 -1 -11q0 -21 12.5 -35t36.5 -14q27 0 45 16t23 44h68q-9 -61 -47.5 -92.5
t-95.5 -31.5q-47 0 -79.5 29.5z" />
    <glyph glyph-name="Aogonek" unicode="&#x104;" horiz-adv-x="668" 
d="M448.5 -197.5q-28.5 26.5 -28.5 65.5q0 78 78 134l-35 195h-309l-108 -197h-96l398 716h96l145 -716q-35 -20 -63 -51.5t-28 -62.5q0 -19 11.5 -29.5t28.5 -10.5q21 0 42 9l-12 -72q-11 -4 -20.5 -5.5t-26.5 -1.5q-44 0 -72.5 26.5zM447 277l-50 258l-14 77h-4l-183 -335
h251z" />
    <glyph glyph-name="aogonek" unicode="&#x105;" horiz-adv-x="521" 
d="M284.5 -197.5q-28.5 26.5 -28.5 65.5q0 80 88 133l13 71h-4q-27 -40 -71 -64t-98 -24q-47 0 -85 19.5t-60 54t-22 78.5q0 55 30 96.5t84 64t122 22.5q76 0 142 -33l5 26q2 14 2 24q0 45 -33.5 73t-86.5 28q-80 0 -135 -68l-66 47q35 46 89.5 71t120.5 25q92 0 142 -44
t50 -119q0 -20 -5 -52l-53 -297q-35 -20 -63 -51.5t-28 -62.5q0 -19 11 -29.5t29 -10.5q21 0 42 9l-12 -72q-11 -4 -20.5 -5.5t-26.5 -1.5q-44 0 -72.5 26.5zM283.5 79.5q38.5 20.5 65 56.5t33.5 79q-56 36 -135 36q-59 0 -100.5 -28.5t-41.5 -79.5q0 -39 28 -61.5t69 -22.5
q43 0 81.5 20.5z" />
    <glyph glyph-name="Cacute" unicode="&#x106;" horiz-adv-x="738" 
d="M188.5 24q-71.5 40 -111.5 113t-40 169q0 110 56.5 208.5t155.5 158t220 59.5q81 0 146 -33.5t99 -86.5l-68 -56q-33 49 -78 72t-108 23q-92 0 -169.5 -48t-122.5 -126.5t-45 -166.5q0 -73 31 -128.5t85.5 -86t121.5 -30.5q73 0 129 27t111 81l54 -61q-67 -66 -138.5 -97
t-165.5 -31q-91 0 -162.5 40zM503 900h95l-93 -127h-77z" />
    <glyph glyph-name="cacute" unicode="&#x107;" horiz-adv-x="533" 
d="M114 14.5q-49 30.5 -76 83t-27 115.5q0 83 38.5 151.5t106 108t149.5 39.5t132 -40.5t67 -99.5l-79 -31q-14 45 -46.5 69.5t-83.5 24.5q-55 0 -100 -28.5t-71.5 -78t-26.5 -109.5q0 -67 39 -112.5t105 -45.5q49 0 88.5 25.5t66.5 71.5l68 -33q-44 -74 -99 -107.5
t-139 -33.5q-63 0 -112 30.5zM351 722h95l-93 -127h-76z" />
    <glyph glyph-name="Ccircumflex" unicode="&#x108;" horiz-adv-x="738" 
d="M188.5 24q-71.5 40 -111.5 113t-40 169q0 110 56.5 208.5t155.5 158t220 59.5q81 0 146 -33.5t99 -86.5l-68 -56q-33 49 -78 72t-108 23q-92 0 -169.5 -48t-122.5 -126.5t-45 -166.5q0 -73 31 -128.5t85.5 -86t121.5 -30.5q73 0 129 27t111 81l54 -61q-67 -66 -138.5 -97
t-165.5 -31q-91 0 -162.5 40zM324 784l123 116h75l81 -116l-1 -5h-76l-44 63h-8l-63 -63h-88z" />
    <glyph glyph-name="ccircumflex" unicode="&#x109;" horiz-adv-x="533" 
d="M114 14.5q-49 30.5 -76 83t-27 115.5q0 83 38.5 151.5t106 108t149.5 39.5t132 -40.5t67 -99.5l-79 -31q-14 45 -46.5 69.5t-83.5 24.5q-55 0 -100 -28.5t-71.5 -78t-26.5 -109.5q0 -67 39 -112.5t105 -45.5q49 0 88.5 25.5t66.5 71.5l68 -33q-44 -74 -99 -107.5
t-139 -33.5q-63 0 -112 30.5zM174 606l124 116h74l81 -116l-1 -5h-76l-44 63h-8l-63 -63h-88z" />
    <glyph glyph-name="Cdotaccent" unicode="&#x10a;" horiz-adv-x="738" 
d="M188.5 24q-71.5 40 -111.5 113t-40 169q0 110 56.5 208.5t155.5 158t220 59.5q81 0 146 -33.5t99 -86.5l-68 -56q-33 49 -78 72t-108 23q-92 0 -169.5 -48t-122.5 -126.5t-45 -166.5q0 -73 31 -128.5t85.5 -86t121.5 -30.5q73 0 129 27t111 81l54 -61q-67 -66 -138.5 -97
t-165.5 -31q-91 0 -162.5 40zM446 822q-15 15 -15 34q0 21 15 35t35 14q21 0 35 -14t14 -35q0 -20 -14 -34.5t-35 -14.5q-20 0 -35 15z" />
    <glyph glyph-name="cdotaccent" unicode="&#x10b;" horiz-adv-x="533" 
d="M114 14.5q-49 30.5 -76 83t-27 115.5q0 83 38.5 151.5t106 108t149.5 39.5t132 -40.5t67 -99.5l-79 -31q-14 45 -46.5 69.5t-83.5 24.5q-55 0 -100 -28.5t-71.5 -78t-26.5 -109.5q0 -67 39 -112.5t105 -45.5q49 0 88.5 25.5t66.5 71.5l68 -33q-44 -74 -99 -107.5
t-139 -33.5q-63 0 -112 30.5zM290 627.5q-16 16.5 -16 37.5q0 23 16 38.5t38 15.5q23 0 38.5 -15.5t15.5 -38.5q0 -22 -15.5 -38t-38.5 -16q-22 0 -38 16.5z" />
    <glyph glyph-name="Ccaron" unicode="&#x10c;" horiz-adv-x="738" 
d="M188.5 24q-71.5 40 -111.5 113t-40 169q0 110 56.5 208.5t155.5 158t220 59.5q81 0 146 -33.5t99 -86.5l-68 -56q-33 49 -78 72t-108 23q-92 0 -169.5 -48t-122.5 -126.5t-45 -166.5q0 -73 31 -128.5t85.5 -86t121.5 -30.5q73 0 129 27t111 81l54 -61q-67 -66 -138.5 -97
t-165.5 -31q-91 0 -162.5 40zM352 895l1 5h77l43 -63h8l63 63h88l-1 -5l-123 -116h-75z" />
    <glyph glyph-name="ccaron" unicode="&#x10d;" horiz-adv-x="533" 
d="M114 14.5q-49 30.5 -76 83t-27 115.5q0 83 38.5 151.5t106 108t149.5 39.5t132 -40.5t67 -99.5l-79 -31q-14 45 -46.5 69.5t-83.5 24.5q-55 0 -100 -28.5t-71.5 -78t-26.5 -109.5q0 -67 39 -112.5t105 -45.5q49 0 88.5 25.5t66.5 71.5l68 -33q-44 -74 -99 -107.5
t-139 -33.5q-63 0 -112 30.5zM201 717l1 5h77l43 -63h8l63 63h88l-1 -5l-123 -116h-74z" />
    <glyph glyph-name="Dcaron" unicode="&#x10e;" horiz-adv-x="701" 
d="M142 716h216q97 0 166 -40t104.5 -109.5t35.5 -158.5q0 -109 -51 -202.5t-147 -149.5t-226 -56h-225zM246 81q93 0 169 42.5t119 116t43 162.5q0 113 -61.5 173t-172.5 60h-131l-98 -554h132zM247 895l1 5h77l43 -63h8l63 63h88l-1 -5l-123 -116h-75z" />
    <glyph glyph-name="dcaron" unicode="&#x10f;" horiz-adv-x="668" 
d="M110.5 12q-46.5 28 -73 80t-26.5 121q0 78 37.5 147t103 110.5t146.5 41.5q53 0 94.5 -25.5t62.5 -64.5h4l9 69l39 225h85l-126 -716h-81l13 73h-4q-28 -40 -73 -64.5t-106 -24.5q-58 0 -104.5 28zM336.5 91.5q44.5 30.5 70.5 81.5t26 109q0 72 -39.5 112.5t-101.5 40.5
q-54 0 -99 -29t-70.5 -78.5t-25.5 -108.5q0 -74 38 -116t103 -42q54 0 98.5 30.5zM657 716h92l-68 -202h-60z" />
    <glyph glyph-name="Dcroat" unicode="&#x110;" horiz-adv-x="699" 
d="M-7 339l10 66h81l56 311h216q97 0 166 -40t104.5 -109.5t35.5 -158.5q0 -109 -51 -202.5t-147 -149.5t-226 -56h-225l59 339h-79zM413 123.5q76 42.5 119 116t43 162.5q0 113 -61.5 173t-172.5 60h-132l-40 -230h184l-11 -66h-185l-45 -258h131q94 0 170 42.5z" />
    <glyph glyph-name="dcroat" unicode="&#x111;" horiz-adv-x="590" 
d="M110.5 12q-46.5 28 -73 80t-26.5 121q0 78 37.5 147t103 110.5t146.5 41.5q53 0 94.5 -25.5t62.5 -64.5h4l9 69l15 86h-152l12 67h151l13 72h85l-13 -72h63l-13 -67h-61l-102 -577h-81l13 73h-4q-28 -40 -73 -64.5t-106 -24.5q-58 0 -104.5 28zM336.5 91.5
q44.5 30.5 70.5 81.5t26 109q0 72 -39.5 112.5t-101.5 40.5q-54 0 -99 -29t-70.5 -78.5t-25.5 -108.5q0 -74 38 -116t103 -42q54 0 98.5 30.5z" />
    <glyph glyph-name="Emacron" unicode="&#x112;" horiz-adv-x="550" 
d="M142 716h414l-15 -81h-329l-42 -237h297l-13 -80h-298l-42 -237h330l-15 -81h-414zM244 876h276l-12 -66h-276z" />
    <glyph glyph-name="emacron" unicode="&#x113;" horiz-adv-x="550" 
d="M115.5 14q-50.5 30 -77.5 82t-27 115q0 77 35.5 146.5t100 112t148.5 42.5q66 0 112.5 -27.5t70.5 -74.5t24 -105q0 -41 -8 -73h-395q-2 -22 -2 -31q0 -44 20 -75.5t52 -48t69 -16.5q54 0 95 24.5t68 68.5l66 -37q-38 -64 -98.5 -98.5t-134.5 -34.5q-68 0 -118.5 30z
M417 303v13q0 49 -34.5 84t-96.5 35t-108 -36.5t-64 -95.5h303zM190 698h276l-11 -66h-277z" />
    <glyph glyph-name="Ebreve" unicode="&#x114;" horiz-adv-x="550" 
d="M142 716h414l-15 -81h-329l-42 -237h297l-13 -80h-298l-42 -237h330l-15 -81h-414zM288.5 801.5q-32.5 29.5 -32.5 73.5q0 7 2 21h69q-1 -5 -1 -12q0 -21 12.5 -34.5t36.5 -13.5q26 0 44.5 16t23.5 44h68q-9 -61 -47.5 -92.5t-96.5 -31.5q-46 0 -78.5 29.5z" />
    <glyph glyph-name="ebreve" unicode="&#x115;" horiz-adv-x="550" 
d="M115.5 14q-50.5 30 -77.5 82t-27 115q0 77 35.5 146.5t100 112t148.5 42.5q66 0 112.5 -27.5t70.5 -74.5t24 -105q0 -41 -8 -73h-395q-2 -22 -2 -31q0 -44 20 -75.5t52 -48t69 -16.5q54 0 95 24.5t68 68.5l66 -37q-38 -64 -98.5 -98.5t-134.5 -34.5q-68 0 -118.5 30z
M417 303v13q0 49 -34.5 84t-96.5 35t-108 -36.5t-64 -95.5h303zM232.5 623.5q-32.5 29.5 -32.5 73.5q0 7 2 21h69q-1 -4 -1 -11q0 -21 12.5 -35t36.5 -14q27 0 45 16t23 44h68q-9 -61 -47.5 -92.5t-95.5 -31.5q-47 0 -79.5 29.5z" />
    <glyph glyph-name="Edotaccent" unicode="&#x116;" horiz-adv-x="550" 
d="M142 716h414l-15 -81h-329l-42 -237h297l-13 -80h-298l-42 -237h330l-15 -81h-414zM344 822q-15 15 -15 34q0 21 15 35t35 14q21 0 35 -14t14 -35q0 -20 -14 -34.5t-35 -14.5q-20 0 -35 15z" />
    <glyph glyph-name="edotaccent" unicode="&#x117;" horiz-adv-x="550" 
d="M115.5 14q-50.5 30 -77.5 82t-27 115q0 77 35.5 146.5t100 112t148.5 42.5q66 0 112.5 -27.5t70.5 -74.5t24 -105q0 -41 -8 -73h-395q-2 -22 -2 -31q0 -44 20 -75.5t52 -48t69 -16.5q54 0 95 24.5t68 68.5l66 -37q-38 -64 -98.5 -98.5t-134.5 -34.5q-68 0 -118.5 30z
M417 303v13q0 49 -34.5 84t-96.5 35t-108 -36.5t-64 -95.5h303zM285 627.5q-16 16.5 -16 37.5q0 23 16 38.5t38 15.5q23 0 38.5 -15.5t15.5 -38.5q0 -22 -15.5 -38t-38.5 -16q-22 0 -38 16.5z" />
    <glyph glyph-name="Eogonek" unicode="&#x118;" horiz-adv-x="550" 
d="M142 716h414l-15 -81h-329l-42 -237h297l-13 -80h-298l-42 -237h330l-15 -81h-414zM288 -197.5q-29 26.5 -29 65.5q0 78 85 132h85q-35 -20 -63 -51.5t-28 -62.5q0 -19 11 -29.5t29 -10.5q12 0 20.5 2t21.5 7l-12 -72q-11 -4 -20.5 -5.5t-26.5 -1.5q-44 0 -73 26.5z" />
    <glyph glyph-name="eogonek" unicode="&#x119;" horiz-adv-x="550" 
d="M186.5 -197.5q-28.5 26.5 -28.5 65.5q0 68 63 117h-4q-63 3 -109.5 34t-71.5 81t-25 111q0 77 35.5 146.5t100 112t148.5 42.5q66 0 112.5 -27.5t70.5 -74.5t24 -105q0 -41 -8 -73h-395q-2 -22 -2 -31q0 -44 20 -75.5t52 -48t69 -16.5q54 0 95 24.5t68 68.5l66 -37
q-24 -41 -57 -69t-66 -42q-44 -20 -76 -54t-32 -66q0 -19 11.5 -29.5t28.5 -10.5q21 0 42 9l-12 -72q-11 -4 -20.5 -5.5t-26.5 -1.5q-44 0 -72.5 26.5zM417 303v13q0 49 -34.5 84t-96.5 35t-108 -36.5t-64 -95.5h303z" />
    <glyph glyph-name="Ecaron" unicode="&#x11a;" horiz-adv-x="550" 
d="M142 716h414l-15 -81h-329l-42 -237h297l-13 -80h-298l-42 -237h330l-15 -81h-414zM250 895l1 5h77l43 -63h8l63 63h88l-1 -5l-123 -116h-75z" />
    <glyph glyph-name="ecaron" unicode="&#x11b;" horiz-adv-x="550" 
d="M115.5 14q-50.5 30 -77.5 82t-27 115q0 77 35.5 146.5t100 112t148.5 42.5q66 0 112.5 -27.5t70.5 -74.5t24 -105q0 -41 -8 -73h-395q-2 -22 -2 -31q0 -44 20 -75.5t52 -48t69 -16.5q54 0 95 24.5t68 68.5l66 -37q-38 -64 -98.5 -98.5t-134.5 -34.5q-68 0 -118.5 30z
M417 303v13q0 49 -34.5 84t-96.5 35t-108 -36.5t-64 -95.5h303zM196 717l1 5h77l43 -63h8l63 63h88l-1 -5l-123 -116h-74z" />
    <glyph glyph-name="Gcircumflex" unicode="&#x11c;" horiz-adv-x="811" 
d="M199 24q-73 40 -117 115t-44 174q0 113 55.5 209t155 153t226.5 57q78 0 145 -29.5t101 -80.5l-70 -58q-25 40 -77 63.5t-113 23.5q-93 0 -170 -44t-121.5 -120.5t-44.5 -169.5q0 -78 33 -135t88.5 -87t122.5 -30q132 0 219 90q56 57 77 147h-259l14 79h344q0 -20 -5 -52
q-23 -140 -110 -229q-111 -116 -292 -116q-85 0 -158 40zM330 784l123 116h75l81 -116l-1 -5h-76l-44 63h-8l-63 -63h-88z" />
    <glyph glyph-name="gcircumflex" unicode="&#x11d;" horiz-adv-x="588" 
d="M101 -210.5q-43 21.5 -68 54.5t-33 68l82 32q9 -44 42 -71.5t86 -27.5q78 0 129.5 47t65.5 129l9 52h-4q-27 -40 -72 -63.5t-106 -23.5q-56 0 -102 28t-73 80t-27 122q0 74 35.5 142.5t100 111t148.5 42.5q56 0 97.5 -25.5t60.5 -63.5h4l13 73h81l-87 -490
q-21 -120 -97.5 -179t-184.5 -59q-57 0 -100 21.5zM353 94q45 31 70.5 82t25.5 109q0 70 -39 110t-97 40q-60 0 -104.5 -30.5t-68.5 -80.5t-24 -107q0 -72 38.5 -113t98.5 -41q55 0 100 31zM191 606l124 116h74l81 -116l-1 -5h-76l-44 63h-8l-63 -63h-88z" />
    <glyph glyph-name="Gbreve" unicode="&#x11e;" horiz-adv-x="811" 
d="M199 24q-73 40 -117 115t-44 174q0 113 55.5 209t155 153t226.5 57q78 0 145 -29.5t101 -80.5l-70 -58q-25 40 -77 63.5t-113 23.5q-93 0 -170 -44t-121.5 -120.5t-44.5 -169.5q0 -78 33 -135t88.5 -87t122.5 -30q132 0 219 90q56 57 77 147h-259l14 79h344q0 -20 -5 -52
q-23 -140 -110 -229q-111 -116 -292 -116q-85 0 -158 40zM396.5 801.5q-32.5 29.5 -32.5 73.5q0 7 2 21h69q-1 -5 -1 -12q0 -21 12.5 -34.5t36.5 -13.5q26 0 44.5 16t23.5 44h68q-9 -61 -47.5 -92.5t-96.5 -31.5q-46 0 -78.5 29.5z" />
    <glyph glyph-name="gbreve" unicode="&#x11f;" horiz-adv-x="588" 
d="M101 -210.5q-43 21.5 -68 54.5t-33 68l82 32q9 -44 42 -71.5t86 -27.5q78 0 129.5 47t65.5 129l9 52h-4q-27 -40 -72 -63.5t-106 -23.5q-56 0 -102 28t-73 80t-27 122q0 74 35.5 142.5t100 111t148.5 42.5q56 0 97.5 -25.5t60.5 -63.5h4l13 73h81l-87 -490
q-21 -120 -97.5 -179t-184.5 -59q-57 0 -100 21.5zM353 94q45 31 70.5 82t25.5 109q0 70 -39 110t-97 40q-60 0 -104.5 -30.5t-68.5 -80.5t-24 -107q0 -72 38.5 -113t98.5 -41q55 0 100 31zM254.5 623.5q-32.5 29.5 -32.5 73.5q0 7 2 21h69q-1 -4 -1 -11q0 -21 12.5 -35
t36.5 -14q27 0 45 16t23 44h68q-9 -61 -47.5 -92.5t-95.5 -31.5q-47 0 -79.5 29.5z" />
    <glyph glyph-name="Gdotaccent" unicode="&#x120;" horiz-adv-x="811" 
d="M199 24q-73 40 -117 115t-44 174q0 113 55.5 209t155 153t226.5 57q78 0 145 -29.5t101 -80.5l-70 -58q-25 40 -77 63.5t-113 23.5q-93 0 -170 -44t-121.5 -120.5t-44.5 -169.5q0 -78 33 -135t88.5 -87t122.5 -30q132 0 219 90q56 57 77 147h-259l14 79h344q0 -20 -5 -52
q-23 -140 -110 -229q-111 -116 -292 -116q-85 0 -158 40zM452 822q-15 15 -15 34q0 21 15 35t35 14q21 0 35 -14t14 -35q0 -20 -14 -34.5t-35 -14.5q-20 0 -35 15z" />
    <glyph glyph-name="gdotaccent" unicode="&#x121;" horiz-adv-x="588" 
d="M101 -210.5q-43 21.5 -68 54.5t-33 68l82 32q9 -44 42 -71.5t86 -27.5q78 0 129.5 47t65.5 129l9 52h-4q-27 -40 -72 -63.5t-106 -23.5q-56 0 -102 28t-73 80t-27 122q0 74 35.5 142.5t100 111t148.5 42.5q56 0 97.5 -25.5t60.5 -63.5h4l13 73h81l-87 -490
q-21 -120 -97.5 -179t-184.5 -59q-57 0 -100 21.5zM353 94q45 31 70.5 82t25.5 109q0 70 -39 110t-97 40q-60 0 -104.5 -30.5t-68.5 -80.5t-24 -107q0 -72 38.5 -113t98.5 -41q55 0 100 31zM307 627.5q-16 16.5 -16 37.5q0 23 16 38.5t38 15.5q23 0 38.5 -15.5t15.5 -38.5
q0 -22 -15.5 -38t-38.5 -16q-22 0 -38 16.5z" />
    <glyph glyph-name="Gcommaaccent" unicode="&#x122;" horiz-adv-x="811" 
d="M199 24q-73 40 -117 115t-44 174q0 113 55.5 209t155 153t226.5 57q78 0 145 -29.5t101 -80.5l-70 -58q-25 40 -77 63.5t-113 23.5q-93 0 -170 -44t-121.5 -120.5t-44.5 -169.5q0 -78 33 -135t88.5 -87t122.5 -30q132 0 219 90q56 57 77 147h-259l14 79h344q0 -20 -5 -52
q-23 -140 -110 -229q-111 -116 -292 -116q-85 0 -158 40zM330 -155q-18 4 -29 18.5t-11 33.5q0 21 16 38t40 17q25 0 40.5 -16.5t15.5 -40.5q0 -30 -18 -51l-71 -86l-34 29z" />
    <glyph glyph-name="gcommaaccent" unicode="&#x123;" horiz-adv-x="588" 
d="M101 -210.5q-43 21.5 -68 54.5t-33 68l82 32q9 -44 42 -71.5t86 -27.5q78 0 129.5 47t65.5 129l9 52h-4q-27 -40 -72 -63.5t-106 -23.5q-56 0 -102 28t-73 80t-27 122q0 74 35.5 142.5t100 111t148.5 42.5q56 0 97.5 -25.5t60.5 -63.5h4l13 73h81l-87 -490
q-21 -120 -97.5 -179t-184.5 -59q-57 0 -100 21.5zM353 94q45 31 70.5 82t25.5 109q0 70 -39 110t-97 40q-60 0 -104.5 -30.5t-68.5 -80.5t-24 -107q0 -72 38.5 -113t98.5 -41q55 0 100 31zM357 685q18 -4 29 -18.5t11 -33.5q0 -21 -16 -38t-40 -17q-25 0 -40.5 16.5
t-15.5 40.5q0 30 18 51l71 86l34 -29z" />
    <glyph glyph-name="Hcircumflex" unicode="&#x124;" horiz-adv-x="697" 
d="M142 716h84l-55 -310h369l56 310h84l-127 -716h-84l57 326h-369l-58 -326h-84zM279 784l123 116h75l81 -116l-1 -5h-76l-44 63h-8l-63 -63h-88z" />
    <glyph glyph-name="hcircumflex" unicode="&#x125;" horiz-adv-x="554" 
d="M125 716h84l-39 -224l-17 -71h4q29 41 75 66t101 25q78 0 118 -41t40 -107q0 -23 -6 -64l-54 -300h-85l53 299q5 25 5 42q0 45 -27.5 69.5t-75.5 24.5q-62 0 -110.5 -49t-60.5 -119l-47 -267h-84zM210 784l124 116h74l81 -116l-1 -5h-76l-44 63h-8l-63 -63h-88z" />
    <glyph glyph-name="Hbar" unicode="&#x126;" horiz-adv-x="697" 
d="M41 509l11 66h64l26 141h84l-25 -141h369l26 141h84l-25 -141h64l-12 -66h-64l-90 -509h-84l57 326h-369l-58 -326h-84l90 509h-64zM558 509h-369l-18 -103h369z" />
    <glyph glyph-name="hbar" unicode="&#x127;" horiz-adv-x="553" 
d="M100 577h-65l13 67h64l13 72h84l-13 -72h148l-12 -67h-148l-15 -85l-16 -71h4q29 41 75 66t101 25q78 0 118 -41t40 -107q0 -26 -7 -64l-53 -300h-85l53 299q5 25 5 42q0 45 -27.5 69.5t-75.5 24.5q-62 0 -110.5 -48.5t-60.5 -119.5l-48 -267h-83z" />
    <glyph glyph-name="Itilde" unicode="&#x128;" horiz-adv-x="243" 
d="M142 716h84l-127 -716h-84zM238 786q-15 6 -34 18q-18 11 -31.5 17t-29.5 6q-33 0 -42 -37h-70q8 56 38 85t74 29q17 0 32.5 -6t34.5 -18q18 -11 31.5 -17t28.5 -6q33 0 42 37h70q-7 -56 -37.5 -85t-74.5 -29q-17 0 -32 6z" />
    <glyph glyph-name="itilde" unicode="&#x129;" horiz-adv-x="225" 
d="M93 496h84l-87 -496h-85zM195.5 608.5q-15.5 6.5 -33.5 18.5q-21 12 -33.5 17.5t-27.5 5.5q-33 0 -42 -38h-70q8 56 38 85t74 29q17 0 32.5 -6t34.5 -18q18 -11 31.5 -17t28.5 -6q33 0 42 37h70q-7 -56 -37 -85t-74 -29q-18 0 -33.5 6.5z" />
    <glyph glyph-name="Imacron" unicode="&#x12a;" horiz-adv-x="243" 
d="M87 876h246l-12 -66h-246zM143 716h84l-127 -716h-84z" />
    <glyph glyph-name="imacron" unicode="&#x12b;" horiz-adv-x="225" 
d="M93 496h84l-87 -496h-85zM32 698h276l-11 -66h-277z" />
    <glyph glyph-name="Ibreve" unicode="&#x12c;" horiz-adv-x="243" 
d="M142 716h84l-127 -716h-84zM118.5 801.5q-32.5 29.5 -32.5 73.5q0 7 2 21h69q-1 -5 -1 -12q0 -21 12.5 -34.5t36.5 -13.5q26 0 44.5 16t23.5 44h68q-9 -61 -47.5 -92.5t-96.5 -31.5q-46 0 -78.5 29.5z" />
    <glyph glyph-name="ibreve" unicode="&#x12d;" horiz-adv-x="225" 
d="M93 496h84l-87 -496h-85zM74.5 623.5q-32.5 29.5 -32.5 73.5q0 7 2 21h69q-1 -4 -1 -11q0 -21 12.5 -35t36.5 -14q27 0 45 16t23 44h68q-9 -61 -47.5 -92.5t-95.5 -31.5q-47 0 -79.5 29.5z" />
    <glyph glyph-name="Iogonek" unicode="&#x12e;" horiz-adv-x="243" 
d="M-41.5 -197.5q-28.5 26.5 -28.5 65.5q0 80 85 133l127 715h84l-127 -716q-35 -20 -63 -51.5t-28 -62.5q0 -19 11.5 -29.5t28.5 -10.5q21 0 42 9l-12 -72q-11 -4 -20.5 -5.5t-26.5 -1.5q-44 0 -72.5 26.5z" />
    <glyph glyph-name="iogonek" unicode="&#x12f;" horiz-adv-x="224" 
d="M125.5 621.5q-16.5 16.5 -16.5 39.5t16 39t39 16q24 0 39.5 -16t15.5 -39t-15.5 -39.5t-39.5 -16.5q-22 0 -38.5 16.5zM-51 -197.5q-29 26.5 -29 65.5q0 79 86 133l87 495h84l-87 -496q-35 -20 -63 -51.5t-28 -62.5q0 -19 11 -29.5t29 -10.5q12 0 20.5 2t21.5 7l-12 -72
q-11 -4 -20.5 -5.5t-26.5 -1.5q-44 0 -73 26.5z" />
    <glyph glyph-name="Idotaccent" unicode="&#x130;" horiz-adv-x="243" 
d="M142 716h84l-127 -716h-84zM174 822q-15 15 -15 34q0 21 15 35t35 14q21 0 35 -14t14 -35q0 -20 -14 -34.5t-35 -14.5q-20 0 -35 15z" />
    <glyph glyph-name="dotlessi" unicode="&#x131;" horiz-adv-x="225" 
d="M93 496h84l-87 -496h-85z" />
    <glyph glyph-name="Jcircumflex" unicode="&#x134;" horiz-adv-x="529" 
d="M55 29q-53 45 -62 121l82 32q6 -62 39 -89.5t84 -27.5q59 0 102.5 42t54.5 107l88 502h84l-87 -496q-20 -117 -88 -176.5t-165 -59.5q-79 0 -132 45zM353 784l123 116h75l81 -116l-1 -5h-76l-44 63h-8l-63 -63h-88z" />
    <glyph glyph-name="jcircumflex" unicode="&#x135;" horiz-adv-x="225" 
d="M-131 -219l14 79q18 -9 39 -9q31 0 48 18.5t23 52.5l101 574h85l-102 -578q-14 -79 -54.5 -111.5t-106.5 -32.5q-24 0 -47 7zM13 606l124 116h74l81 -116l-1 -5h-76l-44 63h-8l-63 -63h-88z" />
    <glyph glyph-name="Kcommaaccent" unicode="&#x136;" horiz-adv-x="624" 
d="M142 716h84l-65 -374h4l385 374h112l-1 -4l-319 -306l213 -402l-1 -4h-99l-180 341l-138 -131l-38 -210h-84zM241 -155q-18 4 -29 18.5t-11 33.5q0 21 16 38t40 17q25 0 40.5 -16.5t15.5 -40.5q0 -30 -18 -51l-71 -86l-34 29z" />
    <glyph glyph-name="kcommaaccent" unicode="&#x137;" horiz-adv-x="495" 
d="M125 716h85l-78 -444l259 224h116l-1 -4l-228 -193l150 -295l-1 -4h-98l-119 242l-98 -84l-28 -158h-85zM175 -155q-18 4 -29 18.5t-11 33.5q0 21 16 38t40 17q25 0 40.5 -16.5t15.5 -40.5q0 -30 -18 -51l-71 -86l-34 29z" />
    <glyph glyph-name="kgreenlandic" unicode="&#x138;" horiz-adv-x="480" 
d="M86 496h85l-40 -224h4l245 224h111l-1 -4l-264 -235l188 -253l-1 -4h-101l-181 250h-4l-45 -250h-83z" />
    <glyph glyph-name="Lacute" unicode="&#x139;" horiz-adv-x="507" 
d="M142 716h84l-112 -635h314l-15 -81h-398zM231 900h95l-93 -127h-77z" />
    <glyph glyph-name="lacute" unicode="&#x13a;" horiz-adv-x="209" 
d="M125 716h84l-126 -716h-84zM212 900h95l-93 -127h-76z" />
    <glyph glyph-name="Lcommaaccent" unicode="&#x13b;" horiz-adv-x="507" 
d="M142 716h84l-112 -635h314l-15 -81h-398zM203 -155q-18 4 -29 18.5t-11 33.5q0 21 16 38t40 17q25 0 40.5 -16.5t15.5 -40.5q0 -30 -18 -51l-71 -86l-34 29z" />
    <glyph glyph-name="lcommaaccent" unicode="&#x13c;" horiz-adv-x="209" 
d="M125 716h84l-126 -716h-84zM7 -155q-18 4 -29 18.5t-11 33.5q0 21 16 38t40 17q25 0 40.5 -16.5t15.5 -40.5q0 -30 -18 -51l-71 -86l-34 29z" />
    <glyph glyph-name="Lcaron" unicode="&#x13d;" horiz-adv-x="507" 
d="M142 716h84l-112 -635h314l-15 -81h-398zM379 716h92l-68 -202h-60z" />
    <glyph glyph-name="lcaron" unicode="&#x13e;" horiz-adv-x="310" 
d="M125 716h84l-126 -716h-84zM298 716h92l-68 -202h-60z" />
    <glyph glyph-name="Ldot" unicode="&#x13f;" horiz-adv-x="507" 
d="M142 716h84l-112 -635h314l-15 -81h-398zM303.5 298.5q-18.5 18.5 -18.5 45.5t18.5 45.5t44.5 18.5q27 0 45.5 -18.5t18.5 -45.5t-18.5 -45.5t-45.5 -18.5q-26 0 -44.5 18.5z" />
    <glyph glyph-name="Lslash" unicode="&#x141;" horiz-adv-x="569" 
d="M62 242l-34 62l120 67l61 345h85l-51 -286l140 79l34 -63l-190 -107l-46 -258h314l-15 -81h-398l50 281z" />
    <glyph glyph-name="lslash" unicode="&#x142;" horiz-adv-x="357" 
d="M122 299l-65 -41l-37 61l119 77l57 320h84l-46 -263l80 53l38 -62l-136 -88l-63 -356h-83z" />
    <glyph glyph-name="Nacute" unicode="&#x143;" horiz-adv-x="706" 
d="M142 716h97l265 -570h4l21 138l76 432h85l-127 -716h-81l-277 597h-4l-20 -138l-82 -459h-84zM452 900h95l-93 -127h-77z" />
    <glyph glyph-name="nacute" unicode="&#x144;" horiz-adv-x="554" 
d="M157 422q27 40 72 65t102 25q72 0 115.5 -41.5t43.5 -109.5q0 -34 -7 -70l-51 -291h-85l53 298q5 28 5 44q0 45 -28 69t-77 24q-62 0 -109 -46.5t-59 -114.5l-49 -274h-84l87 496h81l-14 -74h4zM369 722h95l-93 -127h-76z" />
    <glyph glyph-name="Ncommaaccent" unicode="&#x145;" horiz-adv-x="706" 
d="M142 716h97l265 -570h4l21 138l76 432h85l-127 -716h-81l-277 597h-4l-20 -138l-82 -459h-84zM267 -155q-18 4 -29 18.5t-11 33.5q0 21 16 38t40 17q25 0 40.5 -16.5t15.5 -40.5q0 -30 -18 -51l-71 -86l-34 29z" />
    <glyph glyph-name="ncommaaccent" unicode="&#x146;" horiz-adv-x="554" 
d="M157 422q27 40 72 65t102 25q72 0 115.5 -41.5t43.5 -109.5q0 -34 -7 -70l-51 -291h-85l53 298q5 28 5 44q0 45 -28 69t-77 24q-62 0 -109 -46.5t-59 -114.5l-49 -274h-84l87 496h81l-14 -74h4zM188 -155q-18 4 -29 18.5t-11 33.5q0 21 16 38t40 17q25 0 40.5 -16.5
t15.5 -40.5q0 -30 -18 -51l-71 -86l-34 29z" />
    <glyph glyph-name="Ncaron" unicode="&#x147;" horiz-adv-x="706" 
d="M142 716h97l265 -570h4l21 138l76 432h85l-127 -716h-81l-277 597h-4l-20 -138l-82 -459h-84zM301 895l1 5h77l43 -63h8l63 63h88l-1 -5l-123 -116h-75z" />
    <glyph glyph-name="ncaron" unicode="&#x148;" horiz-adv-x="554" 
d="M157 422q27 40 72 65t102 25q72 0 115.5 -41.5t43.5 -109.5q0 -34 -7 -70l-51 -291h-85l53 298q5 28 5 44q0 45 -28 69t-77 24q-62 0 -109 -46.5t-59 -114.5l-49 -274h-84l87 496h81l-14 -74h4zM219 717l1 5h77l43 -63h8l63 63h88l-1 -5l-123 -116h-74z" />
    <glyph glyph-name="Eng" unicode="&#x14a;" horiz-adv-x="706" 
d="M341 -220l14 81q17 -10 38 -10q31 0 48 19.5t24 57.5l14 76l-274 593h-4l-20 -138l-82 -459h-84l127 716h97l265 -570h4l21 138l76 432h85l-141 -789q-13 -77 -56.5 -115t-108.5 -38q-25 0 -43 6z" />
    <glyph glyph-name="eng" unicode="&#x14b;" horiz-adv-x="554" 
d="M210 -219l14 79q16 -9 38 -9q31 0 48 18.5t23 52.5l67 376q5 28 5 44q0 45 -28 69t-77 24q-62 0 -109 -46t-59 -115l-49 -274h-84l87 496h81l-14 -74h4q27 40 72 65t102 25q72 0 115.5 -41.5t43.5 -109.5q0 -34 -7 -70l-66 -373q-13 -79 -54 -111.5t-106 -32.5
q-26 0 -47 7z" />
    <glyph glyph-name="Omacron" unicode="&#x14c;" horiz-adv-x="822" 
d="M197.5 25.5q-74.5 41.5 -117.5 115.5t-43 168q0 110 54 207.5t150.5 156.5t218.5 59q90 0 164 -41.5t117 -115.5t43 -168q0 -110 -53.5 -207.5t-150 -156.5t-217.5 -59q-91 0 -165.5 41.5zM534.5 112.5q74.5 47.5 118 125t43.5 162.5q0 76 -32.5 133t-88.5 87.5
t-125 30.5q-89 0 -164 -47.5t-118.5 -125t-43.5 -162.5q0 -76 32.5 -133t89 -87.5t125.5 -30.5q89 0 163.5 47.5zM349 876h276l-12 -66h-276z" />
    <glyph glyph-name="omacron" unicode="&#x14d;" horiz-adv-x="574" 
d="M121.5 15.5q-52.5 31.5 -81.5 85.5t-29 119q0 81 37.5 148t105 105.5t151.5 38.5q66 0 118.5 -31.5t81.5 -85.5t29 -119q0 -81 -37.5 -147.5t-104.5 -105.5t-152 -39q-66 0 -118.5 31.5zM353 90q45 29 70 77t25 104q0 47 -20 84.5t-55 58.5t-77 21q-58 0 -103.5 -29
t-70.5 -77t-25 -104q0 -47 20 -84.5t55 -58.5t77 -21q59 0 104 29zM202 698h276l-11 -66h-277z" />
    <glyph glyph-name="Obreve" unicode="&#x14e;" horiz-adv-x="822" 
d="M197.5 25.5q-74.5 41.5 -117.5 115.5t-43 168q0 110 54 207.5t150.5 156.5t218.5 59q90 0 164 -41.5t117 -115.5t43 -168q0 -110 -53.5 -207.5t-150 -156.5t-217.5 -59q-91 0 -165.5 41.5zM534.5 112.5q74.5 47.5 118 125t43.5 162.5q0 76 -32.5 133t-88.5 87.5
t-125 30.5q-89 0 -164 -47.5t-118.5 -125t-43.5 -162.5q0 -76 32.5 -133t89 -87.5t125.5 -30.5q89 0 163.5 47.5zM393.5 801.5q-32.5 29.5 -32.5 73.5q0 7 2 21h69q-1 -5 -1 -12q0 -21 12.5 -34.5t36.5 -13.5q26 0 44.5 16t23.5 44h68q-9 -61 -47.5 -92.5t-96.5 -31.5
q-46 0 -78.5 29.5z" />
    <glyph glyph-name="obreve" unicode="&#x14f;" horiz-adv-x="574" 
d="M121.5 15.5q-52.5 31.5 -81.5 85.5t-29 119q0 81 37.5 148t105 105.5t151.5 38.5q66 0 118.5 -31.5t81.5 -85.5t29 -119q0 -81 -37.5 -147.5t-104.5 -105.5t-152 -39q-66 0 -118.5 31.5zM353 90q45 29 70 77t25 104q0 47 -20 84.5t-55 58.5t-77 21q-58 0 -103.5 -29
t-70.5 -77t-25 -104q0 -47 20 -84.5t55 -58.5t77 -21q59 0 104 29zM244.5 623.5q-32.5 29.5 -32.5 73.5q0 7 2 21h69q-1 -4 -1 -11q0 -21 12.5 -35t36.5 -14q27 0 45 16t23 44h68q-9 -61 -47.5 -92.5t-95.5 -31.5q-47 0 -79.5 29.5z" />
    <glyph glyph-name="Ohungarumlaut" unicode="&#x150;" horiz-adv-x="822" 
d="M197.5 25.5q-74.5 41.5 -117.5 115.5t-43 168q0 110 54 207.5t150.5 156.5t218.5 59q90 0 164 -41.5t117 -115.5t43 -168q0 -110 -53.5 -207.5t-150 -156.5t-217.5 -59q-91 0 -165.5 41.5zM534.5 112.5q74.5 47.5 118 125t43.5 162.5q0 76 -32.5 133t-88.5 87.5
t-125 30.5q-89 0 -164 -47.5t-118.5 -125t-43.5 -162.5q0 -76 32.5 -133t89 -87.5t125.5 -30.5q89 0 163.5 47.5zM442 900h95l-93 -127h-77zM569 900h95l-93 -127h-77z" />
    <glyph glyph-name="ohungarumlaut" unicode="&#x151;" horiz-adv-x="574" 
d="M121.5 15.5q-52.5 31.5 -81.5 85.5t-29 119q0 81 37.5 148t105 105.5t151.5 38.5q66 0 118.5 -31.5t81.5 -85.5t29 -119q0 -81 -37.5 -147.5t-104.5 -105.5t-152 -39q-66 0 -118.5 31.5zM353 90q45 29 70 77t25 104q0 47 -20 84.5t-55 58.5t-77 21q-58 0 -103.5 -29
t-70.5 -77t-25 -104q0 -47 20 -84.5t55 -58.5t77 -21q59 0 104 29zM279 722h95l-93 -127h-77zM438 722h95l-93 -127h-77z" />
    <glyph glyph-name="OE" unicode="&#x152;" horiz-adv-x="1164" 
d="M197.5 25.5q-74.5 41.5 -117.5 115.5t-43 168q0 110 54 207.5t150.5 156.5t218.5 59q88 0 160 -39.5t113 -109.5l24 133h414l-15 -81h-329l-42 -237h297l-13 -80h-298l-42 -237h330l-15 -81h-414l17 99q-56 -55 -128.5 -85t-155.5 -30q-91 0 -165.5 41.5zM534.5 112.5
q74.5 47.5 118 125t43.5 162.5q0 76 -32.5 133t-88.5 87.5t-125 30.5q-89 0 -164 -47.5t-118.5 -125t-43.5 -162.5q0 -76 32.5 -133t89 -87.5t125.5 -30.5q89 0 163.5 47.5z" />
    <glyph glyph-name="oe" unicode="&#x153;" horiz-adv-x="978" 
d="M121.5 15.5q-52.5 31.5 -81.5 85.5t-29 119q0 81 37.5 148t105 105.5t151.5 38.5q67 0 118 -31.5t78 -86.5q38 55 95 86.5t129 31.5q65 0 111 -27.5t70 -74.5t24 -105q0 -36 -8 -73h-395q-2 -14 -2 -31q0 -44 20 -75.5t52 -48t68 -16.5q103 0 164 92l66 -36
q-38 -65 -99 -99t-137 -34q-66 0 -114.5 30t-73.5 82q-39 -52 -98.5 -82t-132.5 -30q-66 0 -118.5 31.5zM353 90q45 29 69.5 77t24.5 104q0 47 -20 84.5t-54.5 58.5t-76.5 21q-58 0 -103.5 -29t-70.5 -77t-25 -104q0 -47 20 -84.5t55 -58.5t77 -21q59 0 104 29zM845 303v13
q0 47 -31.5 83t-99.5 36q-59 0 -106 -36.5t-65 -95.5h302z" />
    <glyph glyph-name="Racute" unicode="&#x154;" horiz-adv-x="585" 
d="M142 716h235q56 0 100 -24t69 -67t25 -99q0 -88 -57.5 -149t-151.5 -79l-3 -3l149 -291l-1 -4h-95l-146 292h-114l-53 -292h-84zM318 371q71 0 118.5 41t47.5 112q0 48 -32.5 79.5t-88.5 31.5h-151l-47 -264h153zM380 900h95l-93 -127h-77z" />
    <glyph glyph-name="racute" unicode="&#x155;" horiz-adv-x="366" 
d="M86 496h81l-14 -76h4q21 41 66 66t92 25q36 0 59 -9l-17 -93q-27 16 -67 16q-34 0 -68.5 -20.5t-58.5 -54.5t-31 -74l-49 -276h-84zM281 722h95l-93 -127h-76z" />
    <glyph glyph-name="Rcommaaccent" unicode="&#x156;" horiz-adv-x="585" 
d="M142 716h235q56 0 100 -24t69 -67t25 -99q0 -88 -57.5 -149t-151.5 -79l-3 -3l149 -291l-1 -4h-95l-146 292h-114l-53 -292h-84zM318 371q71 0 118.5 41t47.5 112q0 48 -32.5 79.5t-88.5 31.5h-151l-47 -264h153zM220 -155q-18 4 -29 18.5t-11 33.5q0 21 16 38t40 17
q25 0 40.5 -16.5t15.5 -40.5q0 -30 -18 -51l-71 -86l-34 29z" />
    <glyph glyph-name="rcommaaccent" unicode="&#x157;" horiz-adv-x="366" 
d="M86 496h81l-14 -76h4q21 41 66 66t92 25q36 0 59 -9l-17 -93q-27 16 -67 16q-34 0 -68.5 -20.5t-58.5 -54.5t-31 -74l-49 -276h-84zM7 -155q-18 4 -29 18.5t-11 33.5q0 21 16 38t40 17q25 0 40.5 -16.5t15.5 -40.5q0 -30 -18 -51l-71 -86l-34 29z" />
    <glyph glyph-name="Rcaron" unicode="&#x158;" horiz-adv-x="585" 
d="M142 716h235q56 0 100 -24t69 -67t25 -99q0 -88 -57.5 -149t-151.5 -79l-3 -3l149 -291l-1 -4h-95l-146 292h-114l-53 -292h-84zM318 371q71 0 118.5 41t47.5 112q0 48 -32.5 79.5t-88.5 31.5h-151l-47 -264h153zM229 895l1 5h77l43 -63h8l63 63h88l-1 -5l-123 -116h-75z
" />
    <glyph glyph-name="rcaron" unicode="&#x159;" horiz-adv-x="366" 
d="M86 496h81l-14 -76h4q21 41 66 66t92 25q36 0 59 -9l-17 -93q-27 16 -67 16q-34 0 -68.5 -20.5t-58.5 -54.5t-31 -74l-49 -276h-84zM131 717l1 5h77l43 -63h8l63 63h88l-1 -5l-123 -116h-74z" />
    <glyph glyph-name="Sacute" unicode="&#x15a;" horiz-adv-x="560" 
d="M77 35.5q-62 51.5 -76 142.5l82 33q8 -65 47.5 -105.5t106.5 -40.5q42 0 79.5 17.5t61 49.5t23.5 74q0 45 -30.5 74.5t-99.5 54.5l-43 16q-63 24 -103 67t-40 111q0 58 32.5 104t87.5 72.5t119 26.5q65 0 109.5 -23.5t68 -57.5t28.5 -67l-81 -30q-7 38 -38 67.5t-93 29.5
q-61 0 -103 -31.5t-42 -83.5q0 -41 28 -68t84 -48l43 -16q161 -61 161 -186q0 -70 -34.5 -123t-94 -82t-132.5 -29q-89 0 -151 51.5zM371 900h95l-93 -127h-77z" />
    <glyph glyph-name="sacute" unicode="&#x15b;" horiz-adv-x="461" 
d="M57.5 23q-50.5 39 -68.5 101l81 32q10 -46 45 -71.5t82 -25.5q48 0 79.5 21.5t31.5 55.5q0 30 -19.5 48.5t-63.5 30.5l-54 14q-126 35 -126 132q0 43 26 77.5t71.5 54t100.5 19.5q68 0 118 -32t67 -84l-81 -31q-12 32 -40.5 52t-68.5 20q-47 0 -76 -18.5t-29 -50.5
q0 -22 18.5 -40t54.5 -27l63 -17q61 -17 94 -52t33 -86q0 -73 -57 -117.5t-151 -44.5q-80 0 -130.5 39zM299 722h95l-93 -127h-76z" />
    <glyph glyph-name="Scircumflex" unicode="&#x15c;" horiz-adv-x="560" 
d="M77 35.5q-62 51.5 -76 142.5l82 33q8 -65 47.5 -105.5t106.5 -40.5q42 0 79.5 17.5t61 49.5t23.5 74q0 45 -30.5 74.5t-99.5 54.5l-43 16q-63 24 -103 67t-40 111q0 58 32.5 104t87.5 72.5t119 26.5q65 0 109.5 -23.5t68 -57.5t28.5 -67l-81 -30q-7 38 -38 67.5t-93 29.5
q-61 0 -103 -31.5t-42 -83.5q0 -41 28 -68t84 -48l43 -16q161 -61 161 -186q0 -70 -34.5 -123t-94 -82t-132.5 -29q-89 0 -151 51.5zM192 784l123 116h75l81 -116l-1 -5h-76l-44 63h-8l-63 -63h-88z" />
    <glyph glyph-name="scircumflex" unicode="&#x15d;" horiz-adv-x="461" 
d="M57.5 23q-50.5 39 -68.5 101l81 32q10 -46 45 -71.5t82 -25.5q48 0 79.5 21.5t31.5 55.5q0 30 -19.5 48.5t-63.5 30.5l-54 14q-126 35 -126 132q0 43 26 77.5t71.5 54t100.5 19.5q68 0 118 -32t67 -84l-81 -31q-12 32 -40.5 52t-68.5 20q-47 0 -76 -18.5t-29 -50.5
q0 -22 18.5 -40t54.5 -27l63 -17q61 -17 94 -52t33 -86q0 -73 -57 -117.5t-151 -44.5q-80 0 -130.5 39zM122 606l124 116h74l81 -116l-1 -5h-76l-44 63h-8l-63 -63h-88z" />
    <glyph glyph-name="Scedilla" unicode="&#x15e;" horiz-adv-x="560" 
d="M489 218q0 -70 -34.5 -123t-94 -82t-132.5 -29h-7l-20 -33q15 3 22 3q34 0 55 -24.5t21 -63.5q0 -45 -30.5 -74t-80.5 -29q-33 0 -58.5 19.5t-31.5 47.5l53 22q2 -15 13.5 -25.5t27.5 -10.5q21 0 35.5 13.5t14.5 36.5q0 16 -11 27t-28 11q-19 0 -36 -17l-41 20l46 83
q-68 14 -113.5 63.5t-57.5 124.5l82 33q8 -65 47.5 -105.5t106.5 -40.5q42 0 79.5 17.5t61 49.5t23.5 74q0 45 -30.5 74.5t-99.5 54.5l-43 16q-63 24 -103 67t-40 111q0 58 32.5 104t87.5 72.5t119 26.5q65 0 109.5 -23.5t68 -57.5t28.5 -67l-81 -30q-7 38 -38 67.5
t-93 29.5q-61 0 -103 -31.5t-42 -83.5q0 -41 28 -68t84 -48l43 -16q161 -61 161 -186z" />
    <glyph glyph-name="scedilla" unicode="&#x15f;" horiz-adv-x="461" 
d="M363 232q33 -35 33 -86q0 -73 -57 -117.5t-151 -44.5h-1l-20 -33q15 3 22 3q34 0 55 -24.5t21 -63.5q0 -45 -30.5 -74t-80.5 -29q-33 0 -58.5 19.5t-31.5 47.5l53 22q2 -15 13.5 -25.5t27.5 -10.5q21 0 35.5 13.5t14.5 36.5q0 16 -11 27t-28 11q-19 0 -36 -17l-41 20
l45 82q-58 12 -96 48t-52 87l81 32q10 -46 45 -71.5t82 -25.5q48 0 79.5 21.5t31.5 55.5q0 30 -19.5 48.5t-63.5 30.5l-54 14q-126 35 -126 132q0 43 26 77.5t71.5 54t100.5 19.5q68 0 118 -32t67 -84l-81 -31q-12 32 -40.5 52t-68.5 20q-47 0 -76 -18.5t-29 -50.5
q0 -22 18.5 -40t54.5 -27l63 -17q61 -17 94 -52z" />
    <glyph glyph-name="Scaron" unicode="&#x160;" horiz-adv-x="560" 
d="M77 35.5q-62 51.5 -76 142.5l82 33q8 -65 47.5 -105.5t106.5 -40.5q42 0 79.5 17.5t61 49.5t23.5 74q0 45 -30.5 74.5t-99.5 54.5l-43 16q-63 24 -103 67t-40 111q0 58 32.5 104t87.5 72.5t119 26.5q65 0 109.5 -23.5t68 -57.5t28.5 -67l-81 -30q-7 38 -38 67.5t-93 29.5
q-61 0 -103 -31.5t-42 -83.5q0 -41 28 -68t84 -48l43 -16q161 -61 161 -186q0 -70 -34.5 -123t-94 -82t-132.5 -29q-89 0 -151 51.5zM220 895l1 5h77l43 -63h8l63 63h88l-1 -5l-123 -116h-75z" />
    <glyph glyph-name="scaron" unicode="&#x161;" horiz-adv-x="461" 
d="M57.5 23q-50.5 39 -68.5 101l81 32q10 -46 45 -71.5t82 -25.5q48 0 79.5 21.5t31.5 55.5q0 30 -19.5 48.5t-63.5 30.5l-54 14q-126 35 -126 132q0 43 26 77.5t71.5 54t100.5 19.5q68 0 118 -32t67 -84l-81 -31q-12 32 -40.5 52t-68.5 20q-47 0 -76 -18.5t-29 -50.5
q0 -22 18.5 -40t54.5 -27l63 -17q61 -17 94 -52t33 -86q0 -73 -57 -117.5t-151 -44.5q-80 0 -130.5 39zM149 717l1 5h77l43 -63h8l63 63h88l-1 -5l-123 -116h-74z" />
    <glyph glyph-name="uni0162" unicode="&#x162;" horiz-adv-x="538" 
d="M132 -217.5q-26 19.5 -32 47.5l53 22q3 -15 14.5 -25.5t27.5 -10.5q20 0 34.5 13.5t14.5 36.5q0 16 -10.5 27t-27.5 11q-20 0 -37 -17l-40 20l51 93h-18l113 635h-201l14 81h487l-15 -81h-201l-112 -635h-14l-30 -49q15 3 23 3q34 0 55 -24.5t21 -63.5q0 -45 -30.5 -74
t-80.5 -29q-33 0 -59 19.5z" />
    <glyph glyph-name="uni0163" unicode="&#x163;" horiz-adv-x="358" 
d="M70.5 -217.5q-25.5 19.5 -31.5 47.5l53 22q2 -15 13.5 -25.5t27.5 -10.5q21 0 35.5 13.5t14.5 36.5q0 16 -11 27t-28 11q-19 0 -36 -17l-41 20l55 102q-23 14 -36 38t-13 56q0 23 5 49l47 267h-88l14 77h87l27 148h85l-27 -148h122l-14 -77h-122l-45 -258q-4 -28 -4 -36
q0 -23 13.5 -38.5t37.5 -15.5q15 0 25 2.5t23 8.5l14 -75q-37 -15 -83 -15q-15 0 -22 2l-26 -43q15 3 22 3q34 0 55 -24.5t21 -63.5q0 -45 -30.5 -74t-80.5 -29q-33 0 -58.5 19.5z" />
    <glyph glyph-name="Tcaron" unicode="&#x164;" horiz-adv-x="538" 
d="M275 635h-201l14 81h487l-15 -81h-201l-112 -635h-85zM218 895l1 5h77l43 -63h8l63 63h88l-1 -5l-123 -116h-75z" />
    <glyph glyph-name="tcaron" unicode="&#x165;" horiz-adv-x="353" 
d="M329 716h86l-54 -156h-59zM106 23q-33 31 -33 80q0 23 5 49l47 267h-88l14 77h87l26 148h85l-26 -148h122l-14 -77h-122l-45 -257q-5 -28 -5 -39q0 -24 14.5 -38t41.5 -14q31 0 58 15l-14 -83q-18 -6 -32.5 -8.5t-36.5 -2.5q-51 0 -84 31z" />
    <glyph glyph-name="Tbar" unicode="&#x166;" horiz-adv-x="538" 
d="M222 341h-130l12 66h130l41 228h-201l14 81h487l-15 -81h-201l-41 -228h131l-12 -66h-131l-59 -341h-85z" />
    <glyph glyph-name="tbar" unicode="&#x167;" horiz-adv-x="358" 
d="M106 23q-33 31 -33 80q0 23 5 49l13 76h-86l14 77h86l20 114h-88l14 77h87l26 148h85l-26 -148h122l-14 -77h-122l-20 -114h122l-14 -77h-121l-12 -66q-5 -28 -5 -39q0 -24 14.5 -38t41.5 -14q31 0 58 15l-14 -83q-18 -6 -32.5 -8.5t-36.5 -2.5q-51 0 -84 31z" />
    <glyph glyph-name="Utilde" unicode="&#x168;" horiz-adv-x="657" 
d="M154.5 10.5q-50.5 26.5 -80 75t-29.5 113.5q0 38 9 94l75 423h84l-78 -443q-6 -35 -6 -61q0 -68 38 -107.5t112 -39.5q85 0 140.5 54.5t70.5 141.5l81 455h84l-82 -466q-23 -126 -102 -196t-206 -70q-60 0 -110.5 26.5zM439 786q-15 6 -34 18q-18 11 -31.5 17t-29.5 6
q-33 0 -42 -37h-70q8 56 38 85t74 29q17 0 32.5 -6t34.5 -18q18 -11 31.5 -17t28.5 -6q33 0 42 37h70q-7 -56 -37.5 -85t-74.5 -29q-17 0 -32 6z" />
    <glyph glyph-name="utilde" unicode="&#x169;" horiz-adv-x="554" 
d="M357 74q-27 -41 -71.5 -65.5t-101.5 -24.5q-73 0 -116 41.5t-43 109.5q0 33 7 71l51 290h85l-53 -298q-5 -21 -5 -44q0 -45 28 -69t77 -24q62 0 109 46.5t59 114.5l48 274h85l-87 -496h-81l13 74h-4zM359.5 608.5q-15.5 6.5 -33.5 18.5q-21 12 -33.5 17.5t-27.5 5.5
q-33 0 -42 -38h-70q8 56 38 85t74 29q17 0 32.5 -6t34.5 -18q18 -11 31.5 -17t28.5 -6q33 0 42 37h70q-7 -56 -37 -85t-74 -29q-18 0 -33.5 6.5z" />
    <glyph glyph-name="Umacron" unicode="&#x16a;" horiz-adv-x="657" 
d="M154.5 10.5q-50.5 26.5 -80 75t-29.5 113.5q0 38 9 94l75 423h84l-78 -443q-6 -35 -6 -61q0 -68 38 -107.5t112 -39.5q85 0 140.5 54.5t70.5 141.5l81 455h84l-82 -466q-23 -126 -102 -196t-206 -70q-60 0 -110.5 26.5zM275 876h276l-12 -66h-276z" />
    <glyph glyph-name="umacron" unicode="&#x16b;" horiz-adv-x="554" 
d="M357 74q-27 -41 -71.5 -65.5t-101.5 -24.5q-73 0 -116 41.5t-43 109.5q0 33 7 71l51 290h85l-53 -298q-5 -21 -5 -44q0 -45 28 -69t77 -24q62 0 109 46.5t59 114.5l48 274h85l-87 -496h-81l13 74h-4zM196 698h276l-11 -66h-277z" />
    <glyph glyph-name="Ubreve" unicode="&#x16c;" horiz-adv-x="657" 
d="M154.5 10.5q-50.5 26.5 -80 75t-29.5 113.5q0 38 9 94l75 423h84l-78 -443q-6 -35 -6 -61q0 -68 38 -107.5t112 -39.5q85 0 140.5 54.5t70.5 141.5l81 455h84l-82 -466q-23 -126 -102 -196t-206 -70q-60 0 -110.5 26.5zM319.5 801.5q-32.5 29.5 -32.5 73.5q0 7 2 21h69
q-1 -5 -1 -12q0 -21 12.5 -34.5t36.5 -13.5q26 0 44.5 16t23.5 44h68q-9 -61 -47.5 -92.5t-96.5 -31.5q-46 0 -78.5 29.5z" />
    <glyph glyph-name="ubreve" unicode="&#x16d;" horiz-adv-x="554" 
d="M357 74q-27 -41 -71.5 -65.5t-101.5 -24.5q-73 0 -116 41.5t-43 109.5q0 33 7 71l51 290h85l-53 -298q-5 -21 -5 -44q0 -45 28 -69t77 -24q62 0 109 46.5t59 114.5l48 274h85l-87 -496h-81l13 74h-4zM238.5 623.5q-32.5 29.5 -32.5 73.5q0 7 2 21h69q-1 -4 -1 -11
q0 -21 12.5 -35t36.5 -14q27 0 45 16t23 44h68q-9 -61 -47.5 -92.5t-95.5 -31.5q-47 0 -79.5 29.5z" />
    <glyph glyph-name="Uring" unicode="&#x16e;" horiz-adv-x="657" 
d="M154.5 10.5q-50.5 26.5 -80 75t-29.5 113.5q0 38 9 94l75 423h84l-78 -443q-6 -35 -6 -61q0 -68 38 -107.5t112 -39.5q85 0 140.5 54.5t70.5 141.5l81 455h84l-82 -466q-23 -126 -102 -196t-206 -70q-60 0 -110.5 26.5zM337 783q-30 30 -30 73q0 44 29.5 73.5t73.5 29.5
q43 0 73.5 -30t30.5 -73t-30.5 -73t-73.5 -30t-73 30zM443 822q14 14 14 34t-14 33.5t-33 13.5t-33 -14t-14 -33t14 -33.5t33 -14.5t33 14z" />
    <glyph glyph-name="uring" unicode="&#x16f;" horiz-adv-x="554" 
d="M357 74q-27 -41 -71.5 -65.5t-101.5 -24.5q-73 0 -116 41.5t-43 109.5q0 33 7 71l51 290h85l-53 -298q-5 -21 -5 -44q0 -45 28 -69t77 -24q62 0 109 46.5t59 114.5l48 274h85l-87 -496h-81l13 74h-4zM258 605q-30 30 -30 73t30 73.5t73 30.5t73.5 -30.5t30.5 -73.5
t-30.5 -73t-73.5 -30t-73 30zM364 644q14 14 14 34t-14 33.5t-33 13.5t-33 -14t-14 -33t14 -33.5t33 -14.5t33 14z" />
    <glyph glyph-name="Uhungarumlaut" unicode="&#x170;" horiz-adv-x="657" 
d="M154.5 10.5q-50.5 26.5 -80 75t-29.5 113.5q0 38 9 94l75 423h84l-78 -443q-6 -35 -6 -61q0 -68 38 -107.5t112 -39.5q85 0 140.5 54.5t70.5 141.5l81 455h84l-82 -466q-23 -126 -102 -196t-206 -70q-60 0 -110.5 26.5zM368 900h95l-93 -127h-77zM495 900h95l-93 -127
h-77z" />
    <glyph glyph-name="uhungarumlaut" unicode="&#x171;" horiz-adv-x="554" 
d="M357 74q-27 -41 -71.5 -65.5t-101.5 -24.5q-73 0 -116 41.5t-43 109.5q0 33 7 71l51 290h85l-53 -298q-5 -21 -5 -44q0 -45 28 -69t77 -24q62 0 109 46.5t59 114.5l48 274h85l-87 -496h-81l13 74h-4zM273 722h95l-93 -127h-77zM432 722h95l-93 -127h-77z" />
    <glyph glyph-name="Uogonek" unicode="&#x172;" horiz-adv-x="657" 
d="M233 -197.5q-29 26.5 -29 65.5q0 34 16.5 63.5t46.5 52.5h-6q-59 1 -108.5 27.5t-78.5 75t-29 112.5q0 38 9 94l75 423h84l-78 -443q-6 -35 -6 -61q0 -68 38 -107.5t112 -39.5q85 0 140.5 54.5t70.5 141.5l81 455h84l-82 -466q-17 -93 -64 -154.5t-114 -86.5
q-51 -20 -81.5 -53t-30.5 -70q0 -19 11 -29.5t29 -10.5q20 0 42 9l-12 -72q-11 -4 -20.5 -5.5t-26.5 -1.5q-44 0 -73 26.5z" />
    <glyph glyph-name="uogonek" unicode="&#x173;" horiz-adv-x="554" 
d="M288 -197.5q-29 26.5 -29 65.5q0 81 89 133l13 73h-4q-27 -41 -71.5 -65.5t-101.5 -24.5q-73 0 -116 41.5t-43 109.5q0 33 7 71l51 290h85l-53 -298q-5 -21 -5 -44q0 -45 28 -69t77 -24q62 0 109 46.5t59 114.5l48 274h85l-87 -496q-35 -20 -63 -51.5t-28 -62.5
q0 -19 11 -29.5t29 -10.5q20 0 42 9l-12 -72q-11 -4 -20.5 -5.5t-26.5 -1.5q-44 0 -73 26.5z" />
    <glyph glyph-name="Wcircumflex" unicode="&#x174;" horiz-adv-x="944" 
d="M80 716h91l38 -526l4 -49h4l23 49l252 526h88l61 -526l6 -49h4l20 49l223 526h95l-316 -716h-88l-65 518l-7 56h-4l-26 -56l-248 -518h-89zM400 784l123 116h75l81 -116l-1 -5h-76l-44 63h-8l-63 -63h-88z" />
    <glyph glyph-name="wcircumflex" unicode="&#x175;" horiz-adv-x="760" 
d="M30 496h86l47 -386h1l194 386h89l58 -386h1l183 386h88l-248 -496h-87l-58 393l-196 -393h-86zM276 606l124 116h74l81 -116l-1 -5h-76l-44 63h-8l-63 -63h-88z" />
    <glyph glyph-name="Ycircumflex" unicode="&#x176;" horiz-adv-x="594" 
d="M251 331l-174 385h96l130 -300h4l233 300h102l-307 -385l-58 -331h-85zM214 784l123 116h75l81 -116l-1 -5h-76l-44 63h-8l-63 -63h-88z" />
    <glyph glyph-name="ycircumflex" unicode="&#x177;" horiz-adv-x="503" 
d="M170 33l-124 463h89l92 -365h2l214 365h94l-436 -712h-90zM158 606l124 116h74l81 -116l-1 -5h-76l-44 63h-8l-63 -63h-88z" />
    <glyph glyph-name="Ydieresis" unicode="&#x178;" horiz-adv-x="594" 
d="M251 331l-174 385h96l130 -300h4l233 300h102l-307 -385l-58 -331h-85zM248.5 805.5q-16.5 16.5 -16.5 37.5q0 23 16 38.5t38 15.5q23 0 38.5 -15.5t15.5 -38.5q0 -22 -15.5 -38t-38.5 -16q-21 0 -37.5 16.5zM413 805.5q-16 16.5 -16 37.5q0 23 16 38.5t37 15.5
q23 0 38.5 -15.5t15.5 -38.5q0 -22 -15.5 -38t-38.5 -16q-21 0 -37 16.5z" />
    <glyph glyph-name="Zacute" unicode="&#x179;" horiz-adv-x="570" 
d="M-11 89l480 546h-368l15 81h467l-16 -89l-480 -546h388l-15 -81h-486zM383 900h95l-93 -127h-77z" />
    <glyph glyph-name="zacute" unicode="&#x17a;" horiz-adv-x="469" 
d="M332 419h-278l14 77h385l-13 -73l-348 -346h290l-13 -77h-397l12 73zM302 722h95l-93 -127h-76z" />
    <glyph glyph-name="Zdotaccent" unicode="&#x17b;" horiz-adv-x="570" 
d="M-11 89l480 546h-368l15 81h467l-16 -89l-480 -546h388l-15 -81h-486zM326 822q-15 15 -15 34q0 21 15 35t35 14q21 0 35 -14t14 -35q0 -20 -14 -34.5t-35 -14.5q-20 0 -35 15z" />
    <glyph glyph-name="zdotaccent" unicode="&#x17c;" horiz-adv-x="469" 
d="M332 419h-278l14 77h385l-13 -73l-348 -346h290l-13 -77h-397l12 73zM241 627.5q-16 16.5 -16 37.5q0 23 16 38.5t38 15.5q23 0 38.5 -15.5t15.5 -38.5q0 -22 -15.5 -38t-38.5 -16q-22 0 -38 16.5z" />
    <glyph glyph-name="Zcaron" unicode="&#x17d;" horiz-adv-x="570" 
d="M-11 89l480 546h-368l15 81h467l-16 -89l-480 -546h388l-15 -81h-486zM232 895l1 5h77l43 -63h8l63 63h88l-1 -5l-123 -116h-75z" />
    <glyph glyph-name="zcaron" unicode="&#x17e;" horiz-adv-x="469" 
d="M332 419h-278l14 77h385l-13 -73l-348 -346h290l-13 -77h-397l12 73zM152 717l1 5h77l43 -63h8l63 63h88l-1 -5l-123 -116h-74z" />
    <glyph glyph-name="florin" unicode="&#x192;" horiz-adv-x="560" 
d="M425 626q-22 -17 -29 -49l-35 -174h130v-78h-145l-82 -412q-12 -59 -52.5 -96t-100.5 -37q-32 0 -61 10v82q33 -15 61 -15t47.5 18.5t26.5 50.5l79 399h-105v78h120l37 185q11 59 55.5 95.5t108.5 36.5q21 0 32.5 -2t25.5 -7v-83q-26 15 -59 15q-32 0 -54 -17z" />
    <glyph glyph-name="Aringacute" unicode="&#x1fa;" horiz-adv-x="668" 
d="M328 680q-15 15 -24 34.5t-9 41.5q0 40 26 69t66 34h1v-1l45 74h86l-64 -90q21 -14 34 -36.5t13 -49.5q0 -26 -13 -49.5t-35 -37.5l135 -669h-90l-36 197h-309l-108 -197h-96zM429 725q13 13 13 31t-13 31t-31 13t-30.5 -13t-12.5 -31t12.5 -31t30.5 -13t31 13zM447 277
l-50 258l-14 75h-5l-182 -333h251z" />
    <glyph glyph-name="aringacute" unicode="&#x1fb;" horiz-adv-x="521" 
d="M345 905h95l-79 -106h-74zM241 604q-30 30 -30 73q0 44 30 73.5t73 29.5t73.5 -30t30.5 -73t-30.5 -73t-73.5 -30t-73 30zM347 643q14 14 14 34t-13.5 33.5t-33.5 13.5q-19 0 -33 -14t-14 -33t14 -33.5t33 -14.5t33 14zM99 3.5q-38 19.5 -60 54t-22 78.5q0 55 30 96.5
t84 64t122 22.5q76 0 142 -33l5 26q2 14 2 24q0 45 -33.5 73t-86.5 28q-80 0 -135 -68l-66 47q35 46 89.5 71t120.5 25q92 0 142 -44t50 -119q0 -20 -5 -52l-53 -297h-81l13 72h-4q-27 -40 -71 -64t-98 -24q-47 0 -85 19.5zM283.5 79.5q38.5 20.5 65 56.5t33.5 79
q-56 36 -135 36q-59 0 -100.5 -28.5t-41.5 -79.5q0 -39 28 -61.5t69 -22.5q43 0 81.5 20.5z" />
    <glyph glyph-name="AEacute" unicode="&#x1fc;" horiz-adv-x="959" 
d="M495 716h470l-15 -81h-329l-42 -237h297l-13 -80h-298l-42 -237h330l-15 -81h-414l34 197h-262l-151 -197h-103zM472 277l64 358h-4l-38 -50l-237 -308h215zM777 900h95l-93 -127h-77z" />
    <glyph glyph-name="aeacute" unicode="&#x1fd;" horiz-adv-x="923" 
d="M100 3.5q-39 19.5 -61 54t-22 78.5q0 57 31.5 98.5t85.5 63t122 21.5q75 0 139 -32l5 26q2 12 2 23q0 46 -32 73.5t-84 27.5q-42 0 -79.5 -19t-57.5 -52l-70 39q32 50 86 78.5t129 28.5q61 0 105 -26.5t64 -71.5q37 46 90.5 72t116.5 26q65 0 111 -27.5t70 -74.5t24 -105
q0 -40 -9 -73h-394q-2 -14 -2 -31q0 -44 20 -75.5t51.5 -48t67.5 -16.5q105 0 164 92l66 -36q-38 -65 -98.5 -99t-136.5 -34q-70 0 -120.5 34.5t-73.5 89.5q-39 -59 -97 -91.5t-126 -32.5q-48 0 -87 19.5zM790 303v13q0 47 -31.5 83t-99.5 36q-59 0 -106 -36.5t-65 -95.5
h302zM283.5 79.5q38.5 20.5 65 56.5t33.5 79q-65 36 -135 36q-59 0 -100.5 -28.5t-41.5 -79.5q0 -39 28 -61.5t69 -22.5q43 0 81.5 20.5zM522 722h95l-93 -127h-76z" />
    <glyph glyph-name="Oslashacute" unicode="&#x1fe;" horiz-adv-x="822" 
d="M81 5l53 66q-46 45 -71.5 105.5t-25.5 132.5q0 110 54 207.5t150.5 156.5t218.5 59q89 0 168 -44l53 68l59 -45l-54 -66q47 -44 72.5 -105t25.5 -133q0 -110 -53.5 -207.5t-150 -156.5t-217.5 -59q-93 0 -170 44l-53 -67zM574 620q-57 31 -124 31q-89 0 -164 -47.5
t-118.5 -125t-43.5 -162.5q0 -109 65 -177zM534.5 112.5q74.5 47.5 118 125t43.5 162.5q0 108 -64 177l-385 -482q57 -30 124 -30q89 0 163.5 47.5zM506 900h95l-93 -127h-77z" />
    <glyph glyph-name="oslashacute" unicode="&#x1ff;" horiz-adv-x="574" 
d="M39 6l37 45q-31 33 -48 76.5t-17 92.5q0 81 37.5 148t105 105.5t151.5 38.5q64 0 114 -29l40 50l53 -41l-40 -51q30 -32 46 -74.5t16 -90.5q0 -81 -37.5 -147.5t-104.5 -105.5t-152 -39q-60 0 -111 27l-36 -45zM366 417q-33 18 -70 18q-58 0 -103.5 -29t-70.5 -77
t-25 -104q0 -61 33 -105zM353 90q45 29 70 77t25 104q0 58 -32 101l-234 -295q29 -16 67 -16q59 0 104 29zM358 722h95l-93 -127h-76z" />
    <glyph glyph-name="Scommaaccent" unicode="&#x218;" horiz-adv-x="560" 
d="M77 35.5q-62 51.5 -76 142.5l82 33q8 -65 47.5 -105.5t106.5 -40.5q42 0 79.5 17.5t61 49.5t23.5 74q0 45 -30.5 74.5t-99.5 54.5l-43 16q-63 24 -103 67t-40 111q0 58 32.5 104t87.5 72.5t119 26.5q65 0 109.5 -23.5t68 -57.5t28.5 -67l-81 -30q-7 38 -38 67.5t-93 29.5
q-61 0 -103 -31.5t-42 -83.5q0 -41 28 -68t84 -48l43 -16q161 -61 161 -186q0 -70 -34.5 -123t-94 -82t-132.5 -29q-89 0 -151 51.5zM170 -155q-18 4 -29 18.5t-11 33.5q0 21 16 38t40 17q25 0 40.5 -16.5t15.5 -40.5q0 -30 -18 -51l-71 -86l-34 29z" />
    <glyph glyph-name="scommaaccent" unicode="&#x219;" horiz-adv-x="461" 
d="M57.5 23q-50.5 39 -68.5 101l81 32q10 -46 45 -71.5t82 -25.5q48 0 79.5 21.5t31.5 55.5q0 30 -19.5 48.5t-63.5 30.5l-54 14q-126 35 -126 132q0 43 26 77.5t71.5 54t100.5 19.5q68 0 118 -32t67 -84l-81 -31q-12 32 -40.5 52t-68.5 20q-47 0 -76 -18.5t-29 -50.5
q0 -22 18.5 -40t54.5 -27l63 -17q61 -17 94 -52t33 -86q0 -73 -57 -117.5t-151 -44.5q-80 0 -130.5 39zM136 -155q-18 4 -29 18.5t-11 33.5q0 21 16 38t40 17q25 0 40.5 -16.5t15.5 -40.5q0 -30 -18 -51l-71 -86l-34 29z" />
    <glyph glyph-name="uni021A" unicode="&#x21a;" horiz-adv-x="538" 
d="M275 635h-201l14 81h487l-15 -81h-201l-112 -635h-85zM169 -155q-18 4 -29 18.5t-11 33.5q0 21 16 38t40 17q25 0 40.5 -16.5t15.5 -40.5q0 -30 -18 -51l-71 -86l-34 29z" />
    <glyph glyph-name="uni021B" unicode="&#x21b;" horiz-adv-x="358" 
d="M106 23q-33 31 -33 80q0 23 5 49l47 267h-88l14 77h87l26 148h85l-26 -148h122l-14 -77h-122l-45 -257q-5 -28 -5 -39q0 -24 14.5 -38t41.5 -14q31 0 58 15l-14 -83q-18 -6 -32.5 -8.5t-36.5 -2.5q-51 0 -84 31zM137 -155q-18 4 -29 18.5t-11 33.5q0 21 16 38t40 17
q25 0 40.5 -16.5t15.5 -40.5q0 -30 -18 -51l-71 -86l-34 29z" />
    <glyph glyph-name="uni0237" unicode="&#x237;" horiz-adv-x="225" 
d="M-131 -219l14 79q18 -9 39 -9q31 0 48 18.5t23 52.5l101 574h85l-102 -578q-14 -79 -54.5 -111.5t-106.5 -32.5q-24 0 -47 7z" />
    <glyph glyph-name="uni0259" unicode="&#x259;" horiz-adv-x="538" 
d="M106.5 11.5q-46.5 27.5 -70 74.5t-23.5 106q0 38 8 72h395q2 14 2 31q0 44 -20 75.5t-51.5 48t-67.5 16.5q-105 0 -164 -92l-66 36q37 64 98 98.5t137 34.5q67 0 117 -30t76.5 -82t26.5 -115q0 -77 -36.5 -146.5t-102 -112t-147.5 -42.5q-65 0 -111.5 27.5zM336 98
q47 37 64 96h-302v-14q0 -47 31.5 -83t99.5 -36q60 0 107 37z" />
    <glyph glyph-name="circumflex" unicode="&#x2c6;" horiz-adv-x="395" 
d="M99 600l123 116h75l81 -116l-1 -5h-76l-44 63h-8l-63 -63h-88z" />
    <glyph glyph-name="caron" unicode="&#x2c7;" horiz-adv-x="395" 
d="M120 711l1 5h77l43 -63h8l63 63h88l-1 -5l-123 -116h-75z" />
    <glyph glyph-name="breve" unicode="&#x2d8;" horiz-adv-x="399" 
d="M165.5 617.5q-32.5 29.5 -32.5 73.5q0 7 2 21h69q-1 -5 -1 -12q0 -21 12.5 -34.5t36.5 -13.5q26 0 44.5 16t23.5 44h68q-9 -61 -47.5 -92.5t-96.5 -31.5q-46 0 -78.5 29.5z" />
    <glyph glyph-name="dotaccent" unicode="&#x2d9;" horiz-adv-x="227" 
d="M129 621.5q-16 16.5 -16 37.5q0 23 16 38.5t38 15.5q23 0 38 -15.5t15 -38.5q0 -22 -15 -38t-38 -16q-22 0 -38 16.5z" />
    <glyph glyph-name="ring" unicode="&#x2da;" horiz-adv-x="402" 
d="M178 599q-30 30 -30 73q0 44 30 73.5t73 29.5t73.5 -30t30.5 -73t-30.5 -73t-73.5 -30t-73 30zM284 638q14 14 14 34t-13.5 33.5t-33.5 13.5q-19 0 -33 -14t-14 -33t14 -33.5t33 -14.5t33 14z" />
    <glyph glyph-name="ogonek" unicode="&#x2db;" horiz-adv-x="401" 
d="M53 -197.5q-29 26.5 -29 65.5q0 78 85 132h85q-35 -20 -63 -51.5t-28 -62.5q0 -19 11 -29.5t29 -10.5q12 0 20.5 2t21.5 7l-12 -72q-11 -4 -20.5 -5.5t-26.5 -1.5q-44 0 -73 26.5z" />
    <glyph glyph-name="tilde" unicode="&#x2dc;" horiz-adv-x="398" 
d="M282 602q-15 6 -34 18q-18 11 -31.5 17t-29.5 6q-33 0 -42 -37h-70q8 56 38 85t74 29q17 0 32.5 -6t34.5 -18q18 -11 31.5 -17t28.5 -6q33 0 42 37h70q-7 -56 -37.5 -85t-74.5 -29q-17 0 -32 6z" />
    <glyph glyph-name="hungarumlaut" unicode="&#x2dd;" horiz-adv-x="389" 
d="M185 716h95l-93 -127h-77zM344 716h95l-93 -127h-77z" />
    <glyph glyph-name="gravecomb" unicode="&#x300;" horiz-adv-x="0" 
d="M-234 722h91l29 -127h-72z" />
    <glyph glyph-name="acutecomb" unicode="&#x301;" horiz-adv-x="0" 
d="M-130 722h95l-93 -127h-76z" />
    <glyph glyph-name="uni0302" unicode="&#x302;" horiz-adv-x="0" 
d="M-295 606l124 116h74l81 -116l-1 -5h-76l-44 63h-8l-63 -63h-88z" />
    <glyph glyph-name="tildecomb" unicode="&#x303;" horiz-adv-x="0" 
d="M-115.5 608.5q-15.5 6.5 -33.5 18.5q-21 12 -33.5 17.5t-27.5 5.5q-33 0 -42 -38h-70q8 56 38 85t74 29q17 0 32.5 -6t34.5 -18q18 -11 31.5 -17t28.5 -6q33 0 42 37h70q-7 -56 -37 -85t-74 -29q-18 0 -33.5 6.5z" />
    <glyph glyph-name="uni0304" unicode="&#x304;" horiz-adv-x="0" 
d="M-278 698h276l-11 -66h-277z" />
    <glyph glyph-name="uni0306" unicode="&#x306;" horiz-adv-x="0" 
d="M-232.5 623.5q-32.5 29.5 -32.5 73.5q0 7 2 21h69q-1 -4 -1 -11q0 -21 12.5 -35t36.5 -14q27 0 45 16t23 44h68q-9 -61 -47.5 -92.5t-95.5 -31.5q-47 0 -79.5 29.5z" />
    <glyph glyph-name="uni0307" unicode="&#x307;" horiz-adv-x="0" 
d="M-97 627.5q-16 16.5 -16 37.5q0 23 16 38.5t38 15.5q23 0 38.5 -15.5t15.5 -38.5q0 -22 -15.5 -38t-38.5 -16q-22 0 -38 16.5z" />
    <glyph glyph-name="uni0308" unicode="&#x308;" horiz-adv-x="0" 
d="M-263.5 627.5q-16.5 16.5 -16.5 37.5q0 23 16 38.5t38 15.5q23 0 38.5 -15.5t15.5 -38.5q0 -22 -15.5 -38t-38.5 -16q-21 0 -37.5 16.5zM-99 627.5q-16 16.5 -16 37.5q0 23 16 38.5t37 15.5q23 0 38.5 -15.5t15.5 -38.5q0 -22 -15.5 -38t-38.5 -16q-21 0 -37 16.5z" />
    <glyph glyph-name="uni030A" unicode="&#x30a;" horiz-adv-x="0" 
d="M-223 605q-30 30 -30 73t30 73.5t73 30.5t73.5 -30.5t30.5 -73.5t-30.5 -73t-73.5 -30t-73 30zM-117 644q14 14 14 34t-14 33.5t-33 13.5t-33 -14t-14 -33t14 -33.5t33 -14.5t33 14z" />
    <glyph glyph-name="uni030B" unicode="&#x30b;" horiz-adv-x="0" 
d="M-203 722h95l-93 -127h-77zM-44 722h95l-93 -127h-77z" />
    <glyph glyph-name="uni030C" unicode="&#x30c;" horiz-adv-x="0" 
d="M-274 717l1 5h77l43 -63h8l63 63h88l-1 -5l-123 -116h-74z" />
    <glyph glyph-name="uni0312" unicode="&#x312;" horiz-adv-x="0" 
d="M-120 685q18 -4 29 -18.5t11 -33.5q0 -21 -16 -38t-40 -17q-25 0 -40.5 16.5t-15.5 40.5q0 30 18 51l71 86l34 -29z" />
    <glyph glyph-name="uni0326" unicode="&#x326;" horiz-adv-x="0" 
d="M-277 -155q-18 4 -29 18.5t-11 33.5q0 21 16 38t40 17q25 0 40.5 -16.5t15.5 -40.5q0 -30 -18 -51l-71 -86l-34 29z" />
    <glyph glyph-name="uni0327" unicode="&#x327;" horiz-adv-x="0" 
d="M-376.5 -217.5q-25.5 19.5 -31.5 47.5l53 22q2 -15 13.5 -25.5t27.5 -10.5q21 0 35.5 13.5t14.5 36.5q0 16 -11 27t-28 11q-19 0 -36 -17l-41 20l51 93h53l-29 -49q15 3 22 3q34 0 55 -24.5t21 -63.5q0 -45 -30.5 -74t-80.5 -29q-33 0 -58.5 19.5z" />
    <glyph glyph-name="uni0328" unicode="&#x328;" horiz-adv-x="0" 
d="M-348 -197.5q-29 26.5 -29 65.5q0 78 85 132h85q-35 -20 -63 -51.5t-28 -62.5q0 -19 11 -29.5t29 -10.5q12 0 20.5 2t21.5 7l-12 -72q-11 -4 -20.5 -5.5t-26.5 -1.5q-44 0 -73 26.5z" />
    <glyph glyph-name="uni0374" unicode="&#x374;" horiz-adv-x="270" 
d="M291 716l-151 -209h-75l117 209h109z" />
    <glyph glyph-name="uni0375" unicode="&#x375;" horiz-adv-x="270" 
d="M41 -87l114 209h74l-82 -209h-106z" />
    <glyph glyph-name="uni037E" unicode="&#x37e;" horiz-adv-x="225" 
d="M83.5 393.5q-18.5 18.5 -18.5 45.5q0 26 18.5 44.5t45.5 18.5q26 0 44.5 -18.5t18.5 -44.5q0 -27 -18.5 -45.5t-44.5 -18.5q-27 0 -45.5 18.5zM-24 -64l67 80q-13 5 -25 20t-12 38q0 27 18.5 45.5t43.5 18.5q27 0 46 -18t19 -45q0 -15 -9 -29t-30 -40l-83 -99z" />
    <glyph glyph-name="tonos" unicode="&#x384;" horiz-adv-x="397" 
d="M246 722h95l-94 -127h-75z" />
    <glyph glyph-name="dieresistonos" unicode="&#x385;" horiz-adv-x="393" 
d="M230 732h60l-25 -144h-60zM99 625q-15 15 -15 34q0 21 14.5 35t34.5 14q21 0 35 -14t14 -35q0 -20 -14 -34.5t-35 -14.5q-19 0 -34 15zM327 625q-15 15 -15 34q0 21 15 35t35 14q21 0 35 -14t14 -35q0 -20 -14 -34.5t-35 -14.5q-20 0 -35 15z" />
    <glyph glyph-name="Alphatonos" unicode="&#x386;" horiz-adv-x="668" 
d="M348 716h96l145 -716h-90l-36 197h-309l-108 -197h-96zM447 277l-50 258l-14 77h-4l-183 -335h251zM161 716h95l-93 -127h-77z" />
    <glyph glyph-name="anoteleia" unicode="&#x387;" horiz-adv-x="167" 
d="M38.5 278.5q-18.5 18.5 -18.5 45.5t18.5 45.5t44.5 18.5q27 0 45.5 -18.5t18.5 -45.5t-18.5 -45.5t-45.5 -18.5q-26 0 -44.5 18.5z" />
    <glyph glyph-name="Epsilontonos" unicode="&#x388;" horiz-adv-x="585" 
d="M177 716h414l-15 -81h-329l-42 -237h297l-13 -80h-298l-42 -237h330l-15 -81h-414zM40 716h95l-93 -127h-77z" />
    <glyph glyph-name="Etatonos" unicode="&#x389;" horiz-adv-x="731" 
d="M176 716h84l-55 -310h369l56 310h84l-127 -716h-84l57 326h-369l-58 -326h-84zM31 716h95l-93 -127h-77z" />
    <glyph glyph-name="Iotatonos" unicode="&#x38a;" horiz-adv-x="277" 
d="M176 716h84l-127 -716h-84zM31 716h95l-93 -127h-77z" />
    <glyph glyph-name="Omicrontonos" unicode="&#x38c;" horiz-adv-x="822" 
d="M197.5 25.5q-74.5 41.5 -117.5 115.5t-43 168q0 110 54 207.5t150.5 156.5t218.5 59q90 0 164 -41.5t117 -115.5t43 -168q0 -110 -53.5 -207.5t-150 -156.5t-217.5 -59q-91 0 -165.5 41.5zM534.5 112.5q74.5 47.5 118 125t43.5 162.5q0 76 -32.5 133t-88.5 87.5
t-125 30.5q-89 0 -164 -47.5t-118.5 -125t-43.5 -162.5q0 -76 32.5 -133t89 -87.5t125.5 -30.5q89 0 163.5 47.5zM39 716h95l-93 -127h-77z" />
    <glyph glyph-name="Upsilontonos" unicode="&#x38e;" horiz-adv-x="659" 
d="M316 331l-174 385h96l130 -300h4l233 300h102l-307 -385l-58 -331h-85zM32 716h95l-93 -127h-77z" />
    <glyph glyph-name="Omegatonos" unicode="&#x38f;" horiz-adv-x="745" 
d="M32 716h95l-93 -127h-77zM-30 81h171l1 4q-61 40 -100.5 106t-39.5 152q0 104 52.5 193t145 142.5t207.5 53.5q94 0 163.5 -41.5t106 -111t36.5 -150.5q0 -111 -64 -199t-175 -145l-1 -4h165l-13 -81h-276l22 119q69 17 127.5 62.5t93 108.5t34.5 131t-29 120t-82 81
t-122 29q-83 0 -153 -40.5t-110.5 -109t-40.5 -149.5q0 -90 46 -149.5t118 -83.5l-22 -119h-274z" />
    <glyph glyph-name="iotadieresistonos" unicode="&#x390;" horiz-adv-x="225" 
d="M93 496h84l-87 -496h-85zM147 732h60l-25 -144h-60zM16 625q-15 15 -15 34q0 21 14.5 35t34.5 14q21 0 35 -14t14 -35q0 -20 -14 -34.5t-35 -14.5q-19 0 -34 15zM244 625q-15 15 -15 34q0 21 15 35t35 14q21 0 35 -14t14 -35q0 -20 -14 -34.5t-35 -14.5q-20 0 -35 15z
" />
    <glyph glyph-name="Alpha" unicode="&#x391;" horiz-adv-x="668" 
d="M348 716h96l145 -716h-90l-36 197h-309l-108 -197h-96zM447 277l-50 258l-14 77h-4l-183 -335h251z" />
    <glyph glyph-name="Beta" unicode="&#x392;" horiz-adv-x="604" 
d="M142 716h244q57 0 99 -23.5t64.5 -63t22.5 -86.5q0 -63 -36.5 -107.5t-90.5 -63.5l-1 -4q96 -49 96 -150q0 -60 -33.5 -110t-91.5 -79t-129 -29h-271zM343 406q62 0 103 33.5t41 90.5q0 45 -28.5 75t-79.5 30h-167l-41 -229h172zM304 81q37 0 71.5 16t56 46.5t21.5 72.5
q0 50 -32.5 80t-87.5 30h-176l-43 -245h190z" />
    <glyph glyph-name="Gamma" unicode="&#x393;" horiz-adv-x="504" 
d="M142 716h398l-15 -81h-313l-113 -635h-84z" />
    <glyph glyph-name="uni0394" unicode="&#x394;" horiz-adv-x="658" 
d="M343 716h96l140 -716h-629zM473 81l-95 531h-4l-284 -531h383z" />
    <glyph glyph-name="Epsilon" unicode="&#x395;" horiz-adv-x="550" 
d="M142 716h414l-15 -81h-329l-42 -237h297l-13 -80h-298l-42 -237h330l-15 -81h-414z" />
    <glyph glyph-name="Zeta" unicode="&#x396;" horiz-adv-x="570" 
d="M-11 89l480 546h-368l15 81h467l-16 -89l-480 -546h388l-15 -81h-486z" />
    <glyph glyph-name="Eta" unicode="&#x397;" horiz-adv-x="697" 
d="M142 716h84l-55 -310h369l56 310h84l-127 -716h-84l57 326h-369l-58 -326h-84z" />
    <glyph glyph-name="Theta" unicode="&#x398;" horiz-adv-x="836" 
d="M197.5 25.5q-74.5 41.5 -117.5 115.5t-43 168q0 110 54 207.5t150.5 156.5t218.5 59q90 0 164 -41.5t117 -115.5t43 -168q0 -110 -53.5 -207.5t-150 -156.5t-217.5 -59q-91 0 -165.5 41.5zM534.5 112.5q74.5 47.5 118 125t43.5 162.5q0 76 -32.5 133t-88.5 87.5
t-125 30.5q-89 0 -164 -47.5t-118.5 -125t-43.5 -162.5q0 -76 32.5 -133t89 -87.5t125.5 -30.5q89 0 163.5 47.5zM263 398h318l-13 -80h-319z" />
    <glyph glyph-name="Iota" unicode="&#x399;" horiz-adv-x="243" 
d="M142 716h84l-127 -716h-84z" />
    <glyph glyph-name="Kappa" unicode="&#x39a;" horiz-adv-x="613" 
d="M142 716h84l-63 -357h4l375 357h114l-1 -4l-390 -367l275 -341l-1 -4h-108l-268 337h-4l-60 -337h-84z" />
    <glyph glyph-name="Lambda" unicode="&#x39b;" horiz-adv-x="649" 
d="M339 716h96l135 -716h-90l-94 543l-12 69h-4l-36 -69l-287 -543h-97z" />
    <glyph glyph-name="Mu" unicode="&#x39c;" horiz-adv-x="865" 
d="M142 716h119l126 -587h4l331 587h126l-127 -716h-84l80 455l29 136h-4l-335 -591h-71l-132 591h-4l-21 -136l-80 -455h-84z" />
    <glyph glyph-name="Nu" unicode="&#x39d;" horiz-adv-x="706" 
d="M142 716h97l265 -570h4l21 138l76 432h85l-127 -716h-81l-277 597h-4l-20 -138l-82 -459h-84z" />
    <glyph glyph-name="Xi" unicode="&#x39e;" horiz-adv-x="494" 
d="M94 716h431l-15 -81h-430zM70 398h366l-14 -80h-366zM-17 81h429l-14 -81h-430z" />
    <glyph glyph-name="Omicron" unicode="&#x39f;" horiz-adv-x="822" 
d="M197.5 25.5q-74.5 41.5 -117.5 115.5t-43 168q0 110 54 207.5t150.5 156.5t218.5 59q90 0 164 -41.5t117 -115.5t43 -168q0 -110 -53.5 -207.5t-150 -156.5t-217.5 -59q-91 0 -165.5 41.5zM534.5 112.5q74.5 47.5 118 125t43.5 162.5q0 76 -32.5 133t-88.5 87.5
t-125 30.5q-89 0 -164 -47.5t-118.5 -125t-43.5 -162.5q0 -76 32.5 -133t89 -87.5t125.5 -30.5q89 0 163.5 47.5z" />
    <glyph glyph-name="Pi" unicode="&#x3a0;" horiz-adv-x="673" 
d="M142 716h514l-127 -716h-84l112 635h-345l-113 -635h-84z" />
    <glyph glyph-name="Rho" unicode="&#x3a1;" horiz-adv-x="574" 
d="M142 716h235q56 0 100 -23.5t69 -65.5t25 -96q0 -73 -34 -127.5t-93.5 -83t-135.5 -28.5h-156l-53 -292h-84zM323 373q71 0 116 37.5t45 109.5q0 53 -32.5 84t-81.5 31h-158l-47 -262h158z" />
    <glyph glyph-name="Sigma" unicode="&#x3a3;" horiz-adv-x="509" 
d="M367 366l-269 -285h331l-15 -81h-430l15 88l265 283l-170 257l16 88h431l-15 -81h-338z" />
    <glyph glyph-name="Tau" unicode="&#x3a4;" horiz-adv-x="538" 
d="M275 635h-201l14 81h487l-15 -81h-201l-112 -635h-85z" />
    <glyph glyph-name="Upsilon" unicode="&#x3a5;" horiz-adv-x="594" 
d="M251 331l-174 385h96l130 -300h4l233 300h102l-307 -385l-58 -331h-85z" />
    <glyph glyph-name="Phi" unicode="&#x3a6;" horiz-adv-x="796" 
d="M301 58q-120 11 -191.5 83t-71.5 185q0 92 48 165t132.5 117t189.5 50l10 58h85l-11 -59q122 -13 193.5 -85.5t71.5 -186.5q0 -91 -48 -163t-132 -115t-191 -50l-10 -57h-85zM394 578q-74 -7 -135 -39t-97.5 -84.5t-36.5 -119.5q0 -86 49.5 -137t140.5 -61zM536.5 175
q61.5 31 97.5 84t36 120q0 86 -50 138t-142 61l-78 -441q75 7 136.5 38z" />
    <glyph glyph-name="Chi" unicode="&#x3a7;" horiz-adv-x="630" 
d="M267 375l-169 341h100l130 -277h4l228 277h105l-290 -348l182 -368h-100l-146 299h-4l-249 -299h-100z" />
    <glyph glyph-name="Psi" unicode="&#x3a8;" horiz-adv-x="745" 
d="M180.5 183q-49.5 27 -78 79.5t-28.5 124.5q0 34 6 71l46 258h85l-49 -270q-6 -31 -6 -60q0 -72 40 -110.5t112 -38.5l85 479h84l-85 -479q88 0 145.5 55.5t72.5 147.5l50 276h84l-52 -290q-15 -84 -59.5 -145t-110.5 -93t-144 -32l-28 -156h-84l27 156q-63 0 -112.5 27z
" />
    <glyph glyph-name="uni03A9" unicode="&#x3a9;" horiz-adv-x="800" 
d="M14 81h171l1 4q-61 40 -100.5 106t-39.5 152q0 104 52.5 193t145 142.5t207.5 53.5q94 0 163.5 -41.5t106 -111t36.5 -150.5q0 -111 -64 -199t-175 -145l-1 -4h165l-13 -81h-276l22 119q69 17 127.5 62.5t93 108.5t34.5 131t-29 120t-82 81t-122 29q-83 0 -153 -40.5
t-110.5 -109t-40.5 -149.5q0 -90 46 -149.5t118 -83.5l-22 -119h-274z" />
    <glyph glyph-name="Iotadieresis" unicode="&#x3aa;" horiz-adv-x="243" 
d="M92 820q-15 15 -15 34q0 21 15 35.5t35 14.5q21 0 35 -14t14 -36q0 -20 -14 -34.5t-35 -14.5q-20 0 -35 15zM240 820q-15 15 -15 34q0 21 15 35.5t34 14.5q22 0 36 -14t14 -36q0 -20 -14.5 -34.5t-35.5 -14.5q-19 0 -34 15zM141 716h84l-127 -716h-84z" />
    <glyph glyph-name="Upsilondieresis" unicode="&#x3ab;" horiz-adv-x="594" 
d="M251 331l-174 385h96l130 -300h4l233 300h102l-307 -385l-58 -331h-85zM248.5 805.5q-16.5 16.5 -16.5 37.5q0 23 16 38.5t38 15.5q23 0 38.5 -15.5t15.5 -38.5q0 -22 -15.5 -38t-38.5 -16q-21 0 -37.5 16.5zM413 805.5q-16 16.5 -16 37.5q0 23 16 38.5t37 15.5
q23 0 38.5 -15.5t15.5 -38.5q0 -22 -15.5 -38t-38.5 -16q-21 0 -37 16.5z" />
    <glyph glyph-name="alphatonos" unicode="&#x3ac;" horiz-adv-x="586" 
d="M109.5 12q-46.5 28 -73 80t-26.5 121q0 78 37.5 147t103 110.5t146.5 41.5q54 0 95.5 -25.5t62.5 -64.5h4l14 74h80l-88 -496h-80l13 73h-4q-29 -40 -73.5 -64.5t-105.5 -24.5q-59 0 -105.5 28zM336.5 91.5q44.5 30.5 70 81.5t25.5 109q0 72 -39.5 112.5t-101.5 40.5
q-54 0 -99 -29t-70.5 -78.5t-25.5 -108.5q0 -74 38 -116t104 -42q54 0 98.5 30.5zM353 722h95l-94 -127h-75z" />
    <glyph glyph-name="epsilontonos" unicode="&#x3ad;" horiz-adv-x="491" 
d="M94 2q-42 18 -64.5 49.5t-22.5 71.5q0 49 30 82.5t81 48.5v5q-22 14 -37.5 38.5t-15.5 59.5q0 46 27 81t74.5 54.5t106.5 19.5q54 0 95.5 -21t73.5 -64l-65 -51q-41 59 -110 59q-47 0 -82 -21t-35 -59q0 -32 22 -50t60 -18h69l-12 -69h-84q-44 0 -77 -23t-33 -60
q0 -33 27.5 -53.5t75.5 -20.5q45 0 78.5 16t72.5 52l55 -54q-48 -47 -98 -69t-115 -22q-55 0 -97 18zM325 722h95l-94 -127h-75z" />
    <glyph glyph-name="etatonos" unicode="&#x3ae;" horiz-adv-x="554" 
d="M400 298q5 28 5 44q0 45 -28 69t-77 24q-62 0 -109 -46t-59 -115l-49 -274h-84l87 496h81l-14 -74h4q27 40 72 65t102 25q72 0 115.5 -41.5t43.5 -109.5q0 -34 -7 -70l-89 -507h-85zM369 722h95l-94 -127h-75z" />
    <glyph glyph-name="iotatonos" unicode="&#x3af;" horiz-adv-x="225" 
d="M93 496h84l-87 -496h-85zM188 722h95l-94 -127h-75z" />
    <glyph glyph-name="upsilondieresistonos" unicode="&#x3b0;" horiz-adv-x="551" 
d="M83.5 36q-51.5 52 -51.5 140q0 31 5 57l46 263h85l-48 -266q-4 -23 -4 -46q1 -59 32 -91t83 -32q88 0 136.5 63.5t48.5 164.5q0 103 -45 207h90q41 -96 41 -200q0 -90 -33 -160.5t-97 -111t-154 -40.5q-83 0 -134.5 52zM281 732h60l-25 -144h-60zM150 625q-15 15 -15 34
q0 21 14.5 35t34.5 14q21 0 35 -14t14 -35q0 -20 -14 -34.5t-35 -14.5q-19 0 -34 15zM378 625q-15 15 -15 34q0 21 15 35t35 14q21 0 35 -14t14 -35q0 -20 -14 -34.5t-35 -14.5q-20 0 -35 15z" />
    <glyph glyph-name="alpha" unicode="&#x3b1;" horiz-adv-x="586" 
d="M109.5 12q-46.5 28 -73 80t-26.5 121q0 78 37.5 147t103 110.5t146.5 41.5q54 0 95.5 -25.5t62.5 -64.5h4l14 74h80l-88 -496h-80l13 73h-4q-29 -40 -73.5 -64.5t-105.5 -24.5q-59 0 -105.5 28zM336.5 91.5q44.5 30.5 70 81.5t25.5 109q0 72 -39.5 112.5t-101.5 40.5
q-54 0 -99 -29t-70.5 -78.5t-25.5 -108.5q0 -74 38 -116t104 -42q54 0 98.5 30.5z" />
    <glyph glyph-name="beta" unicode="&#x3b2;" horiz-adv-x="569" 
d="M104 516q18 99 77 157.5t161 58.5q55 0 98.5 -22.5t67.5 -61.5t24 -86q0 -64 -33 -108.5t-86 -65.5l-1 -4q42 -22 67.5 -62t25.5 -97q0 -69 -33.5 -124t-91 -86t-126.5 -31q-44 0 -84.5 20t-60.5 53h-4l-8 -71l-36 -202h-85zM336.5 84q36.5 19 59 54t22.5 80
q0 57 -38 91.5t-99 34.5h-33l14 78h31q39 0 74 15.5t56.5 44t21.5 64.5q0 48 -32 76.5t-82 28.5q-54 0 -92 -37t-49 -98l-52 -297q-3 -19 -3 -36q0 -55 34 -86.5t93 -31.5q38 0 74.5 19z" />
    <glyph glyph-name="gamma" unicode="&#x3b3;" horiz-adv-x="536" 
d="M170 7l-131 489h90l97 -399h2l240 399h93l-306 -487l-40 -225h-85z" />
    <glyph glyph-name="delta" unicode="&#x3b4;" horiz-adv-x="575" 
d="M119 14q-50 30 -79 83.5t-29 119.5q0 71 30 134.5t91 105.5t149 50h6l-157 144l12 65h402l-14 -77h-275l177 -158q50 -43 72.5 -92t22.5 -110q0 -82 -36.5 -149t-104 -106.5t-156.5 -39.5q-61 0 -111 30zM342.5 87q45.5 26 72 74t26.5 112q0 46 -19.5 83.5t-53.5 58.5
t-77 21q-55 0 -99.5 -28t-70 -77.5t-25.5 -109.5q0 -47 19.5 -83.5t52.5 -56.5t74 -20q55 0 100.5 26z" />
    <glyph glyph-name="epsilon" unicode="&#x3b5;" horiz-adv-x="491" 
d="M94 2q-42 18 -64.5 49.5t-22.5 71.5q0 49 30 82.5t81 48.5v5q-22 14 -37.5 38.5t-15.5 59.5q0 46 27 81t74.5 54.5t106.5 19.5q54 0 95.5 -21t73.5 -64l-65 -51q-41 59 -110 59q-47 0 -82 -21t-35 -59q0 -32 22 -50t60 -18h69l-12 -69h-84q-44 0 -77 -23t-33 -60
q0 -33 27.5 -53.5t75.5 -20.5q45 0 78.5 16t72.5 52l55 -54q-48 -47 -98 -69t-115 -22q-55 0 -97 18z" />
    <glyph glyph-name="zeta" unicode="&#x3b6;" horiz-adv-x="484" 
d="M256 -91q28 0 46.5 13t18.5 36q0 42 -55 42h-121q-65 0 -101.5 35t-36.5 89q0 46 24 80t69 63l237 152h-262l14 77h385l-14 -75q-48 -32 -157 -104q-110 -73 -167 -111q-45 -31 -45 -70q0 -27 19 -43t50 -16h111q64 0 97.5 -29t33.5 -82q0 -61 -42.5 -97.5t-116.5 -36.5z
" />
    <glyph glyph-name="eta" unicode="&#x3b7;" horiz-adv-x="554" 
d="M400 298q5 28 5 44q0 45 -28 69t-77 24q-62 0 -109 -46t-59 -115l-49 -274h-84l87 496h81l-14 -74h4q27 40 72 65t102 25q72 0 115.5 -41.5t43.5 -109.5q0 -34 -7 -70l-89 -507h-85z" />
    <glyph glyph-name="theta" unicode="&#x3b8;" horiz-adv-x="664" 
d="M147 19.5q-51 35.5 -78.5 101.5t-27.5 155q0 110 43.5 208t120.5 157t173 59q69 0 120 -35.5t78.5 -101.5t27.5 -155q0 -111 -43.5 -208.5t-120.5 -156.5t-173 -59q-69 0 -120 35.5zM517 393v6q-2 103 -41.5 161.5t-108.5 58.5q-50 0 -96 -29.5t-80.5 -81t-50.5 -115.5
h377zM382 100q49 35 83.5 94.5t46.5 132.5h-382q-1 -15 -1 -35q0 -106 39.5 -166.5t109.5 -60.5q55 0 104 35z" />
    <glyph glyph-name="iota" unicode="&#x3b9;" horiz-adv-x="225" 
d="M93 496h84l-87 -496h-85z" />
    <glyph glyph-name="kappa" unicode="&#x3ba;" horiz-adv-x="480" 
d="M86 496h85l-40 -224h4l245 224h111l-1 -4l-264 -235l188 -253l-1 -4h-101l-181 250h-4l-45 -250h-83z" />
    <glyph glyph-name="lambda" unicode="&#x3bb;" horiz-adv-x="498" 
d="M233 459l-68 247h88l181 -706h-88l-85 356h-2l-213 -356h-95z" />
    <glyph glyph-name="uni03BC" unicode="&#x3bc;" horiz-adv-x="554" 
d="M83 496h85l-54 -301q-4 -21 -4 -41q0 -46 28 -69.5t77 -23.5q62 0 109 46.5t59 114.5l48 274h85l-87 -496h-81l13 74h-4q-27 -40 -72 -65t-102 -25q-30 0 -56.5 12.5t-40.5 32.5h-4l-6 -60l-34 -185h-84z" />
    <glyph glyph-name="nu" unicode="&#x3bd;" horiz-adv-x="502" 
d="M30 496h90l82 -396h2l224 396h92l-291 -496h-86z" />
    <glyph glyph-name="xi" unicode="&#x3be;" horiz-adv-x="525" 
d="M282 -91q25 0 44.5 14t19.5 37q0 40 -48 40h-83q-64 0 -112 23.5t-74.5 64t-26.5 91.5q0 142 157 204l1 4q-76 51 -76 138q0 55 31 102.5t88 76t131 28.5q63 0 111.5 -27.5t78.5 -78.5l-73 -48q-22 38 -52 55.5t-75 17.5q-65 0 -109 -34.5t-44 -93.5q0 -49 35.5 -78.5
t90.5 -29.5h88l-14 -79h-108q-77 0 -125 -39.5t-48 -100.5q0 -55 38 -85t96 -30h68q68 0 102 -28.5t34 -80.5q0 -62 -45 -100t-115 -40z" />
    <glyph glyph-name="omicron" unicode="&#x3bf;" horiz-adv-x="574" 
d="M121.5 15.5q-52.5 31.5 -81.5 85.5t-29 119q0 81 37.5 148t105 105.5t151.5 38.5q66 0 118.5 -31.5t81.5 -85.5t29 -119q0 -81 -37.5 -147.5t-104.5 -105.5t-152 -39q-66 0 -118.5 31.5zM353 90q45 29 70 77t25 104q0 47 -20 84.5t-55 58.5t-77 21q-58 0 -103.5 -29
t-70.5 -77t-25 -104q0 -47 20 -84.5t55 -58.5t77 -21q59 0 104 29z" />
    <glyph glyph-name="pi" unicode="&#x3c0;" horiz-adv-x="694" 
d="M446 21q-33 29 -33 81q0 21 5 49l47 268h-225l-74 -419h-84l73 419h-120l14 77h634l-13 -77h-121l-45 -259q-4 -24 -4 -35q0 -24 12.5 -40t38.5 -16q29 0 56 13l-14 -82q-30 -8 -63 -8q-51 0 -84 29z" />
    <glyph glyph-name="rho" unicode="&#x3c1;" horiz-adv-x="589" 
d="M52 253q20 116 96 187.5t193 71.5q61 0 108.5 -28t74.5 -79.5t27 -121.5q0 -77 -37.5 -146t-103 -111t-146.5 -42q-56 0 -99 26t-60 64h-4l-8 -69l-39 -221h-84zM369 90.5q44 29.5 69.5 79t25.5 107.5q0 73 -37.5 115t-99.5 42q-55 0 -100.5 -30.5t-71.5 -81.5t-26 -111
q0 -70 39.5 -110t102.5 -40q54 0 98 29.5z" />
    <glyph glyph-name="uni03C2" unicode="&#x3c2;" horiz-adv-x="528" 
d="M128 12.5q-56 28.5 -86.5 81t-30.5 122.5q0 83 38 150.5t104.5 106.5t149.5 39t133.5 -40.5t66.5 -100.5l-80 -31q-29 95 -129 95q-56 0 -100.5 -28.5t-70 -77t-25.5 -106.5q0 -73 41.5 -117.5t123.5 -44.5h29q64 0 100 -28.5t36 -79.5q0 -62 -44 -99t-115 -38l14 77
q28 0 46 13.5t18 37.5q0 18 -13 29t-40 11h-36q-74 0 -130 28.5z" />
    <glyph glyph-name="sigma" unicode="&#x3c3;" horiz-adv-x="602" 
d="M116 12q-50 28 -78 79t-28 116q0 76 35 142.5t100.5 106.5t154.5 40h312l-14 -77h-69l-71 4l-1 -4q24 -24 39.5 -62.5t15.5 -87.5q0 -81 -37 -146t-102 -102t-144 -37q-63 0 -113 28zM334 87.5q43 26.5 67.5 72t24.5 101.5q0 71 -38.5 114.5t-97.5 43.5q-56 0 -100 -28
t-68.5 -75t-24.5 -103q0 -71 39.5 -111.5t102.5 -40.5q52 0 95 26.5z" />
    <glyph glyph-name="tau" unicode="&#x3c4;" horiz-adv-x="460" 
d="M198 419h-161l14 77h405l-13 -77h-161l-74 -419h-85z" />
    <glyph glyph-name="upsilon" unicode="&#x3c5;" horiz-adv-x="551" 
d="M83.5 36q-51.5 52 -51.5 140q0 31 5 57l46 263h85l-48 -266q-4 -23 -4 -46q1 -59 32 -91t83 -32q88 0 136.5 63.5t48.5 164.5q0 103 -45 207h90q41 -96 41 -200q0 -90 -33 -160.5t-97 -111t-154 -40.5q-83 0 -134.5 52z" />
    <glyph glyph-name="phi" unicode="&#x3c6;" horiz-adv-x="730" 
d="M263 -13q-67 8 -119 39.5t-80.5 81t-28.5 111.5q0 101 61.5 175.5t167.5 117.5l23 -75q-76 -31 -120 -84t-44 -128q0 -67 43 -109t110 -52l53 301q12 68 55.5 107.5t112.5 39.5q52 0 92 -28.5t62.5 -78.5t22.5 -113q0 -85 -41 -152t-115 -107t-171 -47l-35 -202h-85z
M525 133q62 59 62 158q0 61 -27 101t-71 40q-28 0 -48.5 -16.5t-25.5 -47.5l-54 -305q102 11 164 70z" />
    <glyph glyph-name="chi" unicode="&#x3c7;" horiz-adv-x="476" 
d="M165 255l-126 241h96l91 -180h1l151 180h104l-216 -246l132 -250h-96l-95 190h-1l-158 -190h-102z" />
    <glyph glyph-name="psi" unicode="&#x3c8;" horiz-adv-x="696" 
d="M241 -16h-2q-62 0 -110.5 24.5t-76 69.5t-27.5 103q0 22 5 52l46 263h85l-47 -264q-4 -22 -4 -41q0 -64 41.5 -97t101.5 -33h2l77 435h85l-78 -435h2q72 0 121 35t73 91.5t24 121.5q0 54 -8.5 98t-26.5 89h88q32 -87 32 -188q0 -95 -40 -168.5t-111.5 -114.5t-164.5 -41
h-2l-35 -200h-85z" />
    <glyph glyph-name="omega" unicode="&#x3c9;" horiz-adv-x="789" 
d="M112.5 8q-39.5 24 -62.5 69.5t-23 107.5q0 84 34.5 160t89.5 151h96q-134 -169 -134 -301q0 -63 26.5 -98.5t72.5 -35.5q48 0 86 44.5t53 125.5l26 144h81l-26 -144q-5 -31 -5 -62q0 -50 26 -79t69 -29q51 0 85.5 33.5t51.5 86t17 108.5q0 54 -11 102.5t-33 104.5h92
q17 -52 26.5 -100.5t9.5 -107.5q0 -71 -28 -141.5t-84.5 -116.5t-138.5 -46q-50 0 -87 25t-53 71q-62 -96 -170 -96q-47 0 -86.5 24z" />
    <glyph glyph-name="iotadieresis" unicode="&#x3ca;" horiz-adv-x="225" 
d="M53 627.5q-16 16.5 -16 37.5q0 23 16 38.5t38 15.5q23 0 38 -15.5t15 -38.5q0 -22 -15 -38t-38 -16q-22 0 -38 16.5zM186 627.5q-16 16.5 -16 37.5q0 23 16 38.5t37 15.5q23 0 38.5 -15.5t15.5 -38.5q0 -22 -15.5 -38t-38.5 -16q-21 0 -37 16.5zM93 496h84l-87 -496h-85z
" />
    <glyph glyph-name="upsilondieresis" unicode="&#x3cb;" horiz-adv-x="551" 
d="M83.5 36q-51.5 52 -51.5 140q0 31 5 57l46 263h85l-48 -266q-4 -23 -4 -46q1 -59 32 -91t83 -32q88 0 136.5 63.5t48.5 164.5q0 103 -45 207h90q41 -96 41 -200q0 -90 -33 -160.5t-97 -111t-154 -40.5q-83 0 -134.5 52zM179.5 627.5q-16.5 16.5 -16.5 37.5q0 23 16 38.5
t38 15.5q23 0 38.5 -15.5t15.5 -38.5q0 -22 -15.5 -38t-38.5 -16q-21 0 -37.5 16.5zM344 627.5q-16 16.5 -16 37.5q0 23 16 38.5t37 15.5q23 0 38.5 -15.5t15.5 -38.5q0 -22 -15.5 -38t-38.5 -16q-21 0 -37 16.5z" />
    <glyph glyph-name="omicrontonos" unicode="&#x3cc;" horiz-adv-x="574" 
d="M121.5 15.5q-52.5 31.5 -81.5 85.5t-29 119q0 81 37.5 148t105 105.5t151.5 38.5q66 0 118.5 -31.5t81.5 -85.5t29 -119q0 -81 -37.5 -147.5t-104.5 -105.5t-152 -39q-66 0 -118.5 31.5zM353 90q45 29 70 77t25 104q0 47 -20 84.5t-55 58.5t-77 21q-58 0 -103.5 -29
t-70.5 -77t-25 -104q0 -47 20 -84.5t55 -58.5t77 -21q59 0 104 29zM358 722h95l-94 -127h-75z" />
    <glyph glyph-name="upsilontonos" unicode="&#x3cd;" horiz-adv-x="551" 
d="M83.5 36q-51.5 52 -51.5 140q0 31 5 57l46 263h85l-48 -266q-4 -23 -4 -46q1 -59 32 -91t83 -32q88 0 136.5 63.5t48.5 164.5q0 103 -45 207h90q41 -96 41 -200q0 -90 -33 -160.5t-97 -111t-154 -40.5q-83 0 -134.5 52zM322 722h95l-94 -127h-75z" />
    <glyph glyph-name="omegatonos" unicode="&#x3ce;" horiz-adv-x="789" 
d="M112.5 8q-39.5 24 -62.5 69.5t-23 107.5q0 84 34.5 160t89.5 151h96q-134 -169 -134 -301q0 -63 26.5 -98.5t72.5 -35.5q48 0 86 44.5t53 125.5l26 144h81l-26 -144q-5 -31 -5 -62q0 -50 26 -79t69 -29q51 0 85.5 33.5t51.5 86t17 108.5q0 54 -11 102.5t-33 104.5h92
q17 -52 26.5 -100.5t9.5 -107.5q0 -71 -28 -141.5t-84.5 -116.5t-138.5 -46q-50 0 -87 25t-53 71q-62 -96 -170 -96q-47 0 -86.5 24zM491 722h95l-94 -127h-75z" />
    <glyph glyph-name="uni03D1" unicode="&#x3d1;" horiz-adv-x="622" 
d="M77 34.5q-53 50.5 -53 136.5q0 26 5 56l48 269h84l-47 -262q-5 -30 -5 -51q0 -60 31.5 -91t85.5 -31q70 0 114 43t59 125l9 53q-52 11 -93 44t-64.5 83.5t-23.5 112.5q0 58 22.5 106t65 76t99.5 28q66 0 98.5 -36t32.5 -97q0 -25 -5 -51l-34 -190h90l-13 -77h-91l-11 -69
q-12 -66 -48.5 -118t-93 -81t-125.5 -29q-84 0 -137 50.5zM458 567q2 16 2 26q0 26 -15 43t-44 17q-41 0 -65.5 -37.5t-24.5 -87.5q0 -60 30 -106t81 -61z" />
    <glyph glyph-name="uni03D2" unicode="&#x3d2;" horiz-adv-x="594" 
d="M245 315l-84 264q-11 35 -23 49t-31 14q-18 0 -32 -9l-25 74q14 6 35 11.5t41 5.5q77 0 105 -94l68 -230h4l144 225q37 59 67.5 79t71.5 20q36 0 67 -19l-38 -72q-15 9 -30 9q-20 0 -37.5 -14t-41.5 -49l-177 -264l-55 -315h-85z" />
    <glyph glyph-name="uni03D3" unicode="&#x3d3;" horiz-adv-x="671" 
d="M322 315l-84 264q-11 35 -23 49t-31 14q-18 0 -32 -9l-25 74q14 6 35 11.5t41 5.5q77 0 105 -94l68 -230h4l144 225q37 59 67.5 79t71.5 20q36 0 67 -19l-38 -72q-15 9 -30 9q-20 0 -37.5 -14t-41.5 -49l-177 -264l-55 -315h-85zM15 716h95l-93 -127h-77z" />
    <glyph glyph-name="uni03D4" unicode="&#x3d4;" horiz-adv-x="594" 
d="M245 315l-84 264q-11 35 -23 49t-31 14q-18 0 -32 -9l-25 74q14 6 35 11.5t41 5.5q77 0 105 -94l68 -230h4l144 225q37 59 67.5 79t71.5 20q36 0 67 -19l-38 -72q-15 9 -30 9q-20 0 -37.5 -14t-41.5 -49l-177 -264l-55 -315h-85zM239.5 805.5q-16.5 16.5 -16.5 37.5
q0 23 16 38.5t38 15.5q23 0 38.5 -15.5t15.5 -38.5q0 -22 -15.5 -38t-38.5 -16q-21 0 -37.5 16.5zM404 805.5q-16 16.5 -16 37.5q0 23 16 38.5t37 15.5q23 0 38.5 -15.5t15.5 -38.5q0 -22 -15.5 -38t-38.5 -16q-21 0 -37 16.5z" />
    <glyph glyph-name="uni03D6" unicode="&#x3d6;" horiz-adv-x="886" 
d="M141.5 7q-39.5 23 -62.5 67.5t-23 105.5q0 63 19.5 120.5t55.5 118.5h-80l13 77h805l-14 -77h-85q17 -68 17 -139q0 -73 -29.5 -141t-86 -111.5t-133.5 -43.5q-49 0 -86 25t-55 72q-30 -47 -73 -72t-95 -25q-48 0 -87.5 23zM326.5 105.5q39.5 44.5 53.5 124.5l16 90h81
l-16 -90q-5 -22 -5 -56q0 -55 23.5 -84t62.5 -29q53 0 89 32.5t53 83t17 104.5q0 67 -23 138h-451q-86 -127 -86 -235q0 -58 26 -90.5t71 -32.5q49 0 88.5 44.5z" />
    <glyph glyph-name="uni0400" unicode="&#x400;" horiz-adv-x="550" 
d="M142 716h414l-15 -81h-329l-42 -237h297l-13 -80h-298l-42 -237h330l-15 -81h-414zM276 900h91l29 -127h-72z" />
    <glyph glyph-name="uni0401" unicode="&#x401;" horiz-adv-x="550" 
d="M142 716h414l-15 -81h-329l-42 -237h297l-13 -80h-298l-42 -237h330l-15 -81h-414zM256.5 805.5q-16.5 16.5 -16.5 37.5q0 23 16 38.5t38 15.5q23 0 38.5 -15.5t15.5 -38.5q0 -22 -15.5 -38t-38.5 -16q-21 0 -37.5 16.5zM421 805.5q-16 16.5 -16 37.5q0 23 16 38.5
t37 15.5q23 0 38.5 -15.5t15.5 -38.5q0 -22 -15.5 -38t-38.5 -16q-21 0 -37 16.5z" />
    <glyph glyph-name="uni0402" unicode="&#x402;" horiz-adv-x="746" 
d="M263 635h-191l14 81h471l-15 -81h-194l-35 -200l-17 -70h4q35 34 82.5 53.5t106.5 19.5q56 0 102 -23.5t73 -68.5t27 -108t-31 -118t-87.5 -87.5t-128.5 -32.5h-31l15 81h22q67 0 110 43t43 110q0 56 -36 90t-99 34q-52 0 -100.5 -22t-83.5 -61l-49 -275h-84z" />
    <glyph glyph-name="uni0403" unicode="&#x403;" horiz-adv-x="504" 
d="M142 716h398l-15 -81h-313l-113 -635h-84zM388 900h95l-93 -127h-77z" />
    <glyph glyph-name="uni0404" unicode="&#x404;" horiz-adv-x="723" 
d="M182.5 25.5q-70.5 41.5 -111.5 118.5t-41 178q0 107 55.5 201.5t154 151.5t221.5 57q81 0 141 -28t108 -89l-67 -59q-69 95 -196 95q-76 0 -144 -32t-116 -89.5t-65 -131.5h342l-14 -80h-337v-3q1 -74 32.5 -131t86 -88t121.5 -31q72 0 128 26t111 80l53 -59
q-66 -65 -138 -96.5t-167 -31.5q-87 0 -157.5 41.5z" />
    <glyph glyph-name="uni0405" unicode="&#x405;" horiz-adv-x="560" 
d="M77 35.5q-62 51.5 -76 142.5l82 33q8 -65 47.5 -105.5t106.5 -40.5q42 0 79.5 17.5t61 49.5t23.5 74q0 45 -30.5 74.5t-99.5 54.5l-43 16q-63 24 -103 67t-40 111q0 58 32.5 104t87.5 72.5t119 26.5q65 0 109.5 -23.5t68 -57.5t28.5 -67l-81 -30q-7 38 -38 67.5t-93 29.5
q-61 0 -103 -31.5t-42 -83.5q0 -41 28 -68t84 -48l43 -16q161 -61 161 -186q0 -70 -34.5 -123t-94 -82t-132.5 -29q-89 0 -151 51.5z" />
    <glyph glyph-name="uni0406" unicode="&#x406;" horiz-adv-x="243" 
d="M142 716h84l-127 -716h-84z" />
    <glyph glyph-name="uni0407" unicode="&#x407;" horiz-adv-x="232" 
d="M88 822q-15 15 -15 34q0 21 14.5 35t34.5 14q21 0 35 -14t14 -35q0 -20 -14 -34.5t-35 -14.5q-19 0 -34 15zM238 822q-15 15 -15 34q0 21 14.5 35t34.5 14q22 0 36 -14t14 -35q0 -20 -14.5 -34.5t-35.5 -14.5q-19 0 -34 15zM141 716h84l-127 -716h-84z" />
    <glyph glyph-name="uni0408" unicode="&#x408;" horiz-adv-x="529" 
d="M55 29q-53 45 -62 121l82 32q6 -62 39 -89.5t84 -27.5q59 0 102.5 42t54.5 107l88 502h84l-87 -496q-20 -117 -88 -176.5t-165 -59.5q-79 0 -132 45z" />
    <glyph glyph-name="uni0409" unicode="&#x409;" horiz-adv-x="1061" 
d="M-40 -5l15 83q11 -5 31 -5q39 0 69 25q24 20 39.5 64.5t28.5 124.5l75 429h475l-54 -306h174q86 0 138.5 -48.5t52.5 -135.5q0 -67 -32.5 -118t-91 -79.5t-132.5 -28.5h-266l112 635h-305l-64 -362q-18 -97 -43 -153.5t-62 -87.5q-27 -22 -56.5 -31t-70.5 -9q-18 0 -33 3
zM767 81q65 0 107.5 39t42.5 99q0 51 -31.5 81t-83.5 30h-178l-43 -249h186z" />
    <glyph glyph-name="uni040A" unicode="&#x40a;" horiz-adv-x="1001" 
d="M135 716h84l-54 -306h329l55 306h84l-54 -306h174q86 0 139 -48.5t53 -135.5q0 -67 -32.5 -118t-91 -79.5t-132.5 -28.5h-267l58 330h-329l-59 -330h-84zM707 81q65 0 107.5 39t42.5 99q0 51 -31.5 81t-83.5 30h-177l-44 -249h186z" />
    <glyph glyph-name="uni040B" unicode="&#x40b;" horiz-adv-x="741" 
d="M263 635h-191l14 81h471l-15 -81h-194l-35 -200l-17 -70h4q80 73 185 73q83 0 133 -47.5t50 -127.5q0 -20 -5 -50l-39 -213h-86l37 210q4 19 4 38q0 49 -32 79.5t-91 30.5q-49 0 -93 -22t-79 -61l-49 -275h-84z" />
    <glyph glyph-name="uni040C" unicode="&#x40c;" horiz-adv-x="613" 
d="M142 716h84l-63 -357h4l375 357h114l-1 -4l-390 -367l275 -341l-1 -4h-108l-268 337h-4l-60 -337h-84zM420 900h95l-93 -127h-77z" />
    <glyph glyph-name="uni040D" unicode="&#x40d;" horiz-adv-x="685" 
d="M135 716h84l-76 -432l-29 -138h4l450 570h107l-127 -716h-85l82 459l28 138h-4l-470 -597h-91zM317 900h91l29 -127h-72z" />
    <glyph glyph-name="uni040E" unicode="&#x40e;" horiz-adv-x="596" 
d="M15 0l36 78q20 -13 47 -13q29 0 47.5 13.5t38.5 44.5l39 60l-147 533h92l111 -435h4l262 435h102l-395 -629q-65 -103 -158 -103q-45 0 -79 16zM283.5 801.5q-32.5 29.5 -32.5 73.5q0 7 2 21h69q-1 -5 -1 -12q0 -21 12.5 -34.5t36.5 -13.5q26 0 44.5 16t23.5 44h68
q-9 -61 -47.5 -92.5t-96.5 -31.5q-46 0 -78.5 29.5z" />
    <glyph glyph-name="uni040F" unicode="&#x40f;" horiz-adv-x="659" 
d="M238 0h-216l126 716h85l-113 -635h346l112 635h84l-126 -716h-217l-26 -152h-81z" />
    <glyph glyph-name="uni0410" unicode="&#x410;" horiz-adv-x="668" 
d="M348 716h96l145 -716h-90l-36 197h-309l-108 -197h-96zM447 277l-50 258l-14 77h-4l-183 -335h251z" />
    <glyph glyph-name="uni0411" unicode="&#x411;" horiz-adv-x="601" 
d="M141 716h412l-14 -81h-329l-39 -224h179q85 0 137.5 -49.5t52.5 -135.5q0 -66 -33 -117.5t-91 -80t-131 -28.5h-271zM304 81q64 0 106 39.5t42 99.5q0 50 -31 80t-83 30h-181l-44 -249h191z" />
    <glyph glyph-name="uni0412" unicode="&#x412;" horiz-adv-x="604" 
d="M142 716h244q57 0 99 -23.5t64.5 -63t22.5 -86.5q0 -63 -36.5 -107.5t-90.5 -63.5l-1 -4q96 -49 96 -150q0 -60 -33.5 -110t-91.5 -79t-129 -29h-271zM343 406q62 0 103 33.5t41 90.5q0 45 -28.5 75t-79.5 30h-167l-41 -229h172zM304 81q37 0 71.5 16t56 46.5t21.5 72.5
q0 50 -32.5 80t-87.5 30h-176l-43 -245h190z" />
    <glyph glyph-name="uni0413" unicode="&#x413;" horiz-adv-x="504" 
d="M142 716h398l-15 -81h-313l-113 -635h-84z" />
    <glyph glyph-name="uni0414" unicode="&#x414;" horiz-adv-x="768" 
d="M4 81h63q58 48 101.5 157.5t67.5 240.5l41 237h451l-112 -635h75l-41 -233h-80l26 152h-526l-26 -152h-80zM531 81l98 554h-283l-35 -194q-21 -121 -56 -210t-86 -150h362z" />
    <glyph glyph-name="uni0415" unicode="&#x415;" horiz-adv-x="550" 
d="M142 716h414l-15 -81h-329l-42 -237h297l-13 -80h-298l-42 -237h330l-15 -81h-414z" />
    <glyph glyph-name="uni0416" unicode="&#x416;" horiz-adv-x="887" 
d="M-58 4l362 355l-226 353l1 4h99l219 -350h4l63 350h84l-62 -350h4l339 350h107l-1 -4l-358 -366l239 -342l-1 -4h-105l-227 330h-4l-58 -330h-84l58 330h-4l-337 -330h-113z" />
    <glyph glyph-name="uni0417" unicode="&#x417;" horiz-adv-x="544" 
d="M125 4q-47 20 -82 60.5t-43 99.5l85 32q7 -60 44 -95.5t97 -35.5q44 0 81.5 19.5t60 54t22.5 78.5q0 50 -38 84t-94 34h-61l14 80h55q39 0 76 16.5t60 47.5t23 72q0 43 -33.5 71.5t-83.5 28.5q-55 0 -92 -29.5t-52 -71.5l-73 33q25 61 83.5 105t143.5 44q55 0 99.5 -22.5
t69.5 -61t25 -85.5q0 -62 -33.5 -108t-93.5 -75l-1 -4q39 -20 66 -60.5t27 -94.5q0 -68 -34.5 -122t-93.5 -84.5t-131 -30.5q-46 0 -93 20z" />
    <glyph glyph-name="uni0418" unicode="&#x418;" horiz-adv-x="685" 
d="M135 716h84l-76 -432l-29 -138h4l450 570h107l-127 -716h-85l82 459l28 138h-4l-470 -597h-91z" />
    <glyph glyph-name="uni0419" unicode="&#x419;" horiz-adv-x="685" 
d="M135 716h84l-76 -432l-29 -138h4l450 570h107l-127 -716h-85l82 459l28 138h-4l-470 -597h-91zM329.5 801.5q-32.5 29.5 -32.5 73.5q0 7 2 21h69q-1 -5 -1 -12q0 -21 12.5 -34.5t36.5 -13.5q26 0 44.5 16t23.5 44h68q-9 -61 -47.5 -92.5t-96.5 -31.5q-46 0 -78.5 29.5z
" />
    <glyph glyph-name="uni041A" unicode="&#x41a;" horiz-adv-x="613" 
d="M142 716h84l-63 -357h4l375 357h114l-1 -4l-390 -367l275 -341l-1 -4h-108l-268 337h-4l-60 -337h-84z" />
    <glyph glyph-name="uni041B" unicode="&#x41b;" horiz-adv-x="703" 
d="M-40 -5l15 83q11 -5 31 -5q39 0 69 25q24 20 39.5 64.5t28.5 124.5l75 429h475l-126 -716h-85l112 635h-305l-64 -362q-18 -97 -43 -153.5t-62 -87.5q-27 -22 -56.5 -31t-70.5 -9q-18 0 -33 3z" />
    <glyph glyph-name="uni041C" unicode="&#x41c;" horiz-adv-x="865" 
d="M142 716h119l126 -587h4l331 587h126l-127 -716h-84l80 455l29 136h-4l-335 -591h-71l-132 591h-4l-21 -136l-80 -455h-84z" />
    <glyph glyph-name="uni041D" unicode="&#x41d;" horiz-adv-x="697" 
d="M142 716h84l-55 -310h369l56 310h84l-127 -716h-84l57 326h-369l-58 -326h-84z" />
    <glyph glyph-name="uni041E" unicode="&#x41e;" horiz-adv-x="822" 
d="M197.5 25.5q-74.5 41.5 -117.5 115.5t-43 168q0 110 54 207.5t150.5 156.5t218.5 59q90 0 164 -41.5t117 -115.5t43 -168q0 -110 -53.5 -207.5t-150 -156.5t-217.5 -59q-91 0 -165.5 41.5zM534.5 112.5q74.5 47.5 118 125t43.5 162.5q0 76 -32.5 133t-88.5 87.5
t-125 30.5q-89 0 -164 -47.5t-118.5 -125t-43.5 -162.5q0 -76 32.5 -133t89 -87.5t125.5 -30.5q89 0 163.5 47.5z" />
    <glyph glyph-name="uni041F" unicode="&#x41f;" horiz-adv-x="673" 
d="M142 716h514l-127 -716h-84l112 635h-345l-113 -635h-84z" />
    <glyph glyph-name="uni0420" unicode="&#x420;" horiz-adv-x="574" 
d="M142 716h235q56 0 100 -23.5t69 -65.5t25 -96q0 -73 -34 -127.5t-93.5 -83t-135.5 -28.5h-156l-53 -292h-84zM323 373q71 0 116 37.5t45 109.5q0 53 -32.5 84t-81.5 31h-158l-47 -262h158z" />
    <glyph glyph-name="uni0421" unicode="&#x421;" horiz-adv-x="738" 
d="M188.5 24q-71.5 40 -111.5 113t-40 169q0 110 56.5 208.5t155.5 158t220 59.5q81 0 146 -33.5t99 -86.5l-68 -56q-33 49 -78 72t-108 23q-92 0 -169.5 -48t-122.5 -126.5t-45 -166.5q0 -73 31 -128.5t85.5 -86t121.5 -30.5q73 0 129 27t111 81l54 -61q-67 -66 -138.5 -97
t-165.5 -31q-91 0 -162.5 40z" />
    <glyph glyph-name="uni0422" unicode="&#x422;" horiz-adv-x="538" 
d="M275 635h-201l14 81h487l-15 -81h-201l-112 -635h-85z" />
    <glyph glyph-name="uni0423" unicode="&#x423;" horiz-adv-x="596" 
d="M15 0l36 78q20 -13 47 -13q29 0 47.5 13.5t38.5 44.5l39 60l-147 533h92l111 -435h4l262 435h102l-395 -629q-65 -103 -158 -103q-45 0 -79 16z" />
    <glyph glyph-name="uni0424" unicode="&#x424;" horiz-adv-x="799" 
d="M304 58q-82 8 -143.5 44t-95 94.5t-33.5 133.5q0 97 51 169.5t137 113t189 45.5l19 106h84l-19 -107q84 -8 145 -43.5t94 -94t33 -133.5q0 -98 -51 -170t-137 -112.5t-190 -46.5l-18 -105h-84zM395 579q-75 -6 -137.5 -36.5t-100.5 -83.5t-38 -123q0 -85 52 -137t146 -62
zM540 174q63 30 100.5 82t37.5 121q0 86 -51.5 138t-146.5 63l-78 -441q75 7 138 37z" />
    <glyph glyph-name="uni0425" unicode="&#x425;" horiz-adv-x="630" 
d="M267 375l-169 341h100l130 -277h4l228 277h105l-290 -348l182 -368h-100l-146 299h-4l-249 -299h-100z" />
    <glyph glyph-name="uni0426" unicode="&#x426;" horiz-adv-x="682" 
d="M508 0h-485l126 716h84l-111 -635h321l112 635h84l-112 -635h80l-43 -249h-85z" />
    <glyph glyph-name="uni0427" unicode="&#x427;" horiz-adv-x="583" 
d="M440 328q-39 -33 -83 -50.5t-107 -17.5q-82 0 -136.5 47t-54.5 133q0 24 5 54l39 222h86l-40 -227q-3 -21 -3 -35q0 -55 34.5 -84.5t98.5 -29.5q52 0 98 22.5t80 61.5l52 292h84l-127 -716h-84z" />
    <glyph glyph-name="uni0428" unicode="&#x428;" horiz-adv-x="894" 
d="M136 716h85l-113 -635h247l113 635h84l-112 -635h247l113 635h84l-127 -716h-748z" />
    <glyph glyph-name="uni0429" unicode="&#x429;" horiz-adv-x="941" 
d="M752 0h-743l127 716h84l-112 -635h247l113 635h84l-112 -635h247l113 635h84l-113 -635h80l-43 -249h-85z" />
    <glyph glyph-name="uni042A" unicode="&#x42a;" horiz-adv-x="738" 
d="M260 635h-188l14 81h273l-48 -265h156q99 0 158.5 -54.5t59.5 -147.5q0 -71 -35 -128t-99 -89t-147 -32h-257zM420 81q50 0 90 20t63 56.5t23 82.5q0 58 -36 94t-96 36h-166l-52 -289h174z" />
    <glyph glyph-name="uni042B" unicode="&#x42b;" horiz-adv-x="799" 
d="M135 716h84l-47 -265h155q99 0 158.5 -54.5t59.5 -147.5q0 -71 -35 -128t-98.5 -89t-146.5 -32h-257zM705 716h84l-127 -716h-84zM281 81q50 0 90 20t63 56.5t23 82.5q0 58 -36.5 94t-96.5 36h-166l-52 -289h175z" />
    <glyph glyph-name="uni042C" unicode="&#x42c;" horiz-adv-x="599" 
d="M136 716h85l-48 -265h156q99 0 158 -54.5t59 -147.5q0 -71 -35 -128t-98.5 -89t-146.5 -32h-257zM282 81q50 0 90 20t63 56.5t23 82.5q0 58 -36 94t-96 36h-167l-52 -289h175z" />
    <glyph glyph-name="uni042D" unicode="&#x42d;" horiz-adv-x="724" 
d="M110.5 23q-68.5 39 -112.5 98l67 56q81 -112 215 -112q78 0 145 34.5t112 92t61 126.5h-341l14 80h337v1q-1 80 -32 136.5t-84.5 86t-121.5 29.5q-62 0 -117 -25t-97 -71l-59 60q59 58 127.5 87.5t155.5 29.5q93 0 163.5 -40.5t109.5 -116t39 -176.5q0 -109 -53.5 -204.5
t-150 -153t-218.5 -57.5q-91 0 -159.5 39z" />
    <glyph glyph-name="uni042E" unicode="&#x42e;" horiz-adv-x="1069" 
d="M451.5 25.5q-74.5 41.5 -117 115.5t-42.5 168v17h-142l-58 -326h-84l127 716h84l-55 -310h139q20 90 77.5 164.5t144 118t189.5 43.5q91 0 165 -41.5t116.5 -115.5t42.5 -168q0 -110 -53.5 -207.5t-149.5 -156.5t-217 -59q-92 0 -166.5 41.5zM789.5 112.5
q74.5 47.5 118 125t43.5 162.5q0 76 -32.5 133t-88.5 87.5t-126 30.5q-89 0 -163.5 -47.5t-118 -125t-43.5 -162.5q0 -76 32.5 -133t88.5 -87.5t126 -30.5q89 0 163.5 47.5z" />
    <glyph glyph-name="uni042F" unicode="&#x42f;" horiz-adv-x="597" 
d="M-29 4l252 293l-1 3q-58 16 -99 65.5t-41 121.5q0 61 34.5 114t95 84t132.5 31h244l-127 -716h-85l52 292h-107l-247 -292h-104zM442 371l46 264h-156q-47 0 -84 -20t-57.5 -52.5t-20.5 -69.5q0 -57 35 -89.5t92 -32.5h145z" />
    <glyph glyph-name="uni0430" unicode="&#x430;" horiz-adv-x="521" 
d="M99 3.5q-38 19.5 -60 54t-22 78.5q0 55 30 96.5t84 64t122 22.5q76 0 142 -33l5 26q2 14 2 24q0 45 -33.5 73t-86.5 28q-80 0 -135 -68l-66 47q35 46 89.5 71t120.5 25q92 0 142 -44t50 -119q0 -20 -5 -52l-53 -297h-81l13 72h-4q-27 -40 -71 -64t-98 -24q-47 0 -85 19.5
zM283.5 79.5q38.5 20.5 65 56.5t33.5 79q-56 36 -135 36q-59 0 -100.5 -28.5t-41.5 -79.5q0 -39 28 -61.5t69 -22.5q43 0 81.5 20.5z" />
    <glyph glyph-name="uni0431" unicode="&#x431;" horiz-adv-x="594" 
d="M144 16.5q-50 32.5 -78 92.5t-28 139q0 108 38.5 208t114.5 164q44 37 99.5 57.5t119.5 20.5q38 0 58 3.5t29.5 10.5t17.5 21h84q-15 -45 -39.5 -69t-61 -33.5t-95.5 -9.5q-57 0 -93 -14t-66 -40q-30 -25 -54 -62.5t-37 -85.5h4q30 42 77 67.5t107 25.5t107.5 -29
t74.5 -81t27 -120q0 -78 -36 -146.5t-103 -110t-155 -41.5q-62 0 -112 32.5zM369 92q45 31 70 80.5t25 100.5q0 76 -39 119t-100 43q-57 0 -103 -29t-72.5 -78.5t-26.5 -107.5q0 -71 41.5 -115t103.5 -44q56 0 101 31z" />
    <glyph glyph-name="uni0432" unicode="&#x432;" horiz-adv-x="491" 
d="M81 496h222q66 0 106.5 -33.5t40.5 -86.5q0 -45 -24 -75.5t-59 -44.5l-1 -4q65 -32 65 -95q0 -44 -24.5 -80t-66 -56.5t-89.5 -20.5h-258zM284 287q34 0 57 20t23 51q0 28 -18 44.5t-51 16.5h-143l-23 -132h155zM256 77q37 0 62.5 22t25.5 59q0 26 -18 43t-48 17h-161
l-26 -141h165z" />
    <glyph glyph-name="uni0433" unicode="&#x433;" horiz-adv-x="413" 
d="M81 496h331l-14 -77h-247l-74 -419h-84z" />
    <glyph glyph-name="uni0434" unicode="&#x434;" horiz-adv-x="636" 
d="M0 77h54q28 23 56 90.5t41 145.5l32 183h394l-74 -419h76l-41 -229h-81l27 152h-417l-27 -152h-80zM419 77l60 342h-227l-21 -122q-13 -71 -32.5 -124t-49.5 -96h270z" />
    <glyph glyph-name="uni0435" unicode="&#x435;" horiz-adv-x="550" 
d="M115.5 14q-50.5 30 -77.5 82t-27 115q0 77 35.5 146.5t100 112t148.5 42.5q66 0 112.5 -27.5t70.5 -74.5t24 -105q0 -41 -8 -73h-395q-2 -22 -2 -31q0 -44 20 -75.5t52 -48t69 -16.5q54 0 95 24.5t68 68.5l66 -37q-38 -64 -98.5 -98.5t-134.5 -34.5q-68 0 -118.5 30z
M417 303v13q0 49 -34.5 84t-96.5 35t-108 -36.5t-64 -95.5h303z" />
    <glyph glyph-name="uni0436" unicode="&#x436;" horiz-adv-x="712" 
d="M-66 4l270 264l-167 224l1 4h99l158 -219h4l38 219h85l-39 -219h4l232 219h109l-1 -4l-254 -235l174 -253l-1 -4h-101l-164 245h-5l-42 -245h-85l44 245h-4l-248 -245h-108z" />
    <glyph glyph-name="uni0437" unicode="&#x437;" horiz-adv-x="478" 
d="M-10 76l70 52q21 -30 56 -48.5t78 -18.5q53 0 90.5 22t37.5 66q0 30 -25 49.5t-75 19.5h-66l12 69h63q53 0 83.5 20t30.5 55q0 30 -26.5 51.5t-68.5 21.5q-36 0 -66 -13t-58 -42l-59 50q42 42 88.5 62t105.5 20q48 0 87 -18.5t61 -50t22 -69.5q0 -43 -26 -75.5t-65 -43.5
v-4q34 -17 51.5 -44t17.5 -67q0 -47 -29.5 -82.5t-80.5 -54.5t-113 -19q-125 0 -196 92z" />
    <glyph glyph-name="uni0438" unicode="&#x438;" horiz-adv-x="548" 
d="M82 496h85l-48 -273l-21 -96h4l326 369h89l-88 -496h-85l48 273l21 96h-4l-327 -369h-88z" />
    <glyph glyph-name="uni0439" unicode="&#x439;" horiz-adv-x="548" 
d="M82 496h85l-48 -273l-21 -96h4l326 369h89l-88 -496h-85l48 273l21 96h-4l-327 -369h-88zM231.5 623.5q-32.5 29.5 -32.5 73.5q0 7 2 21h69q-1 -4 -1 -11q0 -21 12.5 -35t36.5 -14q27 0 45 16t23 44h68q-9 -61 -47.5 -92.5t-95.5 -31.5q-47 0 -79.5 29.5z" />
    <glyph glyph-name="uni043A" unicode="&#x43a;" horiz-adv-x="480" 
d="M86 496h85l-40 -224h4l245 224h111l-1 -4l-264 -235l188 -253l-1 -4h-101l-181 250h-4l-45 -250h-83z" />
    <glyph glyph-name="uni043B" unicode="&#x43b;" horiz-adv-x="602" 
d="M-20 0l14 76q15 -5 32 -5q32 0 50 32.5t31 108.5l50 284h412l-87 -496h-85l74 419h-244l-38 -215q-20 -115 -61.5 -163.5t-99.5 -48.5q-29 0 -48 8z" />
    <glyph glyph-name="uni043C" unicode="&#x43c;" horiz-adv-x="660" 
d="M78 496h101l114 -329h3l231 329h106l-88 -496h-85l48 271l21 96h-4l-215 -303h-61l-109 303h-4l-13 -96l-48 -271h-85z" />
    <glyph glyph-name="uni043D" unicode="&#x43d;" horiz-adv-x="549" 
d="M81 496h84l-37 -207h267l37 207h84l-88 -496h-84l37 210h-267l-37 -210h-84z" />
    <glyph glyph-name="uni043E" unicode="&#x43e;" horiz-adv-x="574" 
d="M121.5 15.5q-52.5 31.5 -81.5 85.5t-29 119q0 81 37.5 148t105 105.5t151.5 38.5q66 0 118.5 -31.5t81.5 -85.5t29 -119q0 -81 -37.5 -147.5t-104.5 -105.5t-152 -39q-66 0 -118.5 31.5zM353 90q45 29 70 77t25 104q0 47 -20 84.5t-55 58.5t-77 21q-58 0 -103.5 -29
t-70.5 -77t-25 -104q0 -47 20 -84.5t55 -58.5t77 -21q59 0 104 29z" />
    <glyph glyph-name="uni043F" unicode="&#x43f;" horiz-adv-x="530" 
d="M81 496h416l-88 -496h-85l75 419h-248l-74 -419h-84z" />
    <glyph glyph-name="uni0440" unicode="&#x440;" horiz-adv-x="586" 
d="M92 496h80l-13 -73h4q29 40 73.5 64.5t105.5 24.5q59 0 105.5 -28t73 -80t26.5 -121q0 -78 -37.5 -147t-103 -110.5t-146.5 -41.5q-53 0 -95 25.5t-63 64.5h-4l-8 -69l-40 -221h-84zM364.5 90q44.5 29 70 78.5t25.5 108.5q0 74 -38 116t-103 42q-54 0 -98.5 -31t-70 -82
t-25.5 -109q0 -71 40 -111.5t101 -40.5q54 0 98.5 29z" />
    <glyph glyph-name="uni0441" unicode="&#x441;" horiz-adv-x="533" 
d="M114 14.5q-49 30.5 -76 83t-27 115.5q0 83 38.5 151.5t106 108t149.5 39.5t132 -40.5t67 -99.5l-79 -31q-14 45 -46.5 69.5t-83.5 24.5q-55 0 -100 -28.5t-71.5 -78t-26.5 -109.5q0 -67 39 -112.5t105 -45.5q49 0 88.5 25.5t66.5 71.5l68 -33q-44 -74 -99 -107.5
t-139 -33.5q-63 0 -112 30.5z" />
    <glyph glyph-name="uni0442" unicode="&#x442;" horiz-adv-x="460" 
d="M198 419h-161l14 77h405l-13 -77h-161l-74 -419h-85z" />
    <glyph glyph-name="uni0443" unicode="&#x443;" horiz-adv-x="503" 
d="M170 33l-124 463h89l92 -365h2l214 365h94l-436 -712h-90z" />
    <glyph glyph-name="uni0444" unicode="&#x444;" horiz-adv-x="745" 
d="M283 -13q-116 10 -183 73t-67 158q0 90 46 154.5t123.5 99.5t172.5 40l37 204h84l-36 -206q115 -11 182.5 -73t67.5 -162q0 -87 -46 -151.5t-124 -99.5t-173 -39l-36 -201h-84zM557.5 122.5q70.5 50.5 70.5 139.5q0 75 -48 118.5t-134 51.5l-65 -367q106 7 176.5 57.5z
M361 431q-104 -8 -175 -61t-71 -144q0 -70 49.5 -111.5t132.5 -49.5z" />
    <glyph glyph-name="uni0445" unicode="&#x445;" horiz-adv-x="476" 
d="M165 255l-126 241h96l91 -180h1l151 180h104l-216 -246l132 -250h-96l-95 190h-1l-158 -190h-102z" />
    <glyph glyph-name="uni0446" unicode="&#x446;" horiz-adv-x="578" 
d="M405 0h-412l88 496h84l-74 -419h247l74 419h85l-74 -419h76l-40 -229h-81z" />
    <glyph glyph-name="uni0447" unicode="&#x447;" horiz-adv-x="500" 
d="M345 192q-54 -34 -138 -34q-74 0 -118.5 44.5t-44.5 112.5q0 19 6 55l23 126h86l-26 -144q-3 -16 -3 -30q0 -42 27.5 -64.5t71.5 -22.5q84 0 131 41l39 220h85l-89 -496h-84z" />
    <glyph glyph-name="uni0448" unicode="&#x448;" horiz-adv-x="761" 
d="M81 496h85l-75 -419h187l75 419h84l-74 -419h187l74 419h85l-89 -496h-627z" />
    <glyph glyph-name="uni0449" unicode="&#x449;" horiz-adv-x="809" 
d="M615 0h-622l88 496h85l-74 -419h187l74 419h84l-74 -419h187l74 419h85l-75 -419h76l-40 -229h-81z" />
    <glyph glyph-name="uni044A" unicode="&#x44a;" horiz-adv-x="579" 
d="M155 419h-114l14 77h199l-31 -171h141q73 0 119 -40.5t46 -109.5q0 -51 -25 -91t-71.5 -62t-108.5 -22h-243zM336 77q47 0 76 25t29 68q0 34 -24 56t-62 22h-145l-31 -171h157z" />
    <glyph glyph-name="uni044B" unicode="&#x44b;" horiz-adv-x="689" 
d="M81 496h85l-30 -171h140q73 0 119 -40.5t46 -109.5q0 -51 -25 -91t-71.5 -62t-108.5 -22h-243zM572 496h85l-88 -496h-85zM248 77q47 0 76 25t29 68q0 34 -24 56t-62 22h-145l-30 -171h156z" />
    <glyph glyph-name="uni044C" unicode="&#x44c;" horiz-adv-x="497" 
d="M81 496h85l-30 -171h140q73 0 119 -40.5t46 -109.5q0 -51 -25 -91t-71.5 -62t-108.5 -22h-243zM248 77q47 0 76 25t29 68q0 34 -24 56t-62 22h-145l-30 -171h156z" />
    <glyph glyph-name="uni044D" unicode="&#x44d;" horiz-adv-x="520" 
d="M96 3.5q-44 19.5 -72.5 52t-38.5 69.5l75 30q19 -46 52 -70t90 -24q69 0 118.5 44t66.5 108h-222l12 69h218v3q-4 71 -43.5 110.5t-95.5 39.5q-102 0 -157 -96l-71 35q34 63 92 100.5t139 37.5q64 0 113.5 -28.5t77 -81.5t27.5 -123q0 -80 -36.5 -147.5t-101 -107.5
t-146.5 -40q-53 0 -97 19.5z" />
    <glyph glyph-name="uni044E" unicode="&#x44e;" horiz-adv-x="769" 
d="M325.5 13.5q-50.5 29.5 -80.5 80t-33 112.5v2h-91l-36 -208h-84l87 496h85l-38 -209h84q14 65 54 116t100 80t132 29q66 0 118.5 -31.5t81.5 -85.5t29 -119q0 -81 -37.5 -147.5t-104.5 -105.5t-152 -39q-64 0 -114.5 29.5zM553 90q45 29 70 77t25 104q0 47 -20 84.5
t-54.5 58.5t-76.5 21q-59 0 -104 -29t-70 -77t-25 -104q0 -47 20 -84.5t54.5 -58.5t76.5 -21q59 0 104 29z" />
    <glyph glyph-name="uni044F" unicode="&#x44f;" horiz-adv-x="480" 
d="M-60 5l172 177l-2 3q-40 14 -68.5 49.5t-28.5 87.5q0 46 24.5 86t70 64t104.5 24h237l-88 -496h-85l32 178h-100l-167 -178h-102zM321 251l30 168h-145q-46 0 -75.5 -27t-29.5 -66q0 -35 24 -55t60 -20h136z" />
    <glyph glyph-name="uni0450" unicode="&#x450;" horiz-adv-x="550" 
d="M115.5 14q-50.5 30 -77.5 82t-27 115q0 77 35.5 146.5t100 112t148.5 42.5q66 0 112.5 -27.5t70.5 -74.5t24 -105q0 -41 -8 -73h-395q-2 -22 -2 -31q0 -44 20 -75.5t52 -48t69 -16.5q54 0 95 24.5t68 68.5l66 -37q-38 -64 -98.5 -98.5t-134.5 -34.5q-68 0 -118.5 30z
M417 303v13q0 49 -34.5 84t-96.5 35t-108 -36.5t-64 -95.5h303zM229 722h91l29 -127h-72z" />
    <glyph glyph-name="uni0451" unicode="&#x451;" horiz-adv-x="550" 
d="M115.5 14q-50.5 30 -77.5 82t-27 115q0 77 35.5 146.5t100 112t148.5 42.5q66 0 112.5 -27.5t70.5 -74.5t24 -105q0 -41 -8 -73h-395q-2 -22 -2 -31q0 -44 20 -75.5t52 -48t69 -16.5q54 0 95 24.5t68 68.5l66 -37q-38 -64 -98.5 -98.5t-134.5 -34.5q-68 0 -118.5 30z
M417 303v13q0 49 -34.5 84t-96.5 35t-108 -36.5t-64 -95.5h303zM203.5 627.5q-16.5 16.5 -16.5 37.5q0 23 16 38.5t38 15.5q23 0 38.5 -15.5t15.5 -38.5q0 -22 -15.5 -38t-38.5 -16q-21 0 -37.5 16.5zM368 627.5q-16 16.5 -16 37.5q0 23 16 38.5t37 15.5q23 0 38.5 -15.5
t15.5 -38.5q0 -22 -15.5 -38t-38.5 -16q-21 0 -37 16.5z" />
    <glyph glyph-name="uni0452" unicode="&#x452;" horiz-adv-x="543" 
d="M197 -216l32 74q11 -7 30 -7q54 0 68 68l67 380q4 30 4 42q0 45 -27.5 69.5t-75.5 24.5q-62 0 -110 -48.5t-61 -119.5l-47 -267h-84l101 577h-64l12 67h64l13 72h85l-13 -72h148l-12 -67h-148l-15 -85l-17 -71h4q29 41 75 66t101 25q78 0 118 -41t40 -107q0 -23 -6 -64
l-68 -383q-25 -143 -160 -143q-32 0 -54 10z" />
    <glyph glyph-name="uni0453" unicode="&#x453;" horiz-adv-x="413" 
d="M81 496h331l-14 -77h-247l-74 -419h-84zM299 722h95l-93 -127h-76z" />
    <glyph glyph-name="uni0454" unicode="&#x454;" horiz-adv-x="522" 
d="M112 14q-49 30 -77 84t-28 122q0 75 35.5 142.5t101 108.5t150.5 41q83 0 134.5 -40.5t67.5 -99.5l-77 -30q-29 93 -134 93q-69 0 -120 -42.5t-68 -110.5h225l-12 -69h-220v-2q3 -66 43 -108t100 -42q53 0 90 24.5t64 71.5l69 -32q-39 -72 -95.5 -106.5t-137.5 -34.5
q-62 0 -111 30z" />
    <glyph glyph-name="uni0455" unicode="&#x455;" horiz-adv-x="461" 
d="M57.5 23q-50.5 39 -68.5 101l81 32q10 -46 45 -71.5t82 -25.5q48 0 79.5 21.5t31.5 55.5q0 30 -19.5 48.5t-63.5 30.5l-54 14q-126 35 -126 132q0 43 26 77.5t71.5 54t100.5 19.5q68 0 118 -32t67 -84l-81 -31q-12 32 -40.5 52t-68.5 20q-47 0 -76 -18.5t-29 -50.5
q0 -22 18.5 -40t54.5 -27l63 -17q61 -17 94 -52t33 -86q0 -73 -57 -117.5t-151 -44.5q-80 0 -130.5 39z" />
    <glyph glyph-name="uni0456" unicode="&#x456;" horiz-adv-x="224" 
d="M121 618q-18 18 -18 43t18 42.5t43 17.5t43 -17.5t18 -42.5t-17.5 -43t-43.5 -18q-25 0 -43 18zM92 496h85l-87 -496h-85z" />
    <glyph glyph-name="uni0457" unicode="&#x457;" horiz-adv-x="213" 
d="M53 627.5q-16 16.5 -16 37.5q0 23 16 38.5t38 15.5q23 0 38 -15.5t15 -38.5q0 -22 -15 -38t-38 -16q-22 0 -38 16.5zM186 627.5q-16 16.5 -16 37.5q0 23 16 38.5t38 15.5q23 0 38 -15.5t15 -38.5q0 -22 -15 -38t-38 -16q-22 0 -38 16.5zM93 496h84l-87 -496h-85z" />
    <glyph glyph-name="uni0458" unicode="&#x458;" horiz-adv-x="225" 
d="M122 616q-18 18 -18 43t18 43t43 18q26 0 43.5 -17.5t17.5 -43.5q0 -25 -17.5 -43t-43.5 -18q-25 0 -43 18zM-131 -219l14 79q18 -9 39 -9q31 0 48 18.5t23 52.5l101 574h85l-102 -578q-14 -79 -54.5 -111.5t-106.5 -32.5q-24 0 -47 7z" />
    <glyph glyph-name="uni0459" unicode="&#x459;" horiz-adv-x="893" 
d="M-22 0l15 76q14 -5 31 -5q32 0 50 31t30 102l51 292h412l-32 -181h139q74 0 118 -39t44 -104q0 -78 -55 -125t-144 -47h-242l75 419h-245l-38 -217q-21 -113 -62 -161.5t-99 -48.5q-29 0 -48 8zM649 77q44 0 71.5 22.5t27.5 64.5q0 33 -22.5 53.5t-58.5 20.5h-146
l-28 -161h156z" />
    <glyph glyph-name="uni045A" unicode="&#x45a;" horiz-adv-x="817" 
d="M81 496h85l-32 -181h241l32 181h85l-33 -181h139q74 0 118 -39.5t44 -105.5q0 -50 -25.5 -89t-70.5 -60t-103 -21h-242l42 238h-241l-42 -238h-85zM573 77q44 0 71.5 22.5t27.5 64.5q0 33 -22.5 53.5t-58.5 20.5h-145l-27 -161h154z" />
    <glyph glyph-name="uni045B" unicode="&#x45b;" horiz-adv-x="543" 
d="M94 577h-64l12 67h64l13 72h85l-13 -72h148l-12 -67h-148l-15 -85l-17 -71h4q29 41 75 66t101 25q78 0 118 -41t40 -107q0 -23 -6 -64l-54 -300h-84l53 299q4 30 4 42q0 45 -27.5 69.5t-75.5 24.5q-62 0 -110.5 -49t-60.5 -119l-47 -267h-84z" />
    <glyph glyph-name="uni045C" unicode="&#x45c;" horiz-adv-x="480" 
d="M86 496h85l-40 -224h4l245 224h111l-1 -4l-264 -235l188 -253l-1 -4h-101l-181 250h-4l-45 -250h-83zM322 722h95l-93 -127h-76z" />
    <glyph glyph-name="uni045D" unicode="&#x45d;" horiz-adv-x="548" 
d="M82 496h85l-48 -273l-21 -96h4l326 369h89l-88 -496h-85l48 273l21 96h-4l-327 -369h-88zM228 722h91l29 -127h-72z" />
    <glyph glyph-name="uni045E" unicode="&#x45e;" horiz-adv-x="503" 
d="M170 33l-124 463h89l92 -365h2l214 365h94l-436 -712h-90zM221.5 623.5q-32.5 29.5 -32.5 73.5q0 7 2 21h69q-1 -4 -1 -11q0 -21 12.5 -35t36.5 -14q27 0 45 16t23 44h68q-9 -61 -47.5 -92.5t-95.5 -31.5q-47 0 -79.5 29.5z" />
    <glyph glyph-name="uni045F" unicode="&#x45f;" horiz-adv-x="550" 
d="M173 0h-178l88 496h85l-75 -419h268l74 419h84l-87 -496h-178l-26 -152h-81z" />
    <glyph glyph-name="uni0490" unicode="&#x490;" horiz-adv-x="508" 
d="M125 716h330l19 110h81l-33 -191h-327l-111 -635h-84z" />
    <glyph glyph-name="uni0491" unicode="&#x491;" horiz-adv-x="411" 
d="M81 496h248l17 97h81l-30 -174h-246l-74 -419h-84z" />
    <glyph glyph-name="uni04AE" unicode="&#x4ae;" horiz-adv-x="594" 
d="M251 331l-174 385h96l130 -300h4l233 300h102l-307 -385l-58 -331h-85z" />
    <glyph glyph-name="uni04AF" unicode="&#x4af;" horiz-adv-x="498" 
d="M142 0l-114 497h87l85 -404l227 403h91l-292 -496l-38 -216h-84z" />
    <glyph glyph-name="uni04B0" unicode="&#x4b0;" horiz-adv-x="590" 
d="M239 279h-177l12 66h168l-167 371h96l130 -300h4l233 300h102l-295 -371h168l-12 -66h-177l-50 -279h-84z" />
    <glyph glyph-name="uni04B1" unicode="&#x4b1;" horiz-adv-x="498" 
d="M158 0h-147l12 65h122l-9 33l-92 398h88l84 -403l227 403h91l-234 -398l-20 -33h121l-12 -65h-147l-38 -216h-84z" />
    <glyph glyph-name="uni0E3F" unicode="&#xe3f;" horiz-adv-x="579" 
d="M188 0h-180l121 684h180l17 100h71l-18 -100h2q75 -1 123 -45.5t48 -117.5q0 -59 -34 -103.5t-89 -62.5l-1 -3q40 -18 65.5 -54t25.5 -85q0 -59 -31.5 -108t-87 -77t-126.5 -28h-15l-17 -100h-71zM257 389l38 214h-96l-38 -214h96zM330 389q58 0 97 32t39 84
q0 45 -25 71.5t-73 26.5h-3l-38 -214h3zM203 81l40 229h-95l-40 -229h95zM293 81q60 0 99.5 35.5t39.5 92.5q0 43 -27 72t-76 29h-15l-40 -229h19z" />
    <glyph glyph-name="Wgrave" unicode="&#x1e80;" horiz-adv-x="944" 
d="M80 716h91l38 -526l4 -49h4l23 49l252 526h88l61 -526l6 -49h4l20 49l223 526h95l-316 -716h-88l-65 518l-7 56h-4l-26 -56l-248 -518h-89zM454 900h91l29 -127h-72z" />
    <glyph glyph-name="wgrave" unicode="&#x1e81;" horiz-adv-x="760" 
d="M30 496h86l47 -386h1l194 386h89l58 -386h1l183 386h88l-248 -496h-87l-58 393l-196 -393h-86zM336 722h91l29 -127h-72z" />
    <glyph glyph-name="Wacute" unicode="&#x1e82;" horiz-adv-x="944" 
d="M80 716h91l38 -526l4 -49h4l23 49l252 526h88l61 -526l6 -49h4l20 49l223 526h95l-316 -716h-88l-65 518l-7 56h-4l-26 -56l-248 -518h-89zM579 900h95l-93 -127h-77z" />
    <glyph glyph-name="wacute" unicode="&#x1e83;" horiz-adv-x="760" 
d="M30 496h86l47 -386h1l194 386h89l58 -386h1l183 386h88l-248 -496h-87l-58 393l-196 -393h-86zM453 722h95l-93 -127h-76z" />
    <glyph glyph-name="Wdieresis" unicode="&#x1e84;" horiz-adv-x="944" 
d="M80 716h91l38 -526l4 -49h4l23 49l252 526h88l61 -526l6 -49h4l20 49l223 526h95l-316 -716h-88l-65 518l-7 56h-4l-26 -56l-248 -518h-89zM434.5 805.5q-16.5 16.5 -16.5 37.5q0 23 16 38.5t38 15.5q23 0 38.5 -15.5t15.5 -38.5q0 -22 -15.5 -38t-38.5 -16
q-21 0 -37.5 16.5zM599 805.5q-16 16.5 -16 37.5q0 23 16 38.5t37 15.5q23 0 38.5 -15.5t15.5 -38.5q0 -22 -15.5 -38t-38.5 -16q-21 0 -37 16.5z" />
    <glyph glyph-name="wdieresis" unicode="&#x1e85;" horiz-adv-x="760" 
d="M30 496h86l47 -386h1l194 386h89l58 -386h1l183 386h88l-248 -496h-87l-58 393l-196 -393h-86zM310.5 627.5q-16.5 16.5 -16.5 37.5q0 23 16 38.5t38 15.5q23 0 38.5 -15.5t15.5 -38.5q0 -22 -15.5 -38t-38.5 -16q-21 0 -37.5 16.5zM475 627.5q-16 16.5 -16 37.5
q0 23 16 38.5t37 15.5q23 0 38.5 -15.5t15.5 -38.5q0 -22 -15.5 -38t-38.5 -16q-21 0 -37 16.5z" />
    <glyph glyph-name="Ygrave" unicode="&#x1ef2;" horiz-adv-x="594" 
d="M251 331l-174 385h96l130 -300h4l233 300h102l-307 -385l-58 -331h-85zM268 900h91l29 -127h-72z" />
    <glyph glyph-name="ygrave" unicode="&#x1ef3;" horiz-adv-x="503" 
d="M170 33l-124 463h89l92 -365h2l214 365h94l-436 -712h-90zM218 722h91l29 -127h-72z" />
    <glyph glyph-name="uni2000" unicode="&#x2000;" horiz-adv-x="415" 
d="M0 0z" />
    <glyph glyph-name="uni2001" unicode="&#x2001;" horiz-adv-x="830" 
d="M0 0z" />
    <glyph glyph-name="uni2002" unicode="&#x2002;" horiz-adv-x="415" 
d="M0 0z" />
    <glyph glyph-name="uni2003" unicode="&#x2003;" horiz-adv-x="830" 
d="M0 0z" />
    <glyph glyph-name="uni2004" unicode="&#x2004;" horiz-adv-x="275" 
d="M0 0z" />
    <glyph glyph-name="uni2005" unicode="&#x2005;" horiz-adv-x="207" 
d="M0 0z" />
    <glyph glyph-name="uni2006" unicode="&#x2006;" horiz-adv-x="138" 
d="M0 0z" />
    <glyph glyph-name="uni2007" unicode="&#x2007;" 
d="M0 0z" />
    <glyph glyph-name="uni2008" unicode="&#x2008;" horiz-adv-x="232" 
d="M0 0z" />
    <glyph glyph-name="uni2009" unicode="&#x2009;" horiz-adv-x="138" 
d="M0 0z" />
    <glyph glyph-name="uni200A" unicode="&#x200a;" horiz-adv-x="70" 
d="M0 0z" />
    <glyph glyph-name="endash" unicode="&#x2013;" horiz-adv-x="589" 
d="M531 345l-12 -70h-476l12 70h476z" />
    <glyph glyph-name="emdash" unicode="&#x2014;" horiz-adv-x="889" 
d="M831 345l-12 -70h-776l12 70h776z" />
    <glyph glyph-name="uni2015" unicode="&#x2015;" horiz-adv-x="1021" 
d="M970 345l-13 -70h-908l13 70h908z" />
    <glyph glyph-name="quoteleft" unicode="&#x2018;" horiz-adv-x="227" 
d="M167 631q13 -5 25 -19.5t12 -37.5q0 -27 -19 -45.5t-44 -18.5q-27 0 -45.5 18.5t-18.5 45.5q0 14 9 28.5t29 39.5l77 90l35 -29z" />
    <glyph glyph-name="quoteright" unicode="&#x2019;" horiz-adv-x="228" 
d="M136 611q-35 19 -35 57q0 27 19 45.5t44 18.5q27 0 45.5 -18.5t18.5 -45.5q0 -14 -9 -28.5t-29 -39.5l-77 -90l-34 29z" />
    <glyph glyph-name="quotesinglbase" unicode="&#x201a;" horiz-adv-x="226" 
d="M38 0q-13 5 -25 19.5t-12 37.5q0 27 18.5 45.5t43.5 18.5q27 0 46 -18.5t19 -45.5q0 -14 -9 -28t-30 -40l-76 -90l-35 29z" />
    <glyph glyph-name="quotedblleft" unicode="&#x201c;" horiz-adv-x="395" 
d="M166 631q13 -5 25 -19.5t12 -37.5q0 -27 -19 -45.5t-44 -18.5q-27 0 -45.5 18.5t-18.5 45.5q0 14 9 28.5t29 39.5l77 90l35 -29zM334 631q13 -5 25 -19.5t12 -37.5q0 -27 -19 -45.5t-44 -18.5q-27 0 -45.5 18.5t-18.5 45.5q0 14 9 28.5t29 39.5l77 90l35 -29z" />
    <glyph glyph-name="quotedblright" unicode="&#x201d;" horiz-adv-x="395" 
d="M149 611q-13 5 -25 19.5t-12 37.5q0 27 18.5 45.5t43.5 18.5q27 0 46 -18.5t19 -45.5q0 -14 -9 -28t-30 -40l-76 -90l-35 29zM318 611q-13 5 -25 19.5t-12 37.5q0 27 18.5 45.5t43.5 18.5q27 0 46 -18.5t19 -45.5q0 -14 -9 -28t-30 -40l-76 -90l-35 29z" />
    <glyph glyph-name="quotedblbase" unicode="&#x201e;" horiz-adv-x="395" 
d="M38 0q-13 5 -25 19.5t-12 37.5q0 27 18.5 45.5t43.5 18.5q27 0 46 -18.5t19 -45.5q0 -14 -9 -28t-30 -40l-76 -90l-35 29zM207 0q-13 5 -25 19.5t-12 37.5q0 27 18.5 45.5t43.5 18.5q27 0 46 -18.5t19 -45.5q0 -14 -9 -28t-30 -40l-76 -90l-35 29z" />
    <glyph glyph-name="dagger" unicode="&#x2020;" horiz-adv-x="436" 
d="M213 571l26 145h85l-26 -145h144l-14 -78h-144l-59 -335h-85l60 335h-144l14 78h143z" />
    <glyph glyph-name="daggerdbl" unicode="&#x2021;" horiz-adv-x="436" 
d="M213 571l26 145h85l-26 -145h144l-14 -78h-144l-45 -254h144l-14 -78h-144l-28 -161h-85l29 161h-143l13 78h143l46 254h-144l14 78h143z" />
    <glyph glyph-name="bullet" unicode="&#x2022;" horiz-adv-x="386" 
d="M107.5 244.5q-33.5 33.5 -33.5 79.5q0 47 33.5 80t79.5 33q47 0 80 -33t33 -80q0 -46 -33 -79.5t-80 -33.5q-46 0 -79.5 33.5z" />
    <glyph glyph-name="ellipsis" unicode="&#x2026;" horiz-adv-x="684" 
d="M13.5 12.5q-18.5 18.5 -18.5 45.5q0 26 18.5 44.5t44.5 18.5q27 0 45.5 -18.5t18.5 -44.5q0 -27 -18.5 -45.5t-45.5 -18.5q-26 0 -44.5 18.5zM244.5 12.5q-18.5 18.5 -18.5 45.5q0 26 18.5 44.5t44.5 18.5q27 0 45.5 -18.5t18.5 -44.5q0 -27 -18.5 -45.5t-45.5 -18.5
q-26 0 -44.5 18.5zM474.5 12.5q-18.5 18.5 -18.5 45.5q0 26 18.5 44.5t44.5 18.5q27 0 45.5 -18.5t18.5 -44.5q0 -27 -18.5 -45.5t-45.5 -18.5q-26 0 -44.5 18.5z" />
    <glyph glyph-name="perthousand" unicode="&#x2030;" horiz-adv-x="1093" 
d="M102 400q-42 42 -42 107q0 53 26 97.5t71 70t101 25.5q65 0 106 -42t41 -107q0 -53 -26 -97.5t-71 -70t-100 -25.5q-64 0 -106 42zM99 32l562 659l47 -40l-561 -658zM302 456q34 36 34 89q0 41 -24.5 67t-61.5 26q-52 0 -86 -35.5t-34 -89.5q0 -41 24.5 -67t61.5 -26
q52 0 86 36zM444 26q-42 42 -42 107q0 53 26 97.5t71 70t101 25.5q43 0 74.5 -21t49.5 -59q25 36 67.5 58t89.5 22q64 0 105.5 -42t41.5 -107q0 -53 -26 -97.5t-71 -70t-100 -25.5q-42 0 -75.5 22.5t-50.5 57.5q-26 -37 -66 -58.5t-89 -21.5q-64 0 -106 42zM644 82
q34 36 34 89q0 41 -24.5 67t-61.5 26q-52 0 -86 -35.5t-34 -89.5q0 -41 24.5 -67t61.5 -26q52 0 86 36zM925 82q34 36 34 89q0 41 -24.5 67t-61.5 26q-52 0 -86.5 -36t-34.5 -89q0 -41 25 -67t62 -26q52 0 86 36z" />
    <glyph glyph-name="uni2031" unicode="&#x2031;" horiz-adv-x="1374" 
d="M102 400q-42 42 -42 107q0 53 26 97.5t71 70t101 25.5q65 0 106 -42t41 -107q0 -53 -26 -97.5t-71 -70t-100 -25.5q-64 0 -106 42zM99 32l562 659l47 -40l-561 -658zM302 456q34 36 34 89q0 41 -24.5 67t-61.5 26q-52 0 -86 -35.5t-34 -89.5q0 -41 24.5 -67t61.5 -26
q52 0 86 36zM444 26q-42 42 -42 107q0 53 26 97.5t71 70t101 25.5q43 0 74.5 -21t49.5 -59q24 36 66.5 58t90.5 22q43 0 74.5 -21t49.5 -59q24 36 66.5 58t90.5 22q64 0 105.5 -42t41.5 -107q0 -53 -26 -97.5t-71 -70t-101 -25.5q-41 0 -75 22.5t-50 57.5q-27 -37 -67 -58.5
t-88 -21.5q-41 0 -75 22.5t-51 57.5q-27 -37 -66.5 -58.5t-88.5 -21.5q-64 0 -106 42zM644 82q34 36 34 89q0 41 -24.5 67t-61.5 26q-52 0 -86 -35.5t-34 -89.5q0 -41 24.5 -67t61.5 -26q52 0 86 36zM925 82q34 36 34 89q0 41 -24.5 67t-61.5 26q-52 0 -86.5 -36t-34.5 -89
q0 -41 25 -67t62 -26q52 0 86 36zM1205.5 81.5q33.5 35.5 33.5 89.5q0 41 -24.5 67t-61.5 26q-52 0 -86 -35.5t-34 -89.5q0 -42 24.5 -67.5t62.5 -25.5q52 0 85.5 35.5z" />
    <glyph glyph-name="guilsinglleft" unicode="&#x2039;" horiz-adv-x="351" 
d="M182 54l-162 217l238 217l44 -49l-189 -173l124 -167z" />
    <glyph glyph-name="guilsinglright" unicode="&#x203a;" horiz-adv-x="351" 
d="M134 488l161 -217l-237 -217l-44 49l189 173l-125 167z" />
    <glyph glyph-name="exclamdbl" unicode="&#x203c;" horiz-adv-x="434" 
d="M90 473l43 243h84l-43 -243l-55 -262h-66zM14.5 12.5q-18.5 18.5 -18.5 45.5q0 26 18.5 44.5t45.5 18.5t45.5 -18.5t18.5 -44.5q0 -27 -18.5 -45.5t-45.5 -18.5t-45.5 18.5zM301 473l43 243h84l-43 -243l-55 -262h-66zM225.5 12.5q-18.5 18.5 -18.5 45.5q0 26 18.5 44.5
t45.5 18.5t45.5 -18.5t18.5 -44.5q0 -27 -18.5 -45.5t-45.5 -18.5t-45.5 18.5z" />
    <glyph glyph-name="uni2042" unicode="&#x2042;" horiz-adv-x="869" 
d="M322 437l90 97l-1 7l-99 36l28 62l101 -38l4 2l19 111h67l-19 -111l4 -2l104 36l22 -62l-116 -41l-3 -8l52 -91l-59 -38l-53 94h-7l-85 -95zM18 35l90 97l-1 7l-99 36l28 62l101 -38l4 2l19 111h67l-19 -111l4 -2l104 36l22 -62l-116 -41l-3 -8l52 -91l-59 -38l-53 94h-7
l-85 -95zM484 35l90 97l-1 7l-99 36l28 62l101 -38l4 2l19 111h67l-19 -111l4 -2l104 36l22 -62l-116 -41l-3 -8l52 -91l-59 -38l-53 94h-7l-85 -95z" />
    <glyph glyph-name="uni2043" unicode="&#x2043;" horiz-adv-x="397" 
d="M322 349l-13 -78h-252l13 78h252z" />
    <glyph glyph-name="fraction" unicode="&#x2044;" horiz-adv-x="173" 
d="M357 723l49 -40l-588 -691l-52 41z" />
    <glyph glyph-name="uni2047" unicode="&#x2047;" horiz-adv-x="947" 
d="M175 259q9 52 32.5 84.5t83.5 77.5q46 34 72 66t26 70q0 42 -29.5 68t-78.5 26q-50 0 -84.5 -28t-48.5 -71l-74 33q24 65 79 106t140 41q52 0 94 -22t65.5 -59t23.5 -82q0 -59 -33.5 -103t-97.5 -93q-39 -30 -58.5 -57t-25.5 -63l-8 -42h-86zM137.5 12.5
q-18.5 18.5 -18.5 45.5q0 26 18.5 44.5t44.5 18.5q27 0 45.5 -18.5t18.5 -44.5q0 -27 -18.5 -45.5t-45.5 -18.5q-26 0 -44.5 18.5zM632 259q9 52 32.5 84.5t83.5 77.5q46 34 72 66t26 70q0 42 -29.5 68t-78.5 26q-50 0 -84.5 -28t-48.5 -71l-74 33q24 65 79 106t140 41
q52 0 94 -22t65.5 -59t23.5 -82q0 -59 -33.5 -103t-97.5 -93q-39 -30 -58.5 -57t-25.5 -63l-8 -42h-86zM594.5 12.5q-18.5 18.5 -18.5 45.5q0 26 18.5 44.5t44.5 18.5q27 0 45.5 -18.5t18.5 -44.5q0 -27 -18.5 -45.5t-45.5 -18.5q-26 0 -44.5 18.5z" />
    <glyph glyph-name="uni2048" unicode="&#x2048;" horiz-adv-x="679" 
d="M175 259q9 52 32.5 84.5t83.5 77.5q46 34 72 66t26 70q0 42 -29.5 68t-78.5 26q-50 0 -84.5 -28t-48.5 -71l-74 33q24 65 79 106t140 41q52 0 94 -22t65.5 -59t23.5 -82q0 -59 -33.5 -103t-97.5 -93q-39 -30 -58.5 -57t-25.5 -63l-8 -42h-86zM137.5 12.5
q-18.5 18.5 -18.5 45.5q0 26 18.5 44.5t44.5 18.5q27 0 45.5 -18.5t18.5 -44.5q0 -27 -18.5 -45.5t-45.5 -18.5q-26 0 -44.5 18.5zM545 473l43 243h84l-43 -243l-55 -262h-66zM469.5 12.5q-18.5 18.5 -18.5 45.5q0 26 18.5 44.5t45.5 18.5t45.5 -18.5t18.5 -44.5
q0 -27 -18.5 -45.5t-45.5 -18.5t-45.5 18.5z" />
    <glyph glyph-name="uni2049" unicode="&#x2049;" horiz-adv-x="689" 
d="M373 259q9 52 32.5 84.5t83.5 77.5q46 34 72 66t26 70q0 42 -29.5 68t-78.5 26q-50 0 -84.5 -28t-48.5 -71l-74 33q24 65 79 106t140 41q52 0 94 -22t65.5 -59t23.5 -82q0 -59 -33.5 -103t-97.5 -93q-39 -30 -58.5 -57t-25.5 -63l-8 -42h-86zM335.5 12.5
q-18.5 18.5 -18.5 45.5q0 26 18.5 44.5t44.5 18.5q27 0 45.5 -18.5t18.5 -44.5q0 -27 -18.5 -45.5t-45.5 -18.5q-26 0 -44.5 18.5zM90 473l43 243h84l-43 -243l-55 -262h-66zM14.5 12.5q-18.5 18.5 -18.5 45.5q0 26 18.5 44.5t45.5 18.5t45.5 -18.5t18.5 -44.5
q0 -27 -18.5 -45.5t-45.5 -18.5t-45.5 18.5z" />
    <glyph glyph-name="uni204E" unicode="&#x204e;" horiz-adv-x="394" 
d="M18 41l97 104l-1 8l-101 38l27 64l104 -40l6 2l21 119h71l-21 -119l5 -2l106 37l22 -65l-117 -43l-3 -7l56 -99l-65 -42l-56 101h-7l-91 -101z" />
    <glyph glyph-name="uni2051" unicode="&#x2051;" horiz-adv-x="403" 
d="M89 437l90 97l-1 7l-99 36l28 62l101 -38l4 2l19 111h67l-19 -111l4 -2l104 36l22 -62l-116 -41l-3 -8l52 -91l-59 -38l-53 94h-7l-85 -95zM18 35l90 97l-1 7l-99 36l28 62l101 -38l4 2l19 111h67l-19 -111l4 -2l104 36l22 -62l-116 -41l-3 -8l52 -91l-59 -38l-53 94h-7
l-85 -95z" />
    <glyph glyph-name="uni2055" unicode="&#x2055;" horiz-adv-x="654" 
d="M292 242l-132 -132l-49 49l134 131h-189v70h189l-134 131l49 49l132 -132v188h70v-188l132 132l49 -49l-133 -131h188v-70h-188l133 -131l-49 -49l-132 132v-188h-70v188z" />
    <glyph glyph-name="uni2074" unicode="&#x2074;" horiz-adv-x="342" 
d="M210 424h-171l7 44l220 248h61l-41 -236h49l-11 -56h-49l-13 -74h-65zM221 480l23 132h-4l-118 -132h99z" />
    <glyph glyph-name="franc" unicode="&#x20a3;" horiz-adv-x="546" 
d="M57 117h-75l13 70h74l88 497h409l-14 -81h-325l-40 -229h293l-14 -80h-293l-19 -107h137l-13 -70h-137l-20 -117h-85z" />
    <glyph glyph-name="lira" unicode="&#x20a4;" horiz-adv-x="515" 
d="M-18 73q78 37 113 96h-95l11 70h109v10q0 42 -10 80h-83l12 70h49q-14 44 -14 89q0 56 28.5 104.5t80.5 78t119 29.5q78 0 123 -40.5t61 -100.5l-83 -32q-10 42 -37 67t-74 25q-59 0 -95.5 -38t-36.5 -93q0 -35 13 -89h165l-12 -70h-136q8 -46 8 -73q0 -9 -1 -17h113
l-12 -70h-121q-22 -47 -72 -85l2 -3h185q37 0 59.5 14.5t38.5 44.5l65 -29q-29 -56 -71 -83.5t-107 -27.5h-308z" />
    <glyph glyph-name="uni20A9" unicode="&#x20a9;" horiz-adv-x="970" 
d="M141 329h-114l12 70h95l-25 285h90l19 -285h146l137 285h88l31 -285h144l121 285h90l-125 -285h94l-12 -70h-114l-145 -329h-84l-38 329h-137l-158 -329h-85zM542 399l-18 150h-4l-72 -150h94zM239 136l92 193h-108l13 -193h3zM654 136l80 193h-105l22 -193h3z" />
    <glyph glyph-name="dong" unicode="&#x20ab;" horiz-adv-x="565" 
d="M103 10.5q-45 26.5 -71.5 76t-26.5 116.5q0 74 35 140t97 106.5t140 40.5q59 0 99.5 -25.5t58.5 -62.5h4l8 68l12 73h-143l11 66h144l13 75h85l-14 -75h65l-11 -66h-66l-95 -543h-81l13 72h-4q-26 -39 -70.5 -63.5t-102.5 -24.5q-55 0 -100 26.5zM324 91.5q43 30.5 66 79
t23 101.5q0 69 -36.5 105t-94.5 36q-54 0 -97.5 -28.5t-68.5 -76.5t-25 -104q0 -68 37.5 -105.5t95.5 -37.5q57 0 100 30.5zM-4 -84h438l-13 -70h-437z" />
    <glyph glyph-name="Euro" unicode="&#x20ac;" horiz-adv-x="626" 
d="M193 48q-76 64 -94 179h-97l12 70h81v1q0 42 11 89h-76l12 70h86q46 107 142.5 175t221.5 68q87 0 147 -44l-46 -70q-43 32 -114 32q-86 0 -154 -44t-105 -117h234l-12 -70h-249q-11 -38 -11 -89v-1h243l-11 -70h-224q18 -79 72.5 -120t125.5 -41q66 0 130 32l33 -70
q-41 -23 -83 -33.5t-91 -10.5q-108 0 -184 64z" />
    <glyph glyph-name="uni20AE" unicode="&#x20ae;" horiz-adv-x="522" 
d="M179 136l-145 -81l16 86l144 81l18 103l-144 -81l15 87l145 81l33 191h-195l15 81h474l-15 -81h-194l-26 -142l145 81l-16 -86l-143 -82l-19 -104l145 83l-16 -87l-144 -82l-33 -184h-84z" />
    <glyph glyph-name="uni20B1" unicode="&#x20b1;" horiz-adv-x="627" 
d="M115 444h-76l13 70h75l31 170h220q80 0 135.5 -46.5t61.5 -121.5v-2h64l-13 -70h-57q-19 -79 -88.5 -123.5t-164.5 -44.5h-145l-50 -276h-84zM486 514v1q-6 40 -35.5 64t-76.5 24h-147l-15 -89h274zM331 357q51 0 91 23.5t57 63.5h-279l-16 -87h147z" />
    <glyph glyph-name="uni20B8" unicode="&#x20b8;" horiz-adv-x="522" 
d="M81 684h474l-12 -70h-474zM234 451h-194l13 70h474l-13 -70h-195l-80 -451h-84z" />
    <glyph glyph-name="uni20B9" unicode="&#x20b9;" horiz-adv-x="553" 
d="M94 273l15 85h140q60 0 99.5 24t53.5 68h-362l13 71h355v1q-6 40 -34 66t-74 26h-231l12 70h504l-12 -70h-119q35 -40 41 -91v-2h62l-13 -71h-53q-19 -79 -88 -124.5t-160 -45.5h-35l-3 -3l222 -273l-1 -4h-110z" />
    <glyph glyph-name="uni20BA" unicode="&#x20ba;" horiz-adv-x="532" 
d="M124 191l-143 -81l15 86l143 81l18 104l-144 -81l16 86l144 82l38 216h84l-30 -168l146 82l-16 -87l-144 -81l-19 -104l145 83l-15 -87l-145 -82l-28 -159q84 1 144.5 51.5t74.5 128.5h82q-15 -79 -59 -138t-111.5 -91t-151.5 -32h-78z" />
    <glyph glyph-name="uni20BD" unicode="&#x20bd;" horiz-adv-x="576" 
d="M57 117h-75l13 70h74l16 89h-76l13 71h76l59 337h223q56 0 100.5 -23t70 -65.5t25.5 -98.5q0 -65 -33 -115t-92 -78t-135 -28h-146l-16 -89h138l-13 -70h-137l-21 -117h-85zM331 357q69 0 113.5 37t44.5 98q0 49 -32 80t-87 31h-143l-43 -246h147z" />
    <glyph glyph-name="uni2103" unicode="&#x2103;" horiz-adv-x="972" 
d="M102 474.5q-35 32.5 -35 81.5q0 63 41.5 103.5t104.5 40.5q49 0 83.5 -32.5t34.5 -81.5q0 -63 -41 -103.5t-105 -40.5q-48 0 -83 32.5zM444 25q-68 41 -104.5 111.5t-36.5 156.5q0 107 51.5 200.5t145 150t211.5 56.5q73 0 132.5 -30t101.5 -84l-68 -57
q-32 44 -73.5 66.5t-105.5 22.5q-86 0 -156.5 -42t-110.5 -116t-40 -165q0 -70 29 -122t80 -79.5t116 -27.5q69 0 118.5 23t99.5 73l49 -58q-60 -63 -125.5 -91.5t-156.5 -28.5q-89 0 -157 41zM244.5 523.5q22.5 22.5 22.5 55.5q0 27 -16.5 44.5t-42.5 17.5q-31 0 -54 -22.5
t-23 -55.5q0 -27 17 -44.5t43 -17.5q31 0 53.5 22.5z" />
    <glyph glyph-name="uni2109" unicode="&#x2109;" horiz-adv-x="812" 
d="M102 474.5q-35 32.5 -35 81.5q0 63 41.5 103.5t104.5 40.5q49 0 83.5 -32.5t34.5 -81.5q0 -63 -41 -103.5t-105 -40.5q-48 0 -83 32.5zM436 684h401l-15 -81h-316l-40 -229h285l-14 -80h-285l-52 -294h-85zM244.5 523.5q22.5 22.5 22.5 55.5q0 27 -16.5 44.5t-42.5 17.5
q-31 0 -54 -22.5t-23 -55.5q0 -27 17 -44.5t43 -17.5q31 0 53.5 22.5z" />
    <glyph glyph-name="uni2113" unicode="&#x2113;" horiz-adv-x="424" 
d="M104.5 26.5q-38.5 34.5 -38.5 92.5q0 21 5 41l21 122h-90l13 77h90l38 210q12 71 54 117t109 46q57 0 90.5 -39t33.5 -111q0 -74 -32.5 -138t-90.5 -106.5t-130 -52.5l-22 -126q-2 -16 -2 -23q0 -33 17 -50t46 -17q27 0 55 12l17 -74q-40 -15 -88 -15q-57 0 -95.5 34.5z
M304 438.5q42 58.5 42 141.5q0 35 -13.5 54t-34.5 19q-28 0 -46 -23t-25 -65l-36 -201q71 16 113 74.5z" />
    <glyph glyph-name="uni2114" unicode="&#x2114;" horiz-adv-x="801" 
d="M383 9q-42 25 -64 64h-4l-12 -73h-80l100 575h-111l-101 -575h-84l101 575h-66l12 66h66l13 75h85l-14 -75h111l13 75h85l-14 -75h147l-12 -66h-147l-15 -90l-16 -68h4q27 40 71.5 64.5t104.5 24.5q58 0 104 -28t72.5 -79.5t26.5 -120.5q0 -75 -37 -143t-102 -109.5
t-145 -41.5q-50 0 -92 25zM578 89.5q44 28.5 69.5 77t25.5 105.5q0 74 -37 115.5t-103 41.5q-53 0 -97 -31t-69 -80.5t-25 -104.5q0 -72 39 -112t100 -40q53 0 97 28.5z" />
    <glyph glyph-name="uni2116" unicode="&#x2116;" horiz-adv-x="1076" 
d="M806.5 410q-34.5 20 -54 55t-19.5 79q0 54 25.5 97t70.5 67t100 24q65 0 107 -42.5t42 -107.5q0 -59 -26 -102.5t-70.5 -66.5t-98.5 -23q-42 0 -76.5 20zM135 716h98l265 -570h4l20 138l77 432h84l-127 -716h-80l-278 597h-4l-20 -138l-81 -459h-85zM977 487.5
q32 35.5 32 87.5q0 42 -24 68.5t-65 26.5q-34 0 -61 -17.5t-42 -46t-15 -59.5q0 -43 25.5 -69t64.5 -26q53 0 85 35.5zM722 305h280l-12 -67h-280z" />
    <glyph glyph-name="uni2117" unicode="&#x2117;" horiz-adv-x="532" 
d="M151 303q-53 31 -84 84t-31 115t31 115t84 84t115 31t115 -31t84 -84t31 -115t-31 -115t-84 -84t-115 -31t-115 31zM358.5 343q42.5 25 67.5 67.5t25 91.5q0 50 -24.5 92.5t-67 67t-93.5 24.5q-49 0 -91.5 -24.5t-67.5 -67t-25 -92.5q0 -49 25 -91.5t67.5 -67.5t91.5 -25
q50 0 92.5 25zM198 615h94q30 0 52 -21t22 -51t-22 -50.5t-52 -20.5h-50v-83h-44v226zM288 514q14 0 23.5 8t9.5 21q0 12 -9 21t-23 9h-47v-59h46z" />
    <glyph glyph-name="prescription" unicode="&#x211e;" horiz-adv-x="687" 
d="M167 -156l202 230l-109 218h-115l-52 -292h-85l127 716h235q56 0 100.5 -24t69.5 -67t25 -99q0 -88 -57.5 -149t-151.5 -79l-3 -3l77 -151l128 146h96l-1 -4l-186 -215l117 -227l-1 -4h-96l-81 161l-139 -161h-101zM311 371q71 0 119 41t48 112q0 48 -32.5 79.5
t-88.5 31.5h-152l-46 -264h152z" />
    <glyph glyph-name="uni2120" unicode="&#x2120;" horiz-adv-x="497" 
d="M163.5 599.5q20.5 -15.5 20.5 -46.5q0 -32 -25.5 -49.5t-55.5 -17.5q-29 0 -53.5 16t-33.5 44l39 17q6 -16 19.5 -26.5t28.5 -10.5t26 7.5t11 19.5q0 13 -12 21.5t-40 15.5q-29 7 -46.5 23.5t-17.5 41.5q0 29 23.5 47t55.5 18q25 0 47 -14.5t30 -37.5l-38 -15
q-2 8 -13.5 17.5t-25.5 9.5q-15 0 -25 -7t-10 -17q0 -18 40 -30q35 -11 55.5 -26.5zM430 612l2 44h-2l-67 -166h-31l-68 166h-2l2 -44v-122h-42v226h60l64 -164h2l64 164h60v-226h-42v122z" />
    <glyph glyph-name="trademark" unicode="&#x2122;" horiz-adv-x="500" 
d="M77 676h-69v40h180v-40h-67v-186h-44v186zM433 612l2 44h-2l-67 -166h-31l-68 166h-2l2 -44v-122h-42v226h60l64 -164h2l64 164h61v-226h-43v122z" />
    <glyph glyph-name="uni2126" unicode="&#x2126;" horiz-adv-x="800" 
d="M14 81h171l1 4q-61 40 -100.5 106t-39.5 152q0 104 52.5 193t145 142.5t207.5 53.5q94 0 163.5 -41.5t106 -111t36.5 -150.5q0 -111 -64 -199t-175 -145l-1 -4h165l-13 -81h-276l22 119q69 17 127.5 62.5t93 108.5t34.5 131t-29 120t-82 81t-122 29q-83 0 -153 -40.5
t-110.5 -109t-40.5 -149.5q0 -90 46 -149.5t118 -83.5l-22 -119h-274z" />
    <glyph glyph-name="estimated" unicode="&#x212e;" horiz-adv-x="785" 
d="M218.5 33q-82.5 49 -128.5 134.5t-46 190.5q0 100 44.5 185.5t124 137t179.5 51.5q104 0 182.5 -46.5t122 -131t43.5 -196.5l-1 -23h-556v-185q38 -52 97.5 -79t126.5 -27q82 0 147 38t100 120l63 -26q-34 -82 -115.5 -137t-195.5 -55q-105 0 -187.5 49zM512 650.5
q-55 21.5 -120 21.5q-62 0 -116.5 -24t-92.5 -70v-185h419v196q-35 40 -90 61.5z" />
    <glyph glyph-name="uni2153" unicode="&#x2153;" horiz-adv-x="805" 
d="M183 629l-55 -41l-31 49l111 79h56l-65 -366h-65zM658 723l49 -40l-588 -691l-52 41zM499.5 17.5q-34.5 25.5 -43.5 73.5l60 22q17 -62 70 -62q29 0 50 17.5t21 43.5q0 24 -17 37t-47 13h-32l11 56h35q28 0 47 15.5t19 39.5q0 20 -14 31t-34 11q-25 0 -40.5 -12.5
t-27.5 -32.5l-53 23q14 37 48.5 59t80.5 22q47 0 77.5 -26t30.5 -65q0 -29 -20 -55t-47 -36q23 -11 36.5 -31t13.5 -47q0 -52 -41.5 -87t-103.5 -35q-45 0 -79.5 25.5z" />
    <glyph glyph-name="uni2154" unicode="&#x2154;" horiz-adv-x="878" 
d="M77 406l158 136q56 42 56 78q0 21 -14.5 33t-36.5 12q-48 0 -71 -61l-55 25q12 45 49 70t83 25q49 0 80.5 -27.5t31.5 -69.5q0 -37 -18.5 -63.5t-57.5 -58.5l-113 -96h155l-11 -59h-246zM728 723l49 -40l-588 -691l-52 41zM557.5 17.5q-34.5 25.5 -43.5 73.5l60 22
q17 -62 70 -62q29 0 50 17.5t21 43.5q0 24 -17 37t-47 13h-32l11 56h35q28 0 47 15.5t19 39.5q0 20 -14 31t-34 11q-25 0 -40.5 -12.5t-27.5 -32.5l-53 23q14 37 48.5 59t80.5 22q47 0 77.5 -26t30.5 -65q0 -29 -20 -55t-47 -36q23 -11 36.5 -31t13.5 -47q0 -52 -41.5 -87
t-103.5 -35q-45 0 -79.5 25.5z" />
    <glyph glyph-name="oneeighth" unicode="&#x215b;" horiz-adv-x="795" 
d="M184 629l-55 -41l-31 49l111 79h56l-65 -366h-65zM656 723l49 -40l-588 -691l-52 41zM475.5 22q-33.5 30 -33.5 75q0 32 21 58.5t53 39.5q-13 9 -23 26t-10 37q0 31 17.5 58t48.5 42.5t70 15.5q45 0 76.5 -25t31.5 -66q0 -28 -15.5 -52t-39.5 -38q18 -13 28 -32.5
t10 -43.5q0 -56 -43 -90.5t-106 -34.5q-52 0 -85.5 30zM642 232.5q19 14.5 19 40.5q0 18 -14.5 30t-36.5 12q-25 0 -42.5 -15.5t-17.5 -39.5q0 -19 13.5 -30.5t33.5 -11.5q26 0 45 14.5zM623.5 67q20.5 16 20.5 45q0 23 -17 37.5t-46 14.5t-50.5 -17.5t-21.5 -45.5
q0 -23 17.5 -36.5t45.5 -13.5q31 0 51.5 16z" />
    <glyph glyph-name="threeeighths" unicode="&#x215c;" horiz-adv-x="843" 
d="M117.5 367.5q-34.5 25.5 -43.5 73.5l60 22q17 -62 70 -62q29 0 50 17.5t21 43.5q0 24 -16.5 37t-46.5 13h-33l11 56h35q28 0 47 15.5t19 39.5q0 20 -14 31t-34 11q-25 0 -40.5 -12.5t-27.5 -32.5l-53 23q14 37 48.5 59t80.5 22q47 0 77.5 -26t30.5 -65q0 -29 -20 -55
t-47 -36q23 -11 36.5 -31t13.5 -47q0 -52 -41.5 -87t-103.5 -35q-45 0 -79.5 25.5zM701 723l49 -40l-588 -691l-52 41zM519.5 22q-33.5 30 -33.5 75q0 32 21 58.5t53 39.5q-13 9 -23 26t-10 37q0 31 17.5 58t48.5 42.5t70 15.5q45 0 76.5 -25t31.5 -66q0 -28 -15.5 -52
t-39.5 -38q18 -13 28 -32.5t10 -43.5q0 -56 -43 -90.5t-106 -34.5q-52 0 -85.5 30zM686 232.5q19 14.5 19 40.5q0 18 -14.5 30t-36.5 12q-25 0 -42.5 -15.5t-17.5 -39.5q0 -19 13.5 -30.5t33.5 -11.5q26 0 45 14.5zM667.5 67q20.5 16 20.5 45q0 23 -17 37.5t-46 14.5
t-50.5 -17.5t-21.5 -45.5q0 -23 17.5 -36.5t45.5 -13.5q31 0 51.5 16z" />
    <glyph glyph-name="fiveeighths" unicode="&#x215d;" horiz-adv-x="844" 
d="M115 366q-35 23 -42 68l62 22q5 -25 22 -39.5t43 -14.5q31 0 54.5 23t23.5 55q0 27 -16.5 43t-41.5 16q-41 0 -67 -35l-53 23l58 189h207l-9 -56h-152l-28 -86q12 10 29.5 15.5t35.5 5.5q46 0 75.5 -29.5t29.5 -80.5q0 -63 -44 -102.5t-108 -39.5q-44 0 -79 23zM700 723
l49 -40l-588 -691l-52 41zM520.5 22q-33.5 30 -33.5 75q0 32 21 58.5t53 39.5q-13 9 -23 26t-10 37q0 31 17.5 58t48.5 42.5t70 15.5q45 0 76.5 -25t31.5 -66q0 -28 -15.5 -52t-39.5 -38q18 -13 28 -32.5t10 -43.5q0 -56 -43 -90.5t-106 -34.5q-52 0 -85.5 30zM687 232.5
q19 14.5 19 40.5q0 18 -14.5 30t-36.5 12q-25 0 -42.5 -15.5t-17.5 -39.5q0 -19 13.5 -30.5t33.5 -11.5q26 0 45 14.5zM668.5 67q20.5 16 20.5 45q0 23 -17 37.5t-46 14.5t-50.5 -17.5t-21.5 -45.5q0 -23 17.5 -36.5t45.5 -13.5q31 0 51.5 16z" />
    <glyph glyph-name="seveneighths" unicode="&#x215e;" horiz-adv-x="768" 
d="M288 657h-175l10 59h248l-10 -55l-233 -326l-48 34zM610 723l49 -40l-588 -691l-52 41zM445.5 22q-33.5 30 -33.5 75q0 32 21 58.5t53 39.5q-13 9 -23 26t-10 37q0 31 17.5 58t48.5 42.5t70 15.5q45 0 76.5 -25t31.5 -66q0 -28 -15.5 -52t-39.5 -38q18 -13 28 -32.5
t10 -43.5q0 -56 -43 -90.5t-106 -34.5q-52 0 -85.5 30zM612 232.5q19 14.5 19 40.5q0 18 -14.5 30t-36.5 12q-25 0 -42.5 -15.5t-17.5 -39.5q0 -19 13.5 -30.5t33.5 -11.5q26 0 45 14.5zM593.5 67q20.5 16 20.5 45q0 23 -17 37.5t-46 14.5t-50.5 -17.5t-21.5 -45.5
q0 -23 17.5 -36.5t45.5 -13.5q31 0 51.5 16z" />
    <glyph glyph-name="uni2160" unicode="&#x2160;" horiz-adv-x="440" 
d="M-21 81h152l92 522h-154l15 81h392l-15 -81h-154l-91 -522h153l-14 -81h-391z" />
    <glyph glyph-name="uni2161" unicode="&#x2161;" horiz-adv-x="700" 
d="M-21 81h152l92 522h-154l15 81h652l-15 -81h-154l-91 -522h153l-14 -81h-651zM391 81l92 522h-176l-91 -522h175z" />
    <glyph glyph-name="uni2162" unicode="&#x2162;" horiz-adv-x="960" 
d="M-21 81h152l92 522h-154l15 81h912l-15 -81h-154l-91 -522h153l-14 -81h-911zM391 81l92 522h-176l-91 -522h175zM651 81l92 522h-176l-91 -522h175z" />
    <glyph glyph-name="uni2163" unicode="&#x2163;" horiz-adv-x="982" 
d="M-21 81h152l92 522h-154l15 81h934l-15 -81h-118l-257 -522h283l-14 -81h-933zM504 81l-72 522h-125l-91 -522h288zM579 143l24 52l192 408h-278l52 -408l6 -52h4z" />
    <glyph glyph-name="uni2164" unicode="&#x2164;" horiz-adv-x="738" 
d="M-21 81h281l-72 522h-119l15 81h690l-15 -81h-118l-257 -522h283l-14 -81h-689zM335 143l24 52l192 408h-278l52 -408l6 -52h4z" />
    <glyph glyph-name="uni2165" unicode="&#x2165;" horiz-adv-x="1010" 
d="M-21 81h281l-72 522h-119l15 81h934l-15 -81h-154l-91 -522h153l-14 -81h-933zM335 143l24 52l192 408h-278l52 -408l6 -52h4zM673 81l92 522h-124l-257 -522h289z" />
    <glyph glyph-name="uni2166" unicode="&#x2166;" horiz-adv-x="1250" 
d="M-21 81h281l-72 522h-119l15 81h1194l-15 -81h-154l-91 -522h153l-14 -81h-1193zM335 143l24 52l192 408h-278l52 -408l6 -52h4zM673 81l92 522h-124l-257 -522h289zM933 81l92 522h-176l-91 -522h175z" />
    <glyph glyph-name="uni2167" unicode="&#x2167;" horiz-adv-x="1502" 
d="M-21 81h281l-72 522h-119l15 81h1454l-15 -81h-154l-91 -522h153l-14 -81h-1453zM335 143l24 52l192 408h-278l52 -408l6 -52h4zM673 81l92 522h-124l-257 -522h289zM933 81l92 522h-176l-91 -522h175zM1193 81l92 522h-176l-91 -522h175z" />
    <glyph glyph-name="uni2168" unicode="&#x2168;" horiz-adv-x="930" 
d="M-21 81h152l92 522h-154l15 81h882l-15 -81h-100l-218 -260l127 -262h99l-14 -81h-881zM313 81l223 266l-124 256h-105l-91 -522h97zM619 447l131 156h-242l75 -156l13 -28zM664 81l-81 169l-10 20l-17 -20l-141 -169h249z" />
    <glyph glyph-name="uni2169" unicode="&#x2169;" horiz-adv-x="687" 
d="M-21 81h91l223 266l-124 256h-100l15 81h639l-15 -81h-100l-218 -260l127 -262h99l-14 -81h-638zM376 447l131 156h-242l75 -156l13 -28zM421 81l-81 169l-10 20l-17 -20l-141 -169h249z" />
    <glyph glyph-name="uni216A" unicode="&#x216a;" horiz-adv-x="930" 
d="M-21 81h91l223 266l-124 256h-100l15 81h882l-15 -81h-153l-92 -522h153l-14 -81h-881zM376 447l131 156h-242l75 -156l13 -28zM621 81l92 522h-105l-218 -260l127 -262h104zM421 81l-81 169l-10 20l-17 -20l-141 -169h249z" />
    <glyph glyph-name="uni216B" unicode="&#x216b;" horiz-adv-x="1190" 
d="M-21 81h91l223 266l-124 256h-100l15 81h1142l-15 -81h-153l-92 -522h153l-14 -81h-1141zM376 447l131 156h-242l75 -156l13 -28zM621 81l92 522h-105l-218 -260l127 -262h104zM881 81l92 522h-175l-92 -522h175zM421 81l-81 169l-10 20l-17 -20l-141 -169h249z" />
    <glyph glyph-name="uni216C" unicode="&#x216c;" horiz-adv-x="616" 
d="M-21 81h128l92 522h-130l15 81h344l-14 -81h-130l-92 -522h265l26 147h85l-41 -228h-563z" />
    <glyph glyph-name="uni216D" unicode="&#x216d;" horiz-adv-x="730" 
d="M186.5 23.5q-70.5 39.5 -110 109.5t-39.5 160q0 107 54 201t145.5 150t200.5 56q73 0 128 -26t82 -64h4l13 74h81l-36 -201h-81q-18 64 -68.5 100t-126.5 36q-81 0 -152 -43t-113.5 -116.5t-42.5 -159.5q0 -73 30 -126t81.5 -81t115.5 -28q75 0 136.5 32t116.5 100
l62 -45q-66 -85 -144.5 -126.5t-176.5 -41.5q-89 0 -159.5 39.5z" />
    <glyph glyph-name="uni216E" unicode="&#x216e;" horiz-adv-x="729" 
d="M106 81l91 522h-128l15 81h308q86 0 154 -39t106.5 -107.5t38.5 -153.5q0 -112 -53.5 -199.5t-146.5 -136t-207 -48.5h-320l15 81h127zM449.5 118.5q71.5 37.5 113 104.5t41.5 153q0 107 -60.5 167t-166.5 60h-95l-92 -522h100q88 0 159.5 37.5z" />
    <glyph glyph-name="uni216F" unicode="&#x216f;" horiz-adv-x="978" 
d="M-21 81h126l92 522h-128l15 81h248l115 -554h4l309 554h254l-14 -81h-128l-93 -522h129l-15 -81h-310l14 81h97l62 346l27 128h-4l-315 -555h-73l-117 555h-4l-19 -128l-62 -346h99l-14 -81h-310z" />
    <glyph glyph-name="uni2180" unicode="&#x2180;" horiz-adv-x="1072" 
d="M182 39q-68 39 -106.5 107.5t-38.5 153.5q0 112 53.5 199.5t146.5 136t207 48.5h288q87 0 155 -39t106.5 -107.5t38.5 -153.5q0 -112 -53.5 -199.5t-146.5 -136t-207 -48.5h-289q-86 0 -154 39zM445 81l93 522h-100q-88 0 -160 -37.5t-113 -104.5t-41 -153
q0 -107 60.5 -167t166.5 -60h94zM630 81q88 0 160 37.5t113 104.5t41 153q0 107 -60.5 167t-165.5 60h-96l-91 -522h99z" />
    <glyph glyph-name="uni2181" unicode="&#x2181;" horiz-adv-x="726" 
d="M103 81l91 522h-128l15 81h308q86 0 154 -39t106.5 -107.5t38.5 -153.5q0 -112 -53.5 -199.5t-146.5 -136t-207 -48.5h-320l15 81h127zM447 118.5q72 37.5 113 104.5t41 153q0 107 -60.5 167t-166.5 60h-95l-17 -95h40q69 0 108.5 -40t39.5 -109q0 -52 -26 -93.5
t-71.5 -65.5t-102.5 -24h-46l-17 -95h100q88 0 160 37.5zM215 243h47q53 0 85 30.5t32 81.5q0 39 -24 62.5t-65 23.5h-40z" />
    <glyph glyph-name="uni2182" unicode="&#x2182;" horiz-adv-x="1070" 
d="M182 39q-68 39 -106.5 107.5t-38.5 153.5q0 112 53.5 199.5t146.5 136t207 48.5h288q87 0 155 -39t106.5 -107.5t38.5 -153.5q0 -112 -53.5 -199.5t-146.5 -136t-207 -48.5h-289q-86 0 -154 39zM445 81l17 95h-38q-70 0 -109.5 40t-39.5 109q0 52 26 93.5t71.5 65.5
t102.5 24h46l17 95h-100q-88 0 -160 -37.5t-113 -104.5t-41 -153q0 -107 60.5 -167t166.5 -60h94zM630 81q88 0 160 37.5t113 104.5t41 153q0 107 -60.5 167t-165.5 60h-96l-16 -95h39q69 0 109 -40t40 -109q0 -52 -26 -93.5t-71.5 -65.5t-102.5 -24h-47l-16 -95h99z
M474 243l35 198h-46q-53 0 -85 -30.5t-32 -81.5q0 -39 24 -62.5t65 -23.5h39zM605 243q53 0 85 30.5t32 81.5q0 39 -23.5 62.5t-64.5 23.5h-40l-36 -198h47z" />
    <glyph glyph-name="arrowleft" unicode="&#x2190;" horiz-adv-x="1078" 
d="M49 310l186 186v-151h786v-70h-786v-151z" />
    <glyph glyph-name="arrowup" unicode="&#x2191;" horiz-adv-x="454" 
d="M192 631h-151l186 186l186 -186h-151v-748h-70v748z" />
    <glyph glyph-name="arrowright" unicode="&#x2192;" horiz-adv-x="1078" 
d="M843 275h-786v70h786v151l186 -186l-186 -186v151z" />
    </font>
</defs>
</svg>
