<?xml version="1.0" standalone="no"?>
<!DOCTYPE svg PUBLIC "-//W3C//DTD SVG 1.1//EN" "http://www.w3.org/Graphics/SVG/1.1/DTD/svg11.dtd" >
<svg xmlns="http://www.w3.org/2000/svg" xmlns:xlink="http://www.w3.org/1999/xlink" version="1.1">
<metadata>
Created by FontForge 20170731 at Thu Jul 20 19:12:18 2017
 By Aleksey,,,
Copyright 2017 Google, Inc. All Rights Reserved.
</metadata>
<defs>
<font id="GoogleSansDisplay-BoldItalic" horiz-adv-x="650" >
  <font-face 
    font-family="Google Sans Display"
    font-weight="700"
    font-style="italic"
    font-stretch="normal"
    units-per-em="1000"
    panose-1="2 11 8 3 3 5 2 11 2 3"
    ascent="800"
    descent="-200"
    x-height="496"
    cap-height="716"
    bbox="-414 -286 3284 964"
    underline-thickness="84"
    underline-position="-244"
    slope="-10"
    unicode-range="U+0002-2792"
  />
<missing-glyph horiz-adv-x="570" 
d="M498 716v-716h-426v716h426zM434 60v596h-298v-596h298z" />
    <glyph glyph-name="f_b" unicode="fb" horiz-adv-x="986" 
d="M571.5 5.5q-40.5 21.5 -61.5 54.5h-8l-11 -60h-122l106 600h-118q-33 0 -54.5 -19t-28.5 -56l-5 -29h115l-20 -112h-115l-67 -384h-131l68 384h-89l19 112h89l6 30q17 98 73.5 146t160.5 48h249l-39 -213l-20 -70h8q23 31 62 53t93 22q57 0 104 -28.5t74 -81t27 -121.5
q0 -83 -36.5 -151t-99 -107t-136.5 -39q-52 0 -92.5 21.5zM727.5 126.5q35.5 21.5 56.5 58t21 81.5q0 55 -33 90t-85 35q-46 0 -81.5 -22.5t-54.5 -61t-19 -82.5q0 -54 34.5 -87t83.5 -33q42 0 77.5 21.5z" />
    <glyph glyph-name="f_f" unicode="ff" horiz-adv-x="722" 
d="M119 384h-89l19 112h89l7 42q15 91 71.5 138.5t144.5 47.5q34 0 56 -6l-22 -125q-22 8 -41 8q-31 0 -52 -19t-27 -52l-6 -34h187l7 42q15 91 72 138.5t147 47.5q46 0 78 -14l-23 -124q-28 15 -60 15q-33 0 -56 -19t-29 -52l-5 -34h122l-20 -112h-123l-68 -384h-130
l68 384h-187l-67 -384h-131z" />
    <glyph glyph-name="f_f_b" unicode="ffb" horiz-adv-x="1302" 
d="M888 5q-40 21 -62 55h-8l-10 -60h-123l106 600h-117q-34 0 -55.5 -19t-27.5 -56l-6 -29h115l-20 -112h-114l-68 -384h-130l67 384h-186l-67 -384h-131l68 384h-89l19 112h89l7 42q15 91 71.5 138.5t144.5 47.5q34 0 56 -6l-22 -125q-22 8 -41 8q-31 0 -52 -19t-27 -52
l-6 -34h186l5 30q17 98 73.5 146t160.5 48h249l-38 -213l-21 -70h8q23 32 62.5 53.5t93.5 21.5q57 0 103.5 -28.5t74 -81t27.5 -121.5q0 -83 -37 -151t-99.5 -107t-136.5 -39q-52 0 -92 21zM1044 126.5q36 21.5 56.5 58t20.5 81.5q0 55 -33 90t-85 35q-46 0 -81.5 -22.5
t-54.5 -61t-19 -82.5q0 -54 34.5 -87t83.5 -33q42 0 78 21.5z" />
    <glyph glyph-name="f_f_h" unicode="ffh" horiz-adv-x="1276" 
d="M119 384h-89l19 112h89l7 42q15 91 71.5 138.5t144.5 47.5q34 0 56 -6l-22 -125q-22 8 -41 8q-31 0 -52 -19t-27 -52l-6 -34h186l5 30q17 98 73.5 146t160.5 48h249l-35 -198l-23 -90h8q26 38 67.5 59t93.5 21q75 0 116.5 -44t41.5 -111q0 -32 -5 -61l-53 -296h-131
l51 285q3 14 3 32q0 32 -20.5 53t-56.5 21q-57 0 -92 -39.5t-48 -107.5l-43 -244h-131l105 600h-117q-34 0 -55.5 -19t-27.5 -56l-6 -29h115l-20 -112h-114l-68 -384h-130l67 384h-186l-67 -384h-131z" />
    <glyph glyph-name="f_f_i" unicode="ffi" horiz-adv-x="949" 
d="M802.5 587q-24.5 25 -24.5 60t25 59.5t59 24.5q35 0 60 -24.5t25 -59.5t-25 -60t-60 -25t-59.5 25zM119 384h-89l19 112h89l7 42q15 91 71.5 138.5t144.5 47.5q34 0 56 -6l-22 -125q-22 8 -41 8q-31 0 -52 -19t-27 -52l-6 -34h186l7 42q15 91 71 138.5t144 47.5
q34 0 56 -6l-22 -125q-22 8 -41 8q-31 0 -52 -19t-27 -52l-6 -34h317l-87 -496h-130l66 384h-185l-68 -384h-131l68 384h-186l-67 -384h-131z" />
    <glyph glyph-name="f_f_j" unicode="ffj" horiz-adv-x="949" 
d="M802.5 587q-24.5 25 -24.5 60t25 59.5t59 24.5q35 0 60 -24.5t25 -59.5t-25 -60t-60 -25t-59.5 25zM550 -217l21 122q19 -11 49 -11q25 0 38 14t18 42l75 434h-185l-68 -384h-131l68 384h-186l-67 -384h-131l68 384h-89l19 112h89l7 42q15 91 71.5 138.5t144.5 47.5
q34 0 56 -6l-22 -125q-22 8 -41 8q-31 0 -52 -19t-27 -52l-6 -34h186l7 42q15 91 71 138.5t144 47.5q34 0 56 -6l-22 -125q-22 8 -41 8q-31 0 -52 -19t-27 -52l-6 -34h317l-96 -550q-17 -98 -63.5 -135t-124.5 -37q-39 0 -68 9z" />
    <glyph glyph-name="f_f_k" unicode="ffk" horiz-adv-x="1233" 
d="M119 384h-89l19 112h89l7 42q15 91 71.5 138.5t144.5 47.5q34 0 56 -6l-22 -125q-22 8 -41 8q-31 0 -52 -19t-27 -52l-6 -34h186l5 30q17 98 73.5 146t160.5 48h249l-68 -389h6l193 165h167l-2 -8l-220 -184l149 -296l-2 -8h-149l-103 218l-70 -59l-28 -159h-131l106 600
h-117q-34 0 -55.5 -19t-27.5 -56l-6 -29h115l-20 -112h-114l-68 -384h-130l67 384h-186l-67 -384h-131z" />
    <glyph glyph-name="f_f_l" unicode="ffl" horiz-adv-x="942" 
d="M119 384h-89l19 112h89l7 42q15 91 71.5 138.5t144.5 47.5q34 0 56 -6l-22 -125q-22 8 -41 8q-31 0 -52 -19t-27 -52l-6 -34h186l5 30q17 98 73.5 146t160.5 48h249l-127 -720h-131l106 600h-117q-34 0 -55.5 -19t-27.5 -56l-6 -29h115l-20 -112h-114l-68 -384h-130
l67 384h-186l-67 -384h-131z" />
    <glyph glyph-name="f_f_t" unicode="fft" horiz-adv-x="1060" 
d="M751.5 28q-39.5 36 -39.5 103q0 19 5 52l35 201h-186l-68 -384h-131l68 384h-186l-67 -384h-131l68 384h-89l19 112h89l7 42q15 91 71.5 138.5t144.5 47.5q34 0 56 -6l-22 -125q-22 8 -41 8q-31 0 -52 -19t-27 -52l-6 -34h186l7 42q15 91 71 138.5t144 47.5q34 0 56 -6
l-22 -125q-22 8 -41 8q-31 0 -52 -19t-27 -52l-6 -34h187l26 148h131l-26 -148h122l-20 -112h-122l-35 -195q-2 -22 -2 -24q0 -23 12.5 -36.5t37.5 -13.5q28 0 52 15l9 -120q-36 -18 -99 -18q-67 0 -106.5 36z" />
    <glyph glyph-name="f_h" unicode="fh" horiz-adv-x="960" 
d="M119 384h-89l19 112h89l6 30q16 98 73 146t161 48h249l-35 -198l-24 -90h8q26 38 68 59t94 21q75 0 116.5 -44t41.5 -111q0 -33 -6 -61l-52 -296h-131l51 285q3 27 3 32q0 33 -20.5 53.5t-57.5 20.5q-57 0 -92 -39.5t-47 -107.5l-44 -244h-130l105 600h-118
q-33 0 -54.5 -19t-28.5 -56l-5 -29h115l-20 -112h-115l-67 -384h-131z" />
    <glyph glyph-name="f_i" unicode="fi" horiz-adv-x="633" 
d="M486 587q-25 25 -25 60t25 59.5t60 24.5t59.5 -24.5t24.5 -59.5t-24.5 -60t-59.5 -25t-60 25zM119 384h-89l19 112h89l7 42q15 91 71.5 138.5t144.5 47.5q34 0 56 -6l-22 -125q-22 8 -41 8q-31 0 -52 -19t-27 -52l-6 -34h316l-86 -496h-131l67 384h-186l-67 -384h-131z
" />
    <glyph glyph-name="f_j" unicode="fj" horiz-adv-x="633" 
d="M486.5 585.5q-24.5 24.5 -24.5 59.5t24.5 59.5t59.5 24.5t60 -24.5t25 -59.5t-25 -59.5t-60 -24.5t-59.5 24.5zM233 -217l22 122q18 -11 48 -11q26 0 38.5 13.5t18.5 42.5l75 434h-186l-67 -384h-131l68 384h-89l19 112h89l7 42q15 91 71.5 138.5t144.5 47.5q34 0 56 -6
l-22 -125q-22 8 -41 8q-31 0 -52 -19t-27 -52l-6 -34h316l-95 -550q-18 -99 -64 -135.5t-124 -36.5q-40 0 -69 9z" />
    <glyph glyph-name="f_k" unicode="fk" horiz-adv-x="916" 
d="M119 384h-89l19 112h89l6 30q16 98 73 146t161 48h249l-69 -391h7l194 167h166l-2 -8l-220 -184l148 -296l-1 -8h-149l-103 218l-70 -59l-28 -159h-131l106 600h-118q-33 0 -54.5 -19t-28.5 -56l-5 -29h115l-20 -112h-115l-67 -384h-131z" />
    <glyph glyph-name="f_l" unicode="fl" horiz-adv-x="625" 
d="M475 600h-118q-33 0 -54.5 -19t-28.5 -56l-5 -29h115l-20 -112h-115l-67 -384h-131l68 384h-89l19 112h89l6 30q17 98 73.5 146t160.5 48h249l-127 -720h-131z" />
    <glyph glyph-name="f_t" unicode="ft" horiz-adv-x="728" 
d="M435 28q-39 36 -39 103q0 27 5 52l35 201h-187l-67 -384h-131l68 384h-89l19 112h89l7 42q15 91 71.5 138.5t144.5 47.5q34 0 56 -6l-22 -125q-22 8 -41 8q-31 0 -52 -19t-27 -52l-6 -34h186l27 148h131l-27 -148h122l-20 -112h-122l-34 -195q-2 -11 -2 -24
q0 -23 12.5 -36.5t36.5 -13.5q19 0 34 4.5t34 14.5l-22 -126q-41 -16 -87 -16q-64 0 -103 36z" />
    <glyph glyph-name="r_f" unicode="rf" horiz-adv-x="816" 
d="M86 496h122l-12 -68h8q27 39 67.5 60.5t93.5 21.5q27 0 45 -5l-23 -129q-22 11 -55 11q-62 0 -105.5 -40t-54.5 -105l-43 -242h-130zM534 384h-89l19 112h90l7 42q15 91 72 138.5t147 47.5q46 0 78 -14l-22 -124q-30 15 -61 15q-33 0 -56 -19t-28 -52l-6 -34h122
l-20 -112h-123l-67 -384h-131z" />
    <glyph glyph-name="r_f_f" unicode="rff" horiz-adv-x="1134" 
d="M86 496h122l-12 -68h8q27 39 67.5 60.5t93.5 21.5q27 0 45 -5l-23 -129q-22 11 -55 11q-62 0 -105.5 -40t-54.5 -105l-43 -242h-130zM531 384h-89l19 112h89l7 42q15 91 71.5 138.5t144.5 47.5q34 0 56 -6l-22 -125q-22 8 -41 8q-31 0 -52 -19t-27 -52l-6 -34h187l7 42
q15 91 72 138.5t147 47.5q46 0 78 -14l-23 -124q-28 15 -60 15q-33 0 -56 -19t-29 -52l-5 -34h122l-20 -112h-123l-68 -384h-130l68 384h-187l-67 -384h-131z" />
    <glyph glyph-name="r_t" unicode="rt" horiz-adv-x="833" 
d="M86 496h122l-12 -68h8q27 39 67.5 60.5t93.5 21.5q27 0 45 -5l-23 -129q-22 11 -55 11q-62 0 -105.5 -40t-54.5 -105l-43 -242h-130zM540 28q-39 36 -39 103q0 27 5 52l35 201h-87l20 112h87l26 148h131l-26 -148h122l-20 -112h-122l-35 -195q-2 -22 -2 -24
q0 -23 12.5 -36.5t37.5 -13.5q18 0 33 4.5t34 14.5l-22 -126q-39 -16 -87 -16q-64 0 -103 36z" />
    <glyph glyph-name="t_f" unicode="tf" horiz-adv-x="723" 
d="M117.5 28q-39.5 36 -39.5 103q0 27 5 52l35 201h-87l20 112h87l26 148h131l-27 -148h189l7 42q15 91 72 138.5t147 47.5q46 0 78 -14l-23 -124q-28 15 -60 15q-33 0 -56 -19t-29 -52l-6 -34h123l-20 -112h-123l-68 -384h-130l67 384h-187l-35 -195q-2 -22 -2 -24
q0 -23 12.5 -36.5t37.5 -13.5q24 0 52 14l-22 -125q-31 -12 -68 -12q-67 0 -106.5 36z" />
    <glyph glyph-name="t_t" unicode="tt" horiz-adv-x="745" 
d="M117.5 28q-39.5 36 -39.5 103q0 27 5 52l35 201h-87l20 112h87l26 148h131l-27 -148h188l27 148h130l-26 -148h122l-20 -112h-122l-34 -195q-2 -11 -2 -24q0 -23 12 -36.5t37 -13.5q28 0 52 15l10 -120q-36 -18 -100 -18q-67 0 -106.5 36t-39.5 103q0 19 5 52l36 201
h-188l-35 -195q-2 -22 -2 -24q0 -23 12.5 -36.5t37.5 -13.5q24 0 52 14l-22 -125q-31 -12 -68 -12q-67 0 -106.5 36z" />
    <glyph glyph-name=".notdef" horiz-adv-x="570" 
d="M498 716v-716h-426v716h426zM434 60v596h-298v-596h298z" />
    <glyph glyph-name=".null" horiz-adv-x="0" 
 />
    <glyph glyph-name="nonmarkingreturn" unicode="&#xd;" horiz-adv-x="0" 
d="M0 0z" />
    <glyph glyph-name="uni0002" horiz-adv-x="0" 
d="M0 0z" />
    <glyph glyph-name="uni0009" unicode="&#x9;" horiz-adv-x="0" 
d="M0 0z" />
    <glyph glyph-name="uni000A" unicode="&#xa;" horiz-adv-x="0" 
d="M0 0z" />
    <glyph glyph-name="space" unicode=" " horiz-adv-x="220" 
d="M0 0z" />
    <glyph glyph-name="exclam" unicode="!" horiz-adv-x="269" 
d="M94 510l36 206h135l-36 -206l-60 -264h-109zM25 19.5q-25 25.5 -25 61.5t25 61t61 25t61.5 -25t25.5 -61t-25.5 -61.5t-61.5 -25.5t-61 25.5z" />
    <glyph glyph-name="quotedbl" unicode="&#x22;" horiz-adv-x="379" 
d="M107 716h119l-40 -226h-119zM279 716h119l-40 -226h-119z" />
    <glyph glyph-name="numbersign" unicode="#" horiz-adv-x="657" 
d="M134 192h-116l20 102h114l18 105h-117l19 102h115l33 183h111l-33 -183h112l33 183h110l-32 -183h115l-18 -102h-115l-18 -105h117l-18 -102h-117l-33 -192h-111l34 192h-112l-34 -192h-111zM376 292l19 109h-116l-19 -109h116z" />
    <glyph glyph-name="dollar" unicode="$" horiz-adv-x="559" 
d="M178 -11q-69 14 -119.5 64.5t-62.5 126.5l117 47q7 -40 29.5 -70.5t57.5 -42.5l33 190q-154 67 -154 195q0 54 28 97t78.5 70t117.5 32l15 86h89l-16 -90q62 -14 99.5 -53t52.5 -88l-118 -45q-9 24 -22 40t-33 24l-32 -180q80 -36 119 -80.5t39 -109.5q0 -93 -63 -149.5
t-166 -65.5l-15 -87h-89zM282 579q-36 -6 -57.5 -24.5t-21.5 -50.5q0 -22 12.5 -39.5t40.5 -33.5zM343.5 138q20.5 21 20.5 55q0 25 -11.5 41.5t-36.5 31.5l-27 -157q34 8 54.5 29z" />
    <glyph glyph-name="percent" unicode="%" horiz-adv-x="841" 
d="M105 39l561 662l67 -58l-561 -662zM105 400.5q-45 42.5 -45 107.5q0 51 25.5 95t71.5 70.5t105 26.5q68 0 112 -42.5t44 -108.5q0 -53 -26 -96.5t-71.5 -69t-99.5 -25.5q-71 0 -116 42.5zM286.5 480.5q22.5 24.5 22.5 59.5q0 27 -16.5 44.5t-41.5 17.5q-36 0 -59 -23.5
t-23 -59.5q0 -28 17.5 -45.5t43.5 -17.5q34 0 56.5 24.5zM465 26.5q-45 42.5 -45 107.5q0 51 26 95t72 70.5t105 26.5q68 0 112 -42.5t44 -108.5q0 -53 -26.5 -96.5t-71.5 -69t-99 -25.5q-72 0 -117 42.5zM647 106.5q23 24.5 23 59.5q0 27 -17 44.5t-42 17.5
q-36 0 -59 -23.5t-23 -59.5q0 -28 17.5 -45.5t43.5 -17.5q34 0 57 24.5z" />
    <glyph glyph-name="ampersand" unicode="&#x26;" horiz-adv-x="647" 
d="M120.5 11.5q-51.5 27.5 -82 77.5t-30.5 115q0 78 39 139t114 102q-25 52 -25 94q0 52 25 96.5t72 70.5t109 26q69 0 111 -33.5t61 -89.5l-117 -51q-6 25 -24.5 42t-46.5 17t-47.5 -18.5t-19.5 -45.5q0 -16 5.5 -30t16.5 -32l162 -262l79 106l82 -62l-104 -135l55 -89
l-107 -65l-36 57q-37 -30 -80 -43.5t-98 -13.5q-62 0 -113.5 27.5zM354 133l-137 219q-81 -49 -81 -129q0 -54 36 -87.5t87 -33.5q53 0 95 31z" />
    <glyph glyph-name="quotesingle" unicode="'" horiz-adv-x="207" 
d="M107 716h119l-40 -226h-119z" />
    <glyph glyph-name="parenleft" unicode="(" horiz-adv-x="359" 
d="M86.5 35.5q-32.5 97.5 -32.5 209.5q0 152 69.5 289.5t196.5 245.5l84 -74q-109 -108 -164 -218t-55 -240q0 -95 21 -170t61 -145l-98 -69q-50 74 -82.5 171.5z" />
    <glyph glyph-name="parenright" unicode=")" horiz-adv-x="359" 
d="M-45 -62q108 108 163 218t55 240q0 95 -20.5 169.5t-60.5 145.5l97 69q50 -74 82.5 -171t32.5 -210q0 -153 -69 -290t-197 -245z" />
    <glyph glyph-name="asterisk" unicode="*" horiz-adv-x="464" 
d="M87 406l90 99l-2 9l-94 36l35 88l102 -39l9 3l20 114h95l-21 -114l8 -3l104 35l26 -86l-116 -43l-5 -9l56 -97l-85 -52l-56 100h-8l-88 -100z" />
    <glyph glyph-name="plus" unicode="+" horiz-adv-x="569" 
d="M200 213h-170l20 116h171l30 170h116l-30 -170h170l-20 -116h-171l-30 -170h-116z" />
    <glyph glyph-name="comma" unicode="," horiz-adv-x="271" 
d="M44 4q-42 28 -42 77q0 36 25.5 61t61.5 25t61.5 -25t25.5 -61q0 -34 -34 -72l-118 -142l-55 45z" />
    <glyph glyph-name="hyphen" unicode="-" horiz-adv-x="451" 
d="M396 368l-21 -116h-338l20 116h339z" />
    <glyph glyph-name="period" unicode="." horiz-adv-x="269" 
d="M24.5 19.5q-25.5 25.5 -25.5 61.5t25.5 61t61.5 25t61.5 -25t25.5 -61t-25.5 -61.5t-61.5 -25.5t-61.5 25.5z" />
    <glyph glyph-name="slash" unicode="/" horiz-adv-x="480" 
d="M385 716h132l-424 -716h-131z" />
    <glyph glyph-name="zero" unicode="0" horiz-adv-x="671" 
d="M156.5 19q-55.5 35 -86.5 103t-31 163q0 110 43.5 205t122.5 152.5t178 57.5q73 0 128.5 -35t86.5 -102.5t31 -163.5q0 -115 -45 -210t-123.5 -150t-176.5 -55q-72 0 -127.5 35zM397.5 144.5q45.5 37.5 71.5 102.5t26 143q0 89 -33 138t-92 49q-56 0 -101.5 -40.5
t-71 -106t-25.5 -136.5q0 -88 34 -137.5t90 -49.5t101.5 37.5z" />
    <glyph glyph-name="one" unicode="1" horiz-adv-x="431" 
d="M237 504l-105 -66l-57 101l223 145h102l-120 -684h-131z" />
    <glyph glyph-name="two" unicode="2" horiz-adv-x="553" 
d="M9 119q39 33 149.5 127.5t143.5 123.5q47 41 66 66t19 61q0 35 -25 57.5t-64 22.5q-41 0 -69 -24.5t-41 -61.5l-117 51q28 69 87.5 113.5t154.5 44.5q60 0 108 -23t75 -64.5t27 -94.5q0 -67 -35.5 -119.5t-109.5 -115.5l-191 -162l2 -6h273l-20 -115h-453z" />
    <glyph glyph-name="three" unicode="3" horiz-adv-x="568" 
d="M81.5 31.5q-62.5 47.5 -76.5 132.5l128 48q6 -48 35.5 -74.5t76.5 -26.5q51 0 85 28t34 74q0 41 -28 62.5t-80 21.5h-59l21 119h54q53 0 87 24t34 69q0 31 -23.5 51t-59.5 20q-40 0 -66 -23t-40 -57l-114 52q26 65 85 106.5t152 41.5q58 0 104 -22.5t72 -61t26 -85.5
q0 -60 -32 -102t-84 -63v-8q37 -20 60.5 -56t23.5 -84q0 -70 -34.5 -123t-95 -82t-136.5 -29q-87 0 -149.5 47.5z" />
    <glyph glyph-name="four" unicode="4" horiz-adv-x="623" 
d="M318 126h-315l18 109l379 449h147l-77 -436h85l-21 -122h-86l-22 -126h-131zM339 248l42 241h-8l-200 -241h166z" />
    <glyph glyph-name="five" unicode="5" horiz-adv-x="583" 
d="M134.5 5q-48.5 21 -82 63t-41.5 101l125 46q5 -50 34 -80t76 -30q55 0 93.5 34.5t38.5 91.5q0 43 -26.5 71.5t-70.5 28.5q-58 0 -104 -46l-118 51l101 348h385l-19 -115h-278l-54 -160l8 -3q49 42 115 42q54 0 97.5 -24.5t69 -70.5t25.5 -108q0 -72 -33.5 -131.5
t-95.5 -94.5t-143 -35q-54 0 -102.5 21z" />
    <glyph glyph-name="six" unicode="6" horiz-adv-x="576" 
d="M124.5 13q-50.5 29 -78.5 78t-28 107q0 50 16 92t42.5 78.5t73.5 89.5l219 246l89 -70l-173 -197l5 -5q26 8 48 8q44 0 84.5 -25.5t65 -71.5t24.5 -104q0 -71 -34 -129.5t-96 -92t-143 -33.5q-64 0 -114.5 29zM345 139.5q37 35.5 37 90.5q0 44 -30 72.5t-77 28.5
q-55 0 -91.5 -37t-36.5 -92q0 -43 30.5 -70.5t74.5 -27.5q56 0 93 35.5z" />
    <glyph glyph-name="seven" unicode="7" horiz-adv-x="554" 
d="M25 54l368 501l-2 6h-311l23 123h464l-22 -129l-424 -571z" />
    <glyph glyph-name="eight" unicode="8" horiz-adv-x="584" 
d="M117.5 10q-51.5 26 -79 69t-27.5 94q0 62 37.5 111.5t101.5 74.5l1 8q-26 20 -43 50.5t-17 68.5q0 61 34.5 109.5t93 76.5t127.5 28q58 0 103 -22t70.5 -61t25.5 -87q0 -57 -29.5 -99.5t-79.5 -67.5l-1 -8q35 -21 56.5 -57t21.5 -85q0 -68 -36.5 -120t-99 -80.5
t-140.5 -28.5q-68 0 -119.5 26zM388 440q31 26 31 66q0 34 -24.5 55.5t-64.5 21.5q-49 0 -81 -25t-32 -69q0 -34 26 -54.5t66 -20.5q48 0 79 26zM342.5 135q39.5 30 39.5 82q0 35 -28.5 58.5t-73.5 23.5q-53 0 -93.5 -30.5t-40.5 -79.5q0 -39 28 -61.5t73 -22.5
q56 0 95.5 30z" />
    <glyph glyph-name="nine" unicode="9" horiz-adv-x="576" 
d="M115 50l172 197l-5 5q-24 -8 -43 -8q-43 0 -84 25.5t-67.5 71.5t-26.5 104q0 71 34 129.5t96 92t143 33.5q64 0 114.5 -28.5t78.5 -78t28 -111.5q0 -49 -16 -90t-43 -77t-74 -89l-218 -246zM389.5 389.5q36.5 36.5 36.5 89.5q0 44 -31 72.5t-75 28.5q-55 0 -92 -35.5
t-37 -90.5q0 -44 30 -72.5t76 -28.5q56 0 92.5 36.5z" />
    <glyph glyph-name="colon" unicode=":" horiz-adv-x="269" 
d="M84.5 360.5q-25.5 25.5 -25.5 61.5t25.5 61.5t61.5 25.5t61.5 -25.5t25.5 -61.5t-25.5 -61.5t-61.5 -25.5t-61.5 25.5zM24.5 19.5q-25.5 25.5 -25.5 61.5t25.5 61t61.5 25t61.5 -25t25.5 -61t-25.5 -61.5t-61.5 -25.5t-61.5 25.5z" />
    <glyph glyph-name="semicolon" unicode=";" horiz-adv-x="271" 
d="M80.5 360.5q-25.5 25.5 -25.5 61.5t25.5 61.5t61.5 25.5t61.5 -25.5t25.5 -61.5t-25.5 -61.5t-61.5 -25.5t-61.5 25.5zM-31 -82l75 92q-19 14 -30.5 31.5t-11.5 45.5q0 36 26 61.5t61 25.5q36 0 61.5 -25.5t25.5 -61.5q0 -18 -8 -34.5t-26 -37.5l-118 -141z" />
    <glyph glyph-name="less" unicode="&#x3c;" horiz-adv-x="531" 
d="M31 222l18 104l449 188l-23 -133l-277 -109l-2 -8l239 -110l-22 -126z" />
    <glyph glyph-name="equal" unicode="=" horiz-adv-x="581" 
d="M77 477h468l-20 -116h-469zM41 277h469l-21 -116h-469z" />
    <glyph glyph-name="greater" unicode="&#x3e;" horiz-adv-x="531" 
d="M25 161l277 109l1 8l-238 110l22 126l382 -194l-19 -104l-449 -188z" />
    <glyph glyph-name="question" unicode="?" horiz-adv-x="514" 
d="M173 279q10 52 33.5 86t86.5 77q35 24 55 47t20 51q0 31 -22 50t-59 19q-40 0 -67.5 -23t-40.5 -59l-106 48q22 66 83 111.5t147 45.5q57 0 102 -22t70 -61t25 -88q0 -55 -30.5 -97t-89.5 -89q-40 -33 -56 -54.5t-23 -57.5l-3 -17h-131zM140.5 19.5
q-25.5 25.5 -25.5 61.5t25.5 61t61.5 25t61 -25t25 -61t-25 -61.5t-61 -25.5t-61.5 25.5z" />
    <glyph glyph-name="at" unicode="@" horiz-adv-x="877" 
d="M200.5 -35q-79.5 47 -122.5 125.5t-43 171.5q0 126 59 223t162 151t232 54q94 0 173.5 -40t127.5 -114t48 -172q0 -72 -24 -133.5t-68 -98t-103 -36.5q-42 0 -70.5 19t-38.5 53q-24 -35 -61.5 -53.5t-80.5 -18.5q-47 0 -87 23t-64 64t-24 92q0 57 25.5 109.5t75.5 86
t119 33.5q38 0 65.5 -14t42.5 -38h8l7 38h98l-44 -246q-2 -12 -2 -18q0 -20 11 -31.5t30 -11.5q40 0 65 51.5t25 119.5q0 70 -32 125.5t-93.5 87.5t-144.5 32q-96 0 -172.5 -43t-120 -118.5t-43.5 -170.5q0 -73 34.5 -132t92.5 -92.5t125 -33.5q77 0 140 33l31 -87
q-78 -37 -176 -37q-103 0 -182.5 47zM491.5 227.5q32.5 34.5 32.5 88.5q0 41 -25 66t-64 25q-52 0 -84.5 -36.5t-32.5 -87.5q0 -42 27 -66t65 -24q49 0 81.5 34.5z" />
    <glyph glyph-name="A" unicode="A" horiz-adv-x="720" 
d="M340 716h158l143 -716h-143l-32 171h-273l-89 -171h-154zM443 295l-33 180l-10 86h-8l-40 -86l-95 -180h186z" />
    <glyph glyph-name="B" unicode="B" horiz-adv-x="642" 
d="M141 716h255q67 0 115 -24t73 -64t25 -88q0 -66 -35.5 -107t-89.5 -58l-2 -8q43 -19 69 -56t26 -89q0 -67 -35.5 -117t-97.5 -77.5t-139 -27.5h-291zM360 424q52 0 83 24t31 68q0 35 -22.5 57t-61.5 22h-136l-30 -171h136zM321 123q51 0 86 26.5t35 72.5q0 39 -25 62.5
t-71 23.5h-143l-32 -185h150z" />
    <glyph glyph-name="C" unicode="C" horiz-adv-x="746" 
d="M195 24.5q-74 40.5 -116.5 115.5t-42.5 176q0 112 55 207.5t153.5 152t221.5 56.5q88 0 154 -32.5t106 -90.5l-107 -88q-31 41 -71.5 62t-99.5 21q-75 0 -138.5 -37.5t-101 -102t-37.5 -141.5q0 -63 26 -111t72.5 -74t105.5 -26q61 0 110.5 25t98.5 74l86 -97
q-68 -69 -139.5 -99.5t-168.5 -30.5q-93 0 -167 40.5z" />
    <glyph glyph-name="D" unicode="D" horiz-adv-x="733" 
d="M141 716h228q104 0 177.5 -40t111 -110.5t37.5 -163.5q0 -109 -52 -201t-149.5 -146.5t-225.5 -54.5h-254zM273 128q84 0 149 33.5t101 92.5t36 133q0 98 -51.5 149.5t-152.5 51.5h-102l-81 -460h101z" />
    <glyph glyph-name="E" unicode="E" horiz-adv-x="589" 
d="M141 716h454l-22 -128h-320l-29 -166h287l-23 -128h-287l-29 -166h319l-23 -128h-454z" />
    <glyph glyph-name="F" unicode="F" horiz-adv-x="569" 
d="M141 716h454l-22 -128h-320l-31 -174h288l-23 -128h-287l-51 -286h-135z" />
    <glyph glyph-name="G" unicode="G" horiz-adv-x="822" 
d="M203.5 27q-78.5 43 -122.5 120.5t-44 176.5q0 108 54.5 202t153.5 150t225 56q88 0 157 -31t111 -86l-107 -91q-26 36 -71.5 58t-103.5 22q-78 0 -142.5 -34.5t-102.5 -97t-38 -142.5q0 -66 28.5 -115.5t77.5 -76t111 -26.5q101 0 167 57q46 40 69 109h-222l21 115h350
q1 -8 1 -21q0 -88 -32.5 -161.5t-89.5 -126.5q-54 -49 -123 -74.5t-148 -25.5q-101 0 -179.5 43z" />
    <glyph glyph-name="H" unicode="H" horiz-adv-x="729" 
d="M141 716h135l-51 -286h302l51 286h135l-127 -716h-135l54 302h-302l-54 -302h-135z" />
    <glyph glyph-name="I" unicode="I" horiz-adv-x="293" 
d="M141 716h135l-127 -716h-135z" />
    <glyph glyph-name="J" unicode="J" horiz-adv-x="565" 
d="M109 6q-47 22 -78 61.5t-37 89.5l129 50q6 -46 34 -70.5t69 -24.5q46 0 76.5 30t39.5 84l86 490h135l-86 -489q-22 -124 -92.5 -183.5t-173.5 -59.5q-55 0 -102 22z" />
    <glyph glyph-name="K" unicode="K" horiz-adv-x="679" 
d="M141 716h135l-53 -303h8l311 303h167l-1 -8l-312 -298l212 -402l-2 -8h-157l-162 307l-100 -97l-38 -210h-135z" />
    <glyph glyph-name="L" unicode="L" horiz-adv-x="546" 
d="M141 716h135l-104 -588h303l-23 -128h-438z" />
    <glyph glyph-name="M" unicode="M" horiz-adv-x="895" 
d="M141 716h171l102 -503h8l278 503h178l-127 -716h-133l62 353l29 119h-8l-263 -472h-106l-101 472h-8l-13 -119l-62 -353h-134z" />
    <glyph glyph-name="N" unicode="N" horiz-adv-x="737" 
d="M141 716h150l211 -480h8l16 138l61 342h133l-127 -716h-133l-223 507h-8l-16 -138l-65 -369h-134z" />
    <glyph glyph-name="O" unicode="O" horiz-adv-x="835" 
d="M201.5 25.5q-77.5 41.5 -121.5 117.5t-44 174q0 112 53.5 207t150.5 151.5t220 56.5q98 0 175 -43t120 -119t43 -171q0 -112 -53.5 -207t-150 -151.5t-219.5 -56.5q-96 0 -173.5 41.5zM525.5 150q63.5 38 100 103.5t36.5 143.5q0 60 -28 107t-77 73.5t-109 26.5
q-77 0 -140 -38t-99.5 -102.5t-36.5 -141.5q0 -61 28 -109t77 -74.5t109 -26.5q76 0 139.5 38z" />
    <glyph glyph-name="P" unicode="P" horiz-adv-x="605" 
d="M141 716h240q63 0 113 -26t78.5 -73t28.5 -107q0 -77 -35.5 -133t-98.5 -85t-145 -29h-126l-47 -263h-135zM340 391q57 0 91.5 28t34.5 81q0 40 -24 64t-67 24h-122l-34 -197h121z" />
    <glyph glyph-name="Q" unicode="Q" horiz-adv-x="835" 
d="M517 7q-72 -23 -142 -23q-96 0 -173.5 41.5t-121.5 117.5t-44 174q0 112 53.5 207t150.5 151.5t220 56.5q98 0 175 -43t120 -119t43 -171q0 -99 -42.5 -185.5t-119.5 -144.5l38 -76l-119 -61zM460 124l-59 119l120 62l56 -114q40 39 62.5 92.5t22.5 113.5t-28 107
t-77 73.5t-109 26.5q-77 0 -140 -38t-99.5 -102.5t-36.5 -141.5q0 -61 28 -109t77 -74.5t109 -26.5q38 0 74 12z" />
    <glyph glyph-name="R" unicode="R" horiz-adv-x="630" 
d="M141 716h236q67 0 118.5 -26.5t80 -72t28.5 -100.5q0 -88 -53.5 -150.5t-134.5 -81.5l-2 -7l140 -270l-2 -8h-146l-138 269h-71l-48 -269h-135zM344 393q56 0 90.5 28.5t34.5 82.5q0 39 -26.5 63t-70.5 24h-119l-34 -198h125z" />
    <glyph glyph-name="S" unicode="S" horiz-adv-x="585" 
d="M83 36.5q-66 52.5 -83 150.5l129 52q5 -56 38 -91.5t89 -35.5q52 0 87.5 26t35.5 69q0 37 -26 62t-89 50l-35 14q-65 25 -106 71.5t-41 118.5q0 59 33.5 107t91.5 75t129 27q68 0 115 -23.5t71.5 -58.5t31.5 -71l-124 -47q-8 35 -34.5 55.5t-72.5 20.5q-44 0 -75 -21.5
t-31 -58.5q0 -32 23.5 -54t76.5 -41l41 -15q76 -29 116.5 -76t40.5 -120q0 -69 -34.5 -123t-96.5 -84.5t-143 -30.5q-92 0 -158 52.5z" />
    <glyph glyph-name="T" unicode="T" horiz-adv-x="587" 
d="M266 588h-200l22 128h535l-23 -128h-200l-104 -588h-135z" />
    <glyph glyph-name="U" unicode="U" horiz-adv-x="687" 
d="M162.5 13.5q-54.5 29.5 -84.5 83t-30 123.5q0 35 8 84l73 412h134l-76 -435q-5 -24 -5 -47q0 -57 30.5 -89.5t91.5 -32.5q67 0 111.5 44.5t57.5 120.5l78 439h134l-78 -447q-25 -142 -107.5 -213.5t-212.5 -71.5q-70 0 -124.5 29.5z" />
    <glyph glyph-name="V" unicode="V" horiz-adv-x="683" 
d="M76 716h144l71 -432l11 -91h8l43 91l230 432h149l-386 -716h-142z" />
    <glyph glyph-name="W" unicode="W" horiz-adv-x="983" 
d="M80 716h149l26 -402v-75h8l29 75l195 402h135l51 -402l3 -73h8l25 73l169 402h150l-308 -716h-145l-49 432l-2 77h-8l-30 -77l-202 -432h-139z" />
    <glyph glyph-name="X" unicode="X" horiz-adv-x="692" 
d="M261 377l-171 339h170l104 -231h8l182 231h174l-292 -351l184 -365h-165l-122 251h-8l-201 -251h-174z" />
    <glyph glyph-name="Y" unicode="Y" horiz-adv-x="641" 
d="M250 333l-173 383h155l102 -237h8l180 237h167l-305 -383l-59 -333h-134z" />
    <glyph glyph-name="Z" unicode="Z" horiz-adv-x="606" 
d="M-2 136l436 452h-341l22 128h504l-24 -136l-433 -452h357l-23 -128h-523z" />
    <glyph glyph-name="bracketleft" unicode="[" horiz-adv-x="352" 
d="M152 792h248l-19 -108h-120l-123 -700h120l-19 -108h-247z" />
    <glyph glyph-name="backslash" unicode="\" horiz-adv-x="480" 
d="M92 716h124l170 -716h-124z" />
    <glyph glyph-name="bracketright" unicode="]" horiz-adv-x="352" 
d="M-30 -16h120l123 700h-120l19 108h247l-160 -916h-248z" />
    <glyph glyph-name="asciicircum" unicode="^" horiz-adv-x="515" 
d="M306 592h-8l-135 -182h-142l245 306h109l137 -306h-132z" />
    <glyph glyph-name="underscore" unicode="_" horiz-adv-x="499" 
d="M436 -100l-20 -116h-498l21 116h497z" />
    <glyph glyph-name="grave" unicode="`" horiz-adv-x="443" 
d="M161 724h148l19 -136h-102z" />
    <glyph glyph-name="a" unicode="a" horiz-adv-x="548" 
d="M92.5 4.5q-37.5 20.5 -58.5 55.5t-21 79q0 84 61.5 133t167.5 49q66 0 129 -24l4 18q2 12 2 17q0 32 -27.5 53t-70.5 21q-73 0 -120 -56l-88 64q39 48 97.5 73t126.5 25q99 0 154 -47t55 -127q0 -21 -5 -51l-51 -287h-129l9 52h-8q-52 -68 -142 -68q-48 0 -85.5 20.5z
M309 120q37 34 46 82q-51 23 -108 23q-46 0 -74 -19.5t-28 -56.5q0 -30 22 -46.5t55 -16.5q50 0 87 34z" />
    <glyph glyph-name="b" unicode="b" horiz-adv-x="616" 
d="M202 5q-40 21 -62 55h-8l-10 -60h-123l126 716h131l-38 -209l-20 -70h8q23 31 62 53t93 22q57 0 104 -28.5t74.5 -81t27.5 -121.5q0 -83 -37 -151t-99.5 -107t-136.5 -39q-52 0 -92 21zM358 126.5q36 21.5 56.5 58t20.5 81.5q0 55 -33 90t-85 35q-46 0 -81.5 -22.5
t-54.5 -61t-19 -82.5q0 -54 34.5 -87t83.5 -33q42 0 78 21.5z" />
    <glyph glyph-name="c" unicode="c" horiz-adv-x="559" 
d="M124.5 14q-53.5 30 -83.5 83t-30 121q0 78 37.5 145.5t107 108t158.5 40.5q82 0 138 -39t77 -105l-123 -47q-12 34 -40.5 52t-68.5 18q-45 0 -80 -21.5t-55 -58t-20 -80.5q0 -56 34 -91t84 -35q43 0 75.5 19.5t51.5 54.5l111 -54q-82 -141 -252 -141q-68 0 -121.5 30z
" />
    <glyph glyph-name="d" unicode="d" horiz-adv-x="617" 
d="M110.5 14q-46.5 30 -73 83t-26.5 119q0 80 35.5 148t99.5 108t145 40q49 0 90.5 -22t58.5 -53h8l3 70l37 209h131l-127 -716h-122l10 60h-8q-23 -34 -62 -55t-95 -21q-58 0 -104.5 30zM338.5 125.5q35.5 20.5 56.5 58.5t21 87q0 54 -34 87t-87 33q-44 0 -79 -22
t-54.5 -59.5t-19.5 -82.5q0 -56 33.5 -89t87.5 -33q40 0 75.5 20.5z" />
    <glyph glyph-name="e" unicode="e" horiz-adv-x="573" 
d="M121 15.5q-53 31.5 -81.5 85t-28.5 118.5q0 77 37 144.5t104 108t153 40.5q69 0 119 -28t75.5 -75.5t25.5 -103.5q0 -47 -14 -87h-373l-1 -11q1 -51 35 -79t82 -28q50 0 83.5 18.5t56.5 54.5l99 -52q-45 -68 -104 -102.5t-145 -34.5q-70 0 -123 31.5zM403 311v4
q0 37 -29 63.5t-80 26.5q-49 0 -86.5 -27t-52.5 -67h248z" />
    <glyph glyph-name="f" unicode="f" horiz-adv-x="405" 
d="M119 384h-89l19 112h90l7 42q15 91 72 138.5t147 47.5q46 0 78 -14l-22 -124q-30 15 -61 15q-33 0 -56 -19t-28 -52l-6 -34h122l-20 -112h-123l-67 -384h-131z" />
    <glyph glyph-name="g" unicode="g" horiz-adv-x="612" 
d="M67 -188.5q-58 43.5 -73 105.5l128 47q8 -38 36 -59t69 -21q134 0 159 139l7 43h-8q-23 -34 -61.5 -52t-88.5 -18q-58 0 -104.5 28t-73 79t-26.5 117q0 75 33.5 142t96 108.5t145.5 41.5q50 0 88 -18t58 -51h8l9 53h125l-85 -482q-21 -122 -94.5 -184t-198.5 -62
q-91 0 -149 43.5zM352 136.5q35 21.5 56 59t21 83.5q0 53 -33.5 83.5t-80.5 30.5q-43 0 -78 -22t-55 -59.5t-20 -80.5q0 -55 32.5 -85.5t81.5 -30.5q41 0 76 21.5z" />
    <glyph glyph-name="h" unicode="h" horiz-adv-x="589" 
d="M125 716h130l-35 -194l-23 -90h8q26 38 68 59t94 21q75 0 116.5 -44t41.5 -111q0 -33 -6 -61l-53 -296h-130l50 285q4 18 4 32q0 33 -20.5 53.5t-57.5 20.5q-57 0 -92 -39.5t-47 -107.5l-44 -244h-130z" />
    <glyph glyph-name="i" unicode="i" horiz-adv-x="271" 
d="M124 587q-25 25 -25 60t25 59.5t60 24.5t59.5 -24.5t24.5 -59.5t-24.5 -60t-59.5 -25t-60 25zM92 496h131l-87 -496h-131z" />
    <glyph glyph-name="j" unicode="j" horiz-adv-x="271" 
d="M125 585.5q-25 24.5 -25 59.5t25 59.5t60 24.5t59.5 -24.5t24.5 -59.5t-24.5 -59.5t-59.5 -24.5t-60 24.5zM-130 -217l22 122q18 -11 48 -11q26 0 38.5 13.5t18.5 42.5l96 546h131l-97 -550q-18 -99 -64 -135.5t-124 -36.5q-40 0 -69 9z" />
    <glyph glyph-name="k" unicode="k" horiz-adv-x="546" 
d="M125 716h131l-68 -385h7l192 165h168l-2 -8l-220 -184l148 -296l-1 -8h-149l-103 218l-70 -59l-28 -159h-131z" />
    <glyph glyph-name="l" unicode="l" horiz-adv-x="255" 
d="M125 716h130l-126 -716h-130z" />
    <glyph glyph-name="m" unicode="m" horiz-adv-x="897" 
d="M208 496l-11 -64h8q29 40 67 60t91 20t89 -25t49 -65q28 41 72.5 65.5t105.5 24.5q73 0 114 -42t41 -108q0 -20 -5 -53l-55 -309h-130l51 291q3 17 3 32q0 32 -18 50t-53 18q-50 0 -85.5 -41.5t-47.5 -108.5l-43 -241h-130l51 291q3 15 3 31q0 33 -20 51t-53 18
q-49 0 -83.5 -41t-46.5 -109l-43 -241h-130l87 496h122z" />
    <glyph glyph-name="n" unicode="n" horiz-adv-x="589" 
d="M205 432q26 38 67.5 59t93.5 21q75 0 117 -44.5t42 -111.5q0 -29 -6 -61l-52 -295h-131l51 285q3 27 3 32q0 33 -20.5 53.5t-57.5 20.5q-57 0 -92 -39.5t-47 -105.5l-44 -246h-130l87 496h122l-11 -64h8z" />
    <glyph glyph-name="o" unicode="o" horiz-adv-x="593" 
d="M124 15q-54 31 -83.5 83.5t-29.5 117.5q0 83 38 150.5t106.5 106.5t155.5 39q70 0 124 -30.5t83.5 -83.5t29.5 -117q0 -83 -38 -151t-106.5 -107t-155.5 -39q-70 0 -124 31zM339.5 126.5q35.5 21.5 56 59t20.5 81.5q0 54 -33 89t-85 35q-43 0 -78.5 -21.5t-56 -59
t-20.5 -81.5q0 -54 33.5 -89t84.5 -35q43 0 78.5 21.5z" />
    <glyph glyph-name="p" unicode="p" horiz-adv-x="612" 
d="M91 496h123l-10 -59h8q23 34 62 54.5t95 20.5q58 0 104.5 -30t73 -83t26.5 -119q0 -80 -35.5 -148t-99.5 -108t-145 -40q-49 0 -90.5 22t-58.5 54h-8l-3 -71l-36 -205h-131zM367.5 127q35.5 22 55 59.5t19.5 82.5q0 56 -34 89t-88 33q-40 0 -75 -20.5t-56 -58.5t-21 -87
q0 -53 34 -86.5t86 -33.5q44 0 79.5 22z" />
    <glyph glyph-name="q" unicode="q" horiz-adv-x="612" 
d="M360 -11l20 71h-8q-21 -33 -60.5 -54.5t-94.5 -21.5q-57 0 -104 28.5t-74.5 81t-27.5 121.5q0 83 37 151t99.5 107t136.5 39q53 0 93 -21t61 -54h8l11 59h122l-124 -712h-131zM343.5 128q35.5 23 54.5 61t19 82q0 54 -35 87t-84 33q-42 0 -77.5 -21.5t-56.5 -58
t-21 -81.5q0 -55 33 -90t86 -35q46 0 81.5 23z" />
    <glyph glyph-name="r" unicode="r" horiz-adv-x="418" 
d="M86 496h122l-11 -62h8q23 35 65 56t91 21q36 0 60 -11l-23 -132q-33 19 -78 19q-56 0 -96.5 -40t-51.5 -103l-43 -244h-130z" />
    <glyph glyph-name="s" unicode="s" horiz-adv-x="492" 
d="M61.5 23q-56.5 39 -74.5 101l121 49q9 -36 37.5 -55t68.5 -19q34 0 57.5 13.5t23.5 36.5q0 21 -16.5 34t-51.5 21l-52 14q-54 13 -92.5 48t-38.5 90q0 72 60 114t156 42q148 0 196 -118l-120 -44q-9 26 -33 41t-54 15q-36 0 -55.5 -12t-19.5 -31q0 -15 15 -27.5t41 -19.5
l71 -18q61 -15 93.5 -52t32.5 -86q0 -53 -28.5 -93t-79 -61.5t-115.5 -21.5q-86 0 -142.5 39z" />
    <glyph glyph-name="t" unicode="t" horiz-adv-x="410" 
d="M117 28q-39 36 -39 103q0 27 5 52l35 201h-87l20 112h87l26 148h131l-26 -148h122l-20 -112h-122l-35 -195q-2 -22 -2 -24q0 -23 12.5 -36.5t37.5 -13.5q18 0 33 4.5t34 14.5l-22 -126q-39 -16 -87 -16q-64 0 -103 36z" />
    <glyph glyph-name="u" unicode="u" horiz-adv-x="589" 
d="M345 64q-26 -38 -67.5 -59t-93.5 -21q-75 0 -117 44.5t-42 111.5q0 27 6 61l52 295h131l-51 -285q-3 -27 -3 -32q0 -32 21 -53t57 -21q57 0 92 39t47 106l44 246h130l-87 -496h-122l11 64h-8z" />
    <glyph glyph-name="v" unicode="v" horiz-adv-x="566" 
d="M32 496h148l63 -318h8l182 318h150l-300 -496h-130z" />
    <glyph glyph-name="w" unicode="w" horiz-adv-x="816" 
d="M30 496h141l32 -315h7l154 315h136l46 -315h7l135 315h146l-243 -496h-142l-44 316h-7l-155 -316h-140z" />
    <glyph glyph-name="x" unicode="x" horiz-adv-x="525" 
d="M164 260l-127 236h154l65 -139h7l111 139h161l-214 -245l128 -251h-152l-67 146h-7l-115 -146h-161z" />
    <glyph glyph-name="y" unicode="y" horiz-adv-x="565" 
d="M164 29l-124 467h147l73 -303h7l177 303h148l-436 -712h-143z" />
    <glyph glyph-name="z" unicode="z" horiz-adv-x="492" 
d="M291 385h-243l19 111h408l-18 -107l-301 -278h255l-20 -111h-419l19 107z" />
    <glyph glyph-name="braceleft" unicode="{" horiz-adv-x="337" 
d="M78 -85q-43 39 -43 104q0 19 4 40l27 154q1 7 1 17q0 49 -54 49l20 110q27 0 48.5 16.5t27.5 49.5l28 163q15 82 67.5 128t139.5 46h41l-19 -108h-17q-35 0 -57 -21t-29 -59l-26 -146q-9 -52 -30.5 -80.5t-61.5 -39.5l-1 -8q54 -16 54 -77q0 -16 -5 -43l-25 -146
q-3 -13 -3 -23q0 -28 16.5 -42.5t44.5 -14.5h17l-19 -108h-35q-68 0 -111 39z" />
    <glyph glyph-name="bar" unicode="|" horiz-adv-x="264" 
d="M152 792h120l-160 -912h-120z" />
    <glyph glyph-name="braceright" unicode="}" horiz-adv-x="337" 
d="M-30 -16h17q35 0 57 21t29 59l26 146q9 52 30.5 80.5t61.5 39.5l1 8q-54 16 -54 77q0 16 5 43l25 146q3 14 3 23q0 28 -16.5 42.5t-44.5 14.5h-17l19 108h35q68 0 111 -39t43 -104q0 -19 -4 -40l-27 -154q-1 -7 -1 -17q0 -49 54 -49l-20 -110q-27 0 -48.5 -16.5
t-27.5 -49.5l-28 -163q-15 -82 -67.5 -128t-139.5 -46h-41z" />
    <glyph glyph-name="asciitilde" unicode="~" horiz-adv-x="554" 
d="M294.5 231.5q-23.5 8.5 -56.5 25.5q-24 12 -41 18.5t-35 6.5q-22 0 -36.5 -12t-20.5 -31h-106q11 73 54 113.5t119 40.5q33 0 57 -8.5t57 -25.5q25 -13 40.5 -19t33.5 -6q21 0 36 12t21 31h106q-13 -73 -55 -113.5t-118 -40.5q-32 0 -55.5 8.5z" />
    <glyph glyph-name="uni00A0" unicode="&#xa0;" horiz-adv-x="220" 
d="M0 0z" />
    <glyph glyph-name="exclamdown" unicode="&#xa1;" horiz-adv-x="269" 
d="M100.5 364q-25.5 25 -25.5 61t25.5 61.5t61.5 25.5t61.5 -25.5t25.5 -61.5t-25.5 -61t-61.5 -25t-61.5 25zM18 -10l61 269h109l-35 -269l-36 -206h-135z" />
    <glyph glyph-name="cent" unicode="&#xa2;" horiz-adv-x="539" 
d="M190 88q-74 18 -121 77.5t-47 142.5q0 75 32.5 138t91 103t134.5 49l15 86h90l-16 -87q59 -10 98.5 -45.5t58.5 -87.5l-114 -46q-6 23 -22.5 41.5t-40.5 25.5l-51 -289q57 8 97 74l95 -45q-39 -65 -89.5 -99.5t-121.5 -40.5l-15 -85h-90zM260 486q-55 -15 -86 -60.5
t-31 -103.5q0 -43 17.5 -74.5t49.5 -45.5z" />
    <glyph glyph-name="sterling" unicode="&#xa3;" horiz-adv-x="538" 
d="M-12 106q45 18 78.5 54t38.5 81v1h-90l17 100h54q-3 8 -12.5 35.5t-14.5 54t-5 52.5q0 61 30 110t84.5 77.5t126.5 28.5q85 0 133 -42.5t62 -105.5l-123 -47q-13 79 -88 79q-43 0 -72 -30t-29 -75q0 -26 6.5 -50t19.5 -59l10 -28h135l-17 -100h-106q-10 -67 -73 -119
l4 -7h148q32 0 51 14.5t32 44.5l94 -44q-26 -66 -71 -98.5t-120 -32.5h-321z" />
    <glyph glyph-name="currency" unicode="&#xa4;" horiz-adv-x="609" 
d="M60 150l58 57q-34 55 -34 118q0 65 34 118l-58 58l64 64l58 -57q55 36 122 36q68 0 123 -36l58 57l64 -64l-58 -58q33 -52 33 -118q0 -65 -33 -118l58 -57l-64 -65l-58 57q-55 -36 -123 -36q-67 0 -122 36l-58 -57zM383.5 242.5q32.5 33.5 32.5 82.5t-32.5 82.5
t-79.5 33.5t-79.5 -33.5t-32.5 -82.5t32.5 -82.5t79.5 -33.5t79.5 33.5z" />
    <glyph glyph-name="yen" unicode="&#xa5;" horiz-adv-x="632" 
d="M210 133h-165l20 116h166l11 63h-166l21 116h91l-119 256h157l80 -189l18 -67h8l40 67l142 189h163l-207 -256h89l-21 -116h-161l-11 -63h161l-20 -116h-162l-24 -133h-134z" />
    <glyph glyph-name="brokenbar" unicode="&#xa6;" horiz-adv-x="264" 
d="M147 756h120l-67 -380h-120zM65 292h120l-72 -412h-120z" />
    <glyph glyph-name="section" unicode="&#xa7;" horiz-adv-x="560" 
d="M86 -206.5q-51 25.5 -81 70.5t-33 100l117 43q7 -54 38.5 -86.5t83.5 -32.5q45 0 76.5 23t31.5 62q0 38 -26 59.5t-89 43.5l-30 11q-60 21 -97.5 65t-37.5 99q0 51 28 93t76 69q-52 52 -52 119q0 58 32.5 103.5t88 71t121.5 25.5q87 0 137 -42.5t68 -109.5l-128 -47
q-7 34 -29.5 56.5t-64.5 22.5q-37 0 -64.5 -18.5t-27.5 -48.5t23 -50t79 -40l29 -10q75 -27 112.5 -71t37.5 -107q0 -54 -26 -95.5t-68 -70.5q40 -45 40 -113q0 -59 -34 -110t-91.5 -80.5t-124.5 -29.5q-64 0 -115 25.5zM372 242q0 38 -25.5 63.5t-83.5 44.5l-26 9
q-31 -13 -51 -35t-20 -49q0 -31 24 -54t71 -39q38 -13 61 -23q50 35 50 83z" />
    <glyph glyph-name="dieresis" unicode="&#xa8;" horiz-adv-x="452" 
d="M131 608.5q-21 21.5 -21 50.5q0 30 21 51t51 21t50.5 -21t20.5 -51t-20.5 -51t-50.5 -21t-51 21.5zM322 608.5q-21 21.5 -21 50.5q0 30 21 51t50 21q31 0 51.5 -21t20.5 -51t-21 -51t-51 -21q-29 0 -50 21.5z" />
    <glyph glyph-name="copyright" unicode="&#xa9;" horiz-adv-x="532" 
d="M151 303q-53 31 -84 84t-31 115t31 115t84 84t115 31t115 -31t84 -84t31 -115t-31 -115t-84 -84t-115 -31t-115 31zM357.5 344.5q41.5 24.5 66 66.5t24.5 91q0 50 -24.5 91.5t-66 66t-91.5 24.5q-49 0 -91 -24.5t-66.5 -66t-24.5 -91.5q0 -49 25 -90.5t66.5 -66.5
t90.5 -25q50 0 91.5 24.5zM185.5 418q-34.5 35 -34.5 84q0 50 34 84.5t85 34.5q28 0 48 -10t39 -29l-32 -29q-12 13 -23.5 18.5t-31.5 5.5q-29 0 -51 -21.5t-22 -53.5q0 -31 22 -53t51 -22q36 0 60 31l34 -27q-36 -48 -94 -48q-50 0 -84.5 35z" />
    <glyph glyph-name="ordfeminine" unicode="&#xaa;" horiz-adv-x="495" 
d="M87.5 309.5q-41.5 37.5 -41.5 94.5q0 74 56.5 118t143.5 44q71 0 123 -25l2 13l1 14q0 32 -23.5 51t-63.5 19q-31 0 -58.5 -13t-45.5 -37l-78 54q30 43 81.5 66.5t113.5 23.5q88 0 139.5 -41t51.5 -112q0 -17 -3 -35l-46 -258h-117l8 46h-8q-55 -60 -130 -60
q-64 0 -105.5 37.5zM312.5 392.5q34.5 29.5 41.5 67.5q-42 22 -96 22q-38 0 -65 -17t-27 -50q0 -25 20 -38.5t50 -13.5q42 0 76.5 29.5z" />
    <glyph glyph-name="guillemotleft" unicode="&#xab;" horiz-adv-x="610" 
d="M194 41l-171 230l252 230l67 -74l-181 -163l117 -157zM417 41l-171 230l252 230l67 -74l-181 -163l117 -157z" />
    <glyph glyph-name="logicalnot" unicode="&#xac;" horiz-adv-x="594" 
d="M386 290h-352l20 114h466l-52 -299h-115z" />
    <glyph glyph-name="uni00AD" unicode="&#xad;" horiz-adv-x="451" 
d="M396 368l-21 -116h-338l20 116h339z" />
    <glyph glyph-name="registered" unicode="&#xae;" horiz-adv-x="532" 
d="M151 303q-53 31 -84 84t-31 115t31 115t84 84t115 31t115 -31t84 -84t31 -115t-31 -115t-84 -84t-115 -31t-115 31zM357.5 344.5q41.5 24.5 66 66.5t24.5 91q0 50 -24.5 91.5t-66 66t-91.5 24.5q-49 0 -91 -24.5t-66.5 -66t-24.5 -91.5q0 -49 25 -90.5t66.5 -66.5
t90.5 -25q50 0 91.5 24.5zM189 615h96q29 0 51 -21t22 -51q0 -23 -14.5 -41.5t-35.5 -24.5l-2 -2l60 -84v-2h-52l-55 84h-24v-84h-46v226zM281 515q13 0 22 8t9 20q0 11 -8.5 19.5t-21.5 8.5h-47v-56h46z" />
    <glyph glyph-name="macron" unicode="&#xaf;" horiz-adv-x="416" 
d="M122 709h296l-18 -100h-296z" />
    <glyph glyph-name="degree" unicode="&#xb0;" horiz-adv-x="325" 
d="M102 474q-35 32 -35 82q0 63 41.5 103.5t104.5 40.5q49 0 84 -32t35 -82q0 -63 -41.5 -103.5t-104.5 -40.5q-49 0 -84 32zM234.5 536q16.5 17 16.5 41q0 20 -12.5 33t-32.5 13q-24 0 -41 -16.5t-17 -41.5q0 -21 13 -33.5t33 -12.5q24 0 40.5 17z" />
    <glyph glyph-name="plusminus" unicode="&#xb1;" horiz-adv-x="569" 
d="M219 316h-171l19 108h171l24 141h116l-24 -141h170l-19 -108h-170l-26 -141h-116zM13 116h456l-20 -116h-456z" />
    <glyph glyph-name="uni00B2" unicode="&#xb2;" horiz-adv-x="317" 
d="M36 413l150 129q22 17 36 33t14 34q0 16 -11 26t-29 10q-40 0 -53 -48l-76 29q13 46 51.5 72t91.5 26q55 0 87 -28.5t32 -72.5q0 -35 -17.5 -59.5t-58.5 -60.5l-87 -74h134l-15 -79h-261z" />
    <glyph glyph-name="uni00B3" unicode="&#xb3;" horiz-adv-x="335" 
d="M82.5 368.5q-36.5 26.5 -45.5 74.5l78 28q14 -52 60 -52q22 0 39 13t17 34q0 19 -14.5 29t-39.5 10h-35l13 70h34q24 0 40.5 10.5t16.5 29.5q0 14 -11.5 23t-26.5 9q-21 0 -34.5 -10.5t-20.5 -25.5l-73 32q18 37 54 59t87 22q50 0 82.5 -26.5t32.5 -66.5q0 -30 -16.5 -52
t-44.5 -36q21 -11 33 -30t12 -43q0 -56 -43 -92t-109 -36q-49 0 -85.5 26.5z" />
    <glyph glyph-name="acute" unicode="&#xb4;" horiz-adv-x="443" 
d="M256 724h154l-114 -136h-106z" />
    <glyph glyph-name="uni00B5" unicode="&#xb5;" horiz-adv-x="589" 
d="M83 496h131l-51 -287q-3 -13 -3 -30q0 -33 20.5 -53.5t57.5 -20.5q57 0 92 39.5t47 105.5l44 246h130l-87 -496h-122l11 64h-8q-26 -40 -62 -60t-86 -20q-19 0 -39 6.5t-32 17.5h-8l-2 -65l-29 -159h-129z" />
    <glyph glyph-name="paragraph" unicode="&#xb6;" horiz-adv-x="643" 
d="M273 296h-25q-60 0 -111.5 25.5t-82 73.5t-30.5 111t30.5 111t82 73.5t111.5 25.5h315v-932h-110v825h-70v-825h-110v512z" />
    <glyph glyph-name="periodcentered" unicode="&#xb7;" horiz-adv-x="213" 
d="M41.5 262.5q-25.5 25.5 -25.5 61.5t25.5 61.5t61.5 25.5t61 -25.5t25 -61.5t-25 -61.5t-61 -25.5t-61.5 25.5z" />
    <glyph glyph-name="cedilla" unicode="&#xb8;" horiz-adv-x="411" 
d="M32 -218q-28 19 -35 47l68 27q2 -12 11.5 -20t22.5 -8q15 0 25.5 9.5t10.5 25.5q0 14 -8.5 22.5t-21.5 8.5q-14 0 -28 -14l-55 28l51 92h68l-29 -47q7 1 18 1q35 0 57 -24.5t22 -61.5q0 -48 -32.5 -76.5t-82.5 -28.5q-34 0 -62 19z" />
    <glyph glyph-name="uni00B9" unicode="&#xb9;" horiz-adv-x="272" 
d="M166 601l-54 -38l-41 65l123 88h81l-65 -366h-89z" />
    <glyph glyph-name="ordmasculine" unicode="&#xba;" horiz-adv-x="535" 
d="M111.5 326q-56.5 54 -56.5 146q0 68 34 127.5t95 96t138 36.5q92 0 148 -53.5t56 -145.5q0 -70 -35 -130t-96 -95.5t-136 -35.5q-91 0 -147.5 54zM336.5 399.5q31.5 18.5 50.5 51t19 71.5q0 45 -27 73t-69 28q-36 0 -67.5 -19t-50 -51.5t-18.5 -70.5q0 -45 26.5 -73
t68.5 -28q36 0 67.5 18.5z" />
    <glyph glyph-name="guillemotright" unicode="&#xbb;" horiz-adv-x="610" 
d="M159 501l172 -230l-253 -230l-66 74l180 163l-116 157zM382 501l172 -230l-253 -230l-66 74l180 163l-116 157z" />
    <glyph glyph-name="onequarter" unicode="&#xbc;" horiz-adv-x="760" 
d="M190 601l-54 -38l-41 65l123 88h81l-65 -366h-89zM654 731l70 -54l-587 -693l-71 55zM527 65h-172l11 64l213 237h87l-40 -227h47l-13 -74h-47l-12 -65h-86zM540 139l19 104h-8l-91 -104h80z" />
    <glyph glyph-name="onehalf" unicode="&#xbd;" horiz-adv-x="808" 
d="M190 601l-54 -38l-41 65l123 88h81l-65 -366h-89zM649 731l70 -54l-587 -693l-71 55zM448 63l150 129q22 17 36 33t14 34q0 16 -11 26t-29 10q-39 0 -54 -48l-75 29q14 46 51.5 72t91.5 26t86.5 -28.5t32.5 -72.5q0 -35 -17.5 -59.5t-58.5 -60.5q-12 -9 -44 -37
q-10 -9 -24 -21t-20 -16h135l-15 -79h-261z" />
    <glyph glyph-name="threequarters" unicode="&#xbe;" horiz-adv-x="842" 
d="M113.5 368.5q-36.5 26.5 -45.5 74.5l78 28q14 -52 60 -52q22 0 39 13t17 34q0 19 -14.5 29t-39.5 10h-35l13 70h34q24 0 40.5 10.5t16.5 29.5q0 14 -11.5 23t-26.5 9q-21 0 -34.5 -10.5t-20.5 -25.5l-73 32q18 37 54 59t87 22q50 0 82.5 -26.5t32.5 -66.5
q0 -30 -16.5 -52t-44.5 -36q21 -11 33 -30t12 -43q0 -56 -43 -92t-109 -36q-49 0 -85.5 26.5zM717 731l70 -54l-587 -693l-71 55zM605 65h-172l11 64l213 237h87l-40 -227h47l-13 -74h-47l-12 -65h-86zM618 139l19 104h-8l-91 -104h80z" />
    <glyph glyph-name="questiondown" unicode="&#xbf;" horiz-adv-x="503" 
d="M221.5 364q-25.5 25 -25.5 61t25.5 61.5t61.5 25.5t61 -25.5t25 -61.5t-25 -61t-61 -25t-61.5 25zM79 -210q-45 22 -70 61t-25 88q0 55 30.5 97t88.5 89q41 32 56.5 53.5t22.5 58.5l4 22h131l-7 -38q-9 -52 -32.5 -86t-87.5 -77q-35 -24 -55 -47t-20 -51q0 -31 22 -50
t59 -19q40 0 67.5 23t40.5 59l107 -48q-22 -67 -83.5 -112t-147.5 -45q-56 0 -101 22z" />
    <glyph glyph-name="Agrave" unicode="&#xc0;" horiz-adv-x="720" 
d="M340 716h158l143 -716h-143l-32 171h-273l-89 -171h-154zM443 295l-33 180l-10 86h-8l-40 -86l-95 -180h186zM304 908h148l19 -136h-102z" />
    <glyph glyph-name="Aacute" unicode="&#xc1;" horiz-adv-x="720" 
d="M340 716h158l143 -716h-143l-32 171h-273l-89 -171h-154zM443 295l-33 180l-10 86h-8l-40 -86l-95 -180h186zM436 908h154l-114 -136h-106z" />
    <glyph glyph-name="Acircumflex" unicode="&#xc2;" horiz-adv-x="720" 
d="M340 716h158l143 -716h-143l-32 171h-273l-89 -171h-154zM443 295l-33 180l-10 86h-8l-40 -86l-95 -180h186zM253 786l132 126h119l91 -126l-1 -8h-121l-31 59h-12l-49 -59h-129z" />
    <glyph glyph-name="Atilde" unicode="&#xc3;" horiz-adv-x="720" 
d="M340 716h158l143 -716h-143l-32 171h-273l-89 -171h-154zM443 295l-33 180l-10 86h-8l-40 -86l-95 -180h186zM458.5 777.5q-16.5 6.5 -40.5 19.5q-30 17 -45 17q-26 0 -33 -29h-92q8 63 42 95.5t86 32.5q20 0 36.5 -6.5t40.5 -19.5q30 -17 45 -17q26 0 33 29h92
q-8 -63 -42 -95.5t-86 -32.5q-20 0 -36.5 6.5z" />
    <glyph glyph-name="Adieresis" unicode="&#xc4;" horiz-adv-x="720" 
d="M340 716h158l143 -716h-143l-32 171h-273l-89 -171h-154zM443 295l-33 180l-10 86h-8l-40 -86l-95 -180h186zM289 792.5q-21 21.5 -21 50.5q0 30 21 51t51 21t50.5 -21t20.5 -51t-20.5 -51t-50.5 -21t-51 21.5zM480 792.5q-21 21.5 -21 50.5q0 30 21 51t50 21
q31 0 51.5 -21t20.5 -51t-21 -51t-51 -21q-29 0 -50 21.5z" />
    <glyph glyph-name="Aring" unicode="&#xc5;" horiz-adv-x="720" 
d="M321 680q-25 33 -25 76q0 36 17.5 65.5t47 47t65.5 17.5q35 0 65 -17.5t47.5 -47.5t17.5 -65q0 -29 -12 -54.5t-34 -44.5l131 -657h-143l-32 171h-273l-89 -171h-154zM454.5 728q11.5 12 11.5 28q0 17 -11.5 28.5t-28.5 11.5q-16 0 -28 -11.5t-12 -28.5q0 -16 12 -28
t28 -12q17 0 28.5 12zM443 295l-33 180l-10 86h-8l-40 -86l-95 -180h186z" />
    <glyph glyph-name="AE" unicode="&#xc6;" horiz-adv-x="1011" 
d="M481 716h536l-23 -128h-319l-29 -166h287l-23 -128h-287l-30 -166h320l-23 -128h-454l31 173h-233l-128 -173h-167zM489 301l51 287h-10l-43 -70l-161 -217h163z" />
    <glyph glyph-name="Ccedilla" unicode="&#xc7;" horiz-adv-x="746" 
d="M485.5 137q49.5 25 98.5 74l86 -97q-68 -69 -139.5 -99.5t-168.5 -30.5h-2l-19 -31q7 1 18 1q35 0 57 -24.5t22 -61.5q0 -48 -32.5 -76.5t-82.5 -28.5q-34 0 -62 19t-35 47l68 27q2 -12 11.5 -20t22.5 -8q15 0 25.5 9.5t10.5 25.5q0 14 -8.5 22.5t-21.5 8.5
q-14 0 -28 -14l-55 28l45 82q-76 13 -135 56t-92 112.5t-33 157.5q0 112 55 207.5t153.5 152t221.5 56.5q88 0 154 -32.5t106 -90.5l-107 -88q-31 41 -71.5 62t-99.5 21q-75 0 -138.5 -37.5t-101 -102t-37.5 -141.5q0 -63 26 -111t72.5 -74t105.5 -26q61 0 110.5 25z" />
    <glyph glyph-name="Egrave" unicode="&#xc8;" horiz-adv-x="589" 
d="M141 716h454l-22 -128h-320l-29 -166h287l-23 -128h-287l-29 -166h319l-23 -128h-454zM257 908h148l19 -136h-102z" />
    <glyph glyph-name="Eacute" unicode="&#xc9;" horiz-adv-x="589" 
d="M141 716h454l-22 -128h-320l-29 -166h287l-23 -128h-287l-29 -166h319l-23 -128h-454zM389 908h154l-114 -136h-106z" />
    <glyph glyph-name="Ecircumflex" unicode="&#xca;" horiz-adv-x="589" 
d="M141 716h454l-22 -128h-320l-29 -166h287l-23 -128h-287l-29 -166h319l-23 -128h-454zM206 786l132 126h119l91 -126l-1 -8h-121l-31 59h-12l-49 -59h-129z" />
    <glyph glyph-name="Edieresis" unicode="&#xcb;" horiz-adv-x="589" 
d="M141 716h454l-22 -128h-320l-29 -166h287l-23 -128h-287l-29 -166h319l-23 -128h-454zM242 792.5q-21 21.5 -21 50.5q0 30 21 51t51 21t50.5 -21t20.5 -51t-20.5 -51t-50.5 -21t-51 21.5zM433 792.5q-21 21.5 -21 50.5q0 30 21 51t50 21q31 0 51.5 -21t20.5 -51t-21 -51
t-51 -21q-29 0 -50 21.5z" />
    <glyph glyph-name="Igrave" unicode="&#xcc;" horiz-adv-x="293" 
d="M141 716h135l-127 -716h-135zM100 908h148l19 -136h-102z" />
    <glyph glyph-name="Iacute" unicode="&#xcd;" horiz-adv-x="293" 
d="M141 716h135l-127 -716h-135zM232 908h154l-114 -136h-106z" />
    <glyph glyph-name="Icircumflex" unicode="&#xce;" horiz-adv-x="293" 
d="M141 716h135l-127 -716h-135zM49 786l132 126h119l91 -126l-1 -8h-121l-31 59h-12l-49 -59h-129z" />
    <glyph glyph-name="Idieresis" unicode="&#xcf;" horiz-adv-x="293" 
d="M93.5 794.5q-20.5 20.5 -20.5 48.5q0 29 20.5 49t48.5 20q29 0 49 -20t20 -49q0 -28 -20.5 -48.5t-48.5 -20.5t-48.5 20.5zM266.5 794.5q-20.5 20.5 -20.5 48.5q0 29 20.5 49t48.5 20q29 0 49 -20t20 -49q0 -28 -20 -48.5t-49 -20.5q-28 0 -48.5 20.5zM141 716h135
l-127 -716h-135z" />
    <glyph glyph-name="Eth" unicode="&#xd0;" horiz-adv-x="779" 
d="M121 302h-76l20 110h75l55 304h227q104 0 177.5 -40t111 -110.5t37.5 -163.5q0 -109 -52 -201t-149.5 -146.5t-225.5 -54.5h-253zM327 128q84 0 149 33.5t100.5 92.5t35.5 133q0 98 -51 149.5t-153 51.5h-101l-31 -176h184l-20 -110h-184l-31 -174h102z" />
    <glyph glyph-name="Ntilde" unicode="&#xd1;" horiz-adv-x="737" 
d="M141 716h150l211 -480h8l16 138l61 342h133l-127 -716h-133l-223 507h-8l-16 -138l-65 -369h-134zM464.5 777.5q-16.5 6.5 -40.5 19.5q-30 17 -45 17q-26 0 -33 -29h-92q8 63 42 95.5t86 32.5q20 0 36.5 -6.5t40.5 -19.5q30 -17 45 -17q26 0 33 29h92q-8 -63 -42 -95.5
t-86 -32.5q-20 0 -36.5 6.5z" />
    <glyph glyph-name="Ograve" unicode="&#xd2;" horiz-adv-x="835" 
d="M201.5 25.5q-77.5 41.5 -121.5 117.5t-44 174q0 112 53.5 207t150.5 151.5t220 56.5q98 0 175 -43t120 -119t43 -171q0 -112 -53.5 -207t-150 -151.5t-219.5 -56.5q-96 0 -173.5 41.5zM525.5 150q63.5 38 100 103.5t36.5 143.5q0 60 -28 107t-77 73.5t-109 26.5
q-77 0 -140 -38t-99.5 -102.5t-36.5 -141.5q0 -61 28 -109t77 -74.5t109 -26.5q76 0 139.5 38zM356 908h148l19 -136h-102z" />
    <glyph glyph-name="Oacute" unicode="&#xd3;" horiz-adv-x="835" 
d="M201.5 25.5q-77.5 41.5 -121.5 117.5t-44 174q0 112 53.5 207t150.5 151.5t220 56.5q98 0 175 -43t120 -119t43 -171q0 -112 -53.5 -207t-150 -151.5t-219.5 -56.5q-96 0 -173.5 41.5zM525.5 150q63.5 38 100 103.5t36.5 143.5q0 60 -28 107t-77 73.5t-109 26.5
q-77 0 -140 -38t-99.5 -102.5t-36.5 -141.5q0 -61 28 -109t77 -74.5t109 -26.5q76 0 139.5 38zM488 908h154l-114 -136h-106z" />
    <glyph glyph-name="Ocircumflex" unicode="&#xd4;" horiz-adv-x="835" 
d="M201.5 25.5q-77.5 41.5 -121.5 117.5t-44 174q0 112 53.5 207t150.5 151.5t220 56.5q98 0 175 -43t120 -119t43 -171q0 -112 -53.5 -207t-150 -151.5t-219.5 -56.5q-96 0 -173.5 41.5zM525.5 150q63.5 38 100 103.5t36.5 143.5q0 60 -28 107t-77 73.5t-109 26.5
q-77 0 -140 -38t-99.5 -102.5t-36.5 -141.5q0 -61 28 -109t77 -74.5t109 -26.5q76 0 139.5 38zM305 786l132 126h119l91 -126l-1 -8h-121l-31 59h-12l-49 -59h-129z" />
    <glyph glyph-name="Otilde" unicode="&#xd5;" horiz-adv-x="835" 
d="M201.5 25.5q-77.5 41.5 -121.5 117.5t-44 174q0 112 53.5 207t150.5 151.5t220 56.5q98 0 175 -43t120 -119t43 -171q0 -112 -53.5 -207t-150 -151.5t-219.5 -56.5q-96 0 -173.5 41.5zM525.5 150q63.5 38 100 103.5t36.5 143.5q0 60 -28 107t-77 73.5t-109 26.5
q-77 0 -140 -38t-99.5 -102.5t-36.5 -141.5q0 -61 28 -109t77 -74.5t109 -26.5q76 0 139.5 38zM510.5 777.5q-16.5 6.5 -40.5 19.5q-30 17 -45 17q-26 0 -33 -29h-92q8 63 42 95.5t86 32.5q20 0 36.5 -6.5t40.5 -19.5q30 -17 45 -17q26 0 33 29h92q-8 -63 -42 -95.5
t-86 -32.5q-20 0 -36.5 6.5z" />
    <glyph glyph-name="Odieresis" unicode="&#xd6;" horiz-adv-x="835" 
d="M201.5 25.5q-77.5 41.5 -121.5 117.5t-44 174q0 112 53.5 207t150.5 151.5t220 56.5q98 0 175 -43t120 -119t43 -171q0 -112 -53.5 -207t-150 -151.5t-219.5 -56.5q-96 0 -173.5 41.5zM525.5 150q63.5 38 100 103.5t36.5 143.5q0 60 -28 107t-77 73.5t-109 26.5
q-77 0 -140 -38t-99.5 -102.5t-36.5 -141.5q0 -61 28 -109t77 -74.5t109 -26.5q76 0 139.5 38zM341 792.5q-21 21.5 -21 50.5q0 30 21 51t51 21t50.5 -21t20.5 -51t-20.5 -51t-50.5 -21t-51 21.5zM532 792.5q-21 21.5 -21 50.5q0 30 21 51t50 21q31 0 51.5 -21t20.5 -51
t-21 -51t-51 -21q-29 0 -50 21.5z" />
    <glyph glyph-name="multiply" unicode="&#xd7;" horiz-adv-x="611" 
d="M15 117l192 158l-133 154l91 78l135 -156l194 159l71 -85l-192 -158l133 -154l-91 -78l-135 156l-194 -159z" />
    <glyph glyph-name="Oslash" unicode="&#xd8;" horiz-adv-x="835" 
d="M73 15l53 67q-43 45 -66.5 104.5t-23.5 130.5q0 112 53.5 207t150.5 151.5t220 56.5q85 0 158 -35l56 70l85 -68l-52 -65q44 -45 67.5 -105t23.5 -130q0 -112 -53.5 -207t-150 -151.5t-219.5 -56.5q-88 0 -160 35l-57 -71zM531 588q-40 16 -83 16q-77 0 -140 -38
t-99.5 -102.5t-36.5 -141.5q0 -78 43 -130zM525.5 150q63.5 38 100 103.5t36.5 143.5q0 72 -43 127l-317 -396q40 -16 84 -16q76 0 139.5 38z" />
    <glyph glyph-name="Ugrave" unicode="&#xd9;" horiz-adv-x="687" 
d="M162.5 13.5q-54.5 29.5 -84.5 83t-30 123.5q0 35 8 84l73 412h134l-76 -435q-5 -24 -5 -47q0 -57 30.5 -89.5t91.5 -32.5q67 0 111.5 44.5t57.5 120.5l78 439h134l-78 -447q-25 -142 -107.5 -213.5t-212.5 -71.5q-70 0 -124.5 29.5zM292 908h148l19 -136h-102z" />
    <glyph glyph-name="Uacute" unicode="&#xda;" horiz-adv-x="687" 
d="M162.5 13.5q-54.5 29.5 -84.5 83t-30 123.5q0 35 8 84l73 412h134l-76 -435q-5 -24 -5 -47q0 -57 30.5 -89.5t91.5 -32.5q67 0 111.5 44.5t57.5 120.5l78 439h134l-78 -447q-25 -142 -107.5 -213.5t-212.5 -71.5q-70 0 -124.5 29.5zM424 908h154l-114 -136h-106z" />
    <glyph glyph-name="Ucircumflex" unicode="&#xdb;" horiz-adv-x="687" 
d="M162.5 13.5q-54.5 29.5 -84.5 83t-30 123.5q0 35 8 84l73 412h134l-76 -435q-5 -24 -5 -47q0 -57 30.5 -89.5t91.5 -32.5q67 0 111.5 44.5t57.5 120.5l78 439h134l-78 -447q-25 -142 -107.5 -213.5t-212.5 -71.5q-70 0 -124.5 29.5zM241 786l132 126h119l91 -126l-1 -8
h-121l-31 59h-12l-49 -59h-129z" />
    <glyph glyph-name="Udieresis" unicode="&#xdc;" horiz-adv-x="687" 
d="M162.5 13.5q-54.5 29.5 -84.5 83t-30 123.5q0 35 8 84l73 412h134l-76 -435q-5 -24 -5 -47q0 -57 30.5 -89.5t91.5 -32.5q67 0 111.5 44.5t57.5 120.5l78 439h134l-78 -447q-25 -142 -107.5 -213.5t-212.5 -71.5q-70 0 -124.5 29.5zM277 792.5q-21 21.5 -21 50.5
q0 30 21 51t51 21t50.5 -21t20.5 -51t-20.5 -51t-50.5 -21t-51 21.5zM468 792.5q-21 21.5 -21 50.5q0 30 21 51t50 21q31 0 51.5 -21t20.5 -51t-21 -51t-51 -21q-29 0 -50 21.5z" />
    <glyph glyph-name="Yacute" unicode="&#xdd;" horiz-adv-x="641" 
d="M250 333l-173 383h155l102 -237h8l180 237h167l-305 -383l-59 -333h-134zM392 908h154l-114 -136h-106z" />
    <glyph glyph-name="Thorn" unicode="&#xde;" horiz-adv-x="592" 
d="M134 716h135l-19 -109h105q63 0 113 -26t78.5 -73t28.5 -107q0 -77 -35.5 -132.5t-98.5 -84.5t-145 -29h-127l-27 -155h-135zM314 283q56 0 91 27.5t35 80.5q0 40 -24 64t-67 24h-122l-34 -196h121z" />
    <glyph glyph-name="germandbls" unicode="&#xdf;" horiz-adv-x="585" 
d="M505 324.5q24 -39.5 24 -95.5q0 -69 -34 -123t-94 -84t-136 -30q-42 0 -67 4l21 119q21 -4 50 -4q54 0 91 31.5t37 85.5q0 44 -27 70t-78 26h-26l20 115h21q49 0 82 25.5t33 69.5q0 35 -22.5 56t-61.5 21q-44 0 -73 -29.5t-37 -76.5l-89 -505h-132l89 507
q18 102 83.5 163.5t176.5 61.5q59 0 104 -24t69 -64.5t24 -87.5q0 -62 -31 -103.5t-79 -61.5l-2 -8q40 -19 64 -58.5z" />
    <glyph glyph-name="agrave" unicode="&#xe0;" horiz-adv-x="548" 
d="M92.5 4.5q-37.5 20.5 -58.5 55.5t-21 79q0 84 61.5 133t167.5 49q66 0 129 -24l4 18q2 12 2 17q0 32 -27.5 53t-70.5 21q-73 0 -120 -56l-88 64q39 48 97.5 73t126.5 25q99 0 154 -47t55 -127q0 -21 -5 -51l-51 -287h-129l9 52h-8q-52 -68 -142 -68q-48 0 -85.5 20.5z
M309 120q37 34 46 82q-51 23 -108 23q-46 0 -74 -19.5t-28 -56.5q0 -30 22 -46.5t55 -16.5q50 0 87 34zM199 730h149l18 -136h-102z" />
    <glyph glyph-name="aacute" unicode="&#xe1;" horiz-adv-x="548" 
d="M92.5 4.5q-37.5 20.5 -58.5 55.5t-21 79q0 84 61.5 133t167.5 49q66 0 129 -24l4 18q2 12 2 17q0 32 -27.5 53t-70.5 21q-73 0 -120 -56l-88 64q39 48 97.5 73t126.5 25q99 0 154 -47t55 -127q0 -21 -5 -51l-51 -287h-129l9 52h-8q-52 -68 -142 -68q-48 0 -85.5 20.5z
M309 120q37 34 46 82q-51 23 -108 23q-46 0 -74 -19.5t-28 -56.5q0 -30 22 -46.5t55 -16.5q50 0 87 34zM326 730h154l-114 -136h-106z" />
    <glyph glyph-name="acircumflex" unicode="&#xe2;" horiz-adv-x="548" 
d="M92.5 4.5q-37.5 20.5 -58.5 55.5t-21 79q0 84 61.5 133t167.5 49q66 0 129 -24l4 18q2 12 2 17q0 32 -27.5 53t-70.5 21q-73 0 -120 -56l-88 64q39 48 97.5 73t126.5 25q99 0 154 -47t55 -127q0 -21 -5 -51l-51 -287h-129l9 52h-8q-52 -68 -142 -68q-48 0 -85.5 20.5z
M309 120q37 34 46 82q-51 23 -108 23q-46 0 -74 -19.5t-28 -56.5q0 -30 22 -46.5t55 -16.5q50 0 87 34zM140 596l132 126h119l92 -126l-2 -8h-121l-31 59h-12l-48 -59h-130z" />
    <glyph glyph-name="atilde" unicode="&#xe3;" horiz-adv-x="548" 
d="M92.5 4.5q-37.5 20.5 -58.5 55.5t-21 79q0 84 61.5 133t167.5 49q66 0 129 -24l4 18q2 12 2 17q0 32 -27.5 53t-70.5 21q-73 0 -120 -56l-88 64q39 48 97.5 73t126.5 25q99 0 154 -47t55 -127q0 -21 -5 -51l-51 -287h-129l9 52h-8q-52 -68 -142 -68q-48 0 -85.5 20.5z
M309 120q37 34 46 82q-51 23 -108 23q-46 0 -74 -19.5t-28 -56.5q0 -30 22 -46.5t55 -16.5q50 0 87 34zM348.5 599.5q-16.5 6.5 -40.5 19.5q-30 17 -45 17q-26 0 -33 -29h-92q8 63 42 95.5t86 32.5q20 0 36.5 -6.5t40.5 -19.5q30 -17 45 -17q26 0 33 29h92q-8 -63 -42 -95.5
t-86 -32.5q-20 0 -36.5 6.5z" />
    <glyph glyph-name="adieresis" unicode="&#xe4;" horiz-adv-x="548" 
d="M92.5 4.5q-37.5 20.5 -58.5 55.5t-21 79q0 84 61.5 133t167.5 49q66 0 129 -24l4 18q2 12 2 17q0 32 -27.5 53t-70.5 21q-73 0 -120 -56l-88 64q39 48 97.5 73t126.5 25q99 0 154 -47t55 -127q0 -21 -5 -51l-51 -287h-129l9 52h-8q-52 -68 -142 -68q-48 0 -85.5 20.5z
M309 120q37 34 46 82q-51 23 -108 23q-46 0 -74 -19.5t-28 -56.5q0 -30 22 -46.5t55 -16.5q50 0 87 34zM180 614.5q-21 21.5 -21 50.5q0 31 21 51.5t51 20.5t50.5 -20.5t20.5 -51.5q0 -30 -20.5 -51t-50.5 -21t-51 21.5zM371 614.5q-21 21.5 -21 50.5q0 31 21 51.5t51 20.5
t50.5 -20.5t20.5 -51.5q0 -30 -20.5 -51t-50.5 -21t-51 21.5z" />
    <glyph glyph-name="aring" unicode="&#xe5;" horiz-adv-x="548" 
d="M92.5 4.5q-37.5 20.5 -58.5 55.5t-21 79q0 84 61.5 133t167.5 49q66 0 129 -24l4 18q2 12 2 17q0 32 -27.5 53t-70.5 21q-73 0 -120 -56l-88 64q39 48 97.5 73t126.5 25q99 0 154 -47t55 -127q0 -21 -5 -51l-51 -287h-129l9 52h-8q-52 -68 -142 -68q-48 0 -85.5 20.5z
M309 120q37 34 46 82q-51 23 -108 23q-46 0 -74 -19.5t-28 -56.5q0 -30 22 -46.5t55 -16.5q50 0 87 34zM251.5 601.5q-31.5 31.5 -31.5 76.5t31.5 76.5t76.5 31.5t76.5 -31.5t31.5 -76.5t-31.5 -76.5t-76.5 -31.5t-76.5 31.5zM352.5 653.5q10.5 10.5 10.5 24.5t-10.5 24.5
t-24.5 10.5t-24 -10.5t-10 -24.5t10.5 -24.5t23.5 -10.5q14 0 24.5 10.5z" />
    <glyph glyph-name="ae" unicode="&#xe6;" horiz-adv-x="920" 
d="M93 4.5q-38 20.5 -59 55.5t-21 79q0 86 63 134t168 48q69 0 127 -23l4 17q2 12 2 17q0 34 -26.5 54t-70.5 20q-36 0 -65.5 -14t-44.5 -40l-95 48q70 112 222 112q59 0 101.5 -21.5t66.5 -58.5q78 80 192 80q67 0 116 -28t74.5 -75.5t25.5 -103.5q0 -47 -14 -87h-373
q-1 -3 -1 -11q2 -52 35 -79.5t82 -27.5t82.5 18.5t56.5 54.5l100 -52q-45 -68 -104.5 -102.5t-145.5 -34.5q-126 0 -190 102q-86 -102 -222 -102q-48 0 -86 20.5zM751 311v4q0 37 -29 63.5t-81 26.5q-48 0 -85.5 -27t-52.5 -67h248zM309 120q37 34 46 82q-53 23 -108 23
q-46 0 -74 -19.5t-28 -56.5q0 -30 22 -46.5t55 -16.5q50 0 87 34z" />
    <glyph glyph-name="ccedilla" unicode="&#xe7;" horiz-adv-x="559" 
d="M335.5 124.5q32.5 19.5 51.5 54.5l111 -54q-82 -141 -252 -141h-1l-19 -31q7 1 18 1q35 0 57 -24.5t22 -61.5q0 -48 -32.5 -76.5t-82.5 -28.5q-34 0 -62 19t-35 47l68 27q2 -12 11.5 -20t22.5 -8q15 0 25.5 9.5t10.5 25.5q0 14 -8.5 22.5t-21.5 8.5q-14 0 -28 -14l-55 28
l46 84q-77 19 -124 80t-47 146q0 78 37.5 145.5t107 108t158.5 40.5q82 0 138 -39t77 -105l-123 -47q-12 34 -40.5 52t-68.5 18q-45 0 -80 -21.5t-55 -58t-20 -80.5q0 -56 34 -91t84 -35q43 0 75.5 19.5z" />
    <glyph glyph-name="egrave" unicode="&#xe8;" horiz-adv-x="573" 
d="M121 15.5q-53 31.5 -81.5 85t-28.5 118.5q0 77 37 144.5t104 108t153 40.5q69 0 119 -28t75.5 -75.5t25.5 -103.5q0 -47 -14 -87h-373l-1 -11q1 -51 35 -79t82 -28q50 0 83.5 18.5t56.5 54.5l99 -52q-45 -68 -104 -102.5t-145 -34.5q-70 0 -123 31.5zM403 311v4
q0 37 -29 63.5t-80 26.5q-49 0 -86.5 -27t-52.5 -67h248zM206 730h149l18 -136h-102z" />
    <glyph glyph-name="eacute" unicode="&#xe9;" horiz-adv-x="573" 
d="M121 15.5q-53 31.5 -81.5 85t-28.5 118.5q0 77 37 144.5t104 108t153 40.5q69 0 119 -28t75.5 -75.5t25.5 -103.5q0 -47 -14 -87h-373l-1 -11q1 -51 35 -79t82 -28q50 0 83.5 18.5t56.5 54.5l99 -52q-45 -68 -104 -102.5t-145 -34.5q-70 0 -123 31.5zM403 311v4
q0 37 -29 63.5t-80 26.5q-49 0 -86.5 -27t-52.5 -67h248zM333 730h154l-114 -136h-106z" />
    <glyph glyph-name="ecircumflex" unicode="&#xea;" horiz-adv-x="573" 
d="M121 15.5q-53 31.5 -81.5 85t-28.5 118.5q0 77 37 144.5t104 108t153 40.5q69 0 119 -28t75.5 -75.5t25.5 -103.5q0 -47 -14 -87h-373l-1 -11q1 -51 35 -79t82 -28q50 0 83.5 18.5t56.5 54.5l99 -52q-45 -68 -104 -102.5t-145 -34.5q-70 0 -123 31.5zM403 311v4
q0 37 -29 63.5t-80 26.5q-49 0 -86.5 -27t-52.5 -67h248zM147 596l132 126h119l92 -126l-2 -8h-121l-31 59h-12l-48 -59h-130z" />
    <glyph glyph-name="edieresis" unicode="&#xeb;" horiz-adv-x="573" 
d="M121 15.5q-53 31.5 -81.5 85t-28.5 118.5q0 77 37 144.5t104 108t153 40.5q69 0 119 -28t75.5 -75.5t25.5 -103.5q0 -47 -14 -87h-373l-1 -11q1 -51 35 -79t82 -28q50 0 83.5 18.5t56.5 54.5l99 -52q-45 -68 -104 -102.5t-145 -34.5q-70 0 -123 31.5zM403 311v4
q0 37 -29 63.5t-80 26.5q-49 0 -86.5 -27t-52.5 -67h248zM187 614.5q-21 21.5 -21 50.5q0 31 21 51.5t51 20.5t50.5 -20.5t20.5 -51.5q0 -30 -20.5 -51t-50.5 -21t-51 21.5zM378 614.5q-21 21.5 -21 50.5q0 31 21 51.5t51 20.5t50.5 -20.5t20.5 -51.5q0 -30 -20.5 -51
t-50.5 -21t-51 21.5z" />
    <glyph glyph-name="igrave" unicode="&#xec;" horiz-adv-x="271" 
d="M92 496h131l-87 -496h-130zM60 730h149l18 -136h-102z" />
    <glyph glyph-name="iacute" unicode="&#xed;" horiz-adv-x="271" 
d="M92 496h131l-87 -496h-130zM187 730h154l-114 -136h-106z" />
    <glyph glyph-name="icircumflex" unicode="&#xee;" horiz-adv-x="271" 
d="M92 496h131l-87 -496h-130zM1 596l132 126h119l92 -126l-2 -8h-121l-31 59h-12l-48 -59h-130z" />
    <glyph glyph-name="idieresis" unicode="&#xef;" horiz-adv-x="271" 
d="M54.5 616.5q-20.5 20.5 -20.5 48.5q0 29 20.5 49t48.5 20q29 0 49 -20t20 -49q0 -28 -20 -48.5t-49 -20.5q-28 0 -48.5 20.5zM223 616.5q-21 20.5 -21 48.5q0 29 20.5 49t49.5 20t49 -20t20 -49q0 -28 -20.5 -48.5t-48.5 -20.5t-49 20.5zM92 496h131l-87 -496h-130z" />
    <glyph glyph-name="eth" unicode="&#xf0;" horiz-adv-x="581" 
d="M122.5 12.5q-50.5 28.5 -79.5 78t-29 109.5q0 78 34.5 141.5t96.5 100.5t143 37q34 0 63 -10t47 -26l7 5q-16 52 -68 100l-124 -51l-30 75l71 29q-42 19 -84 26l36 99q97 -21 172 -74l116 48l30 -74l-81 -34q43 -53 66 -123.5t23 -153.5q0 -90 -33.5 -165.5
t-100.5 -120.5t-164 -45q-61 0 -111.5 28.5zM322 121.5q32 20.5 50.5 54.5t18.5 73q0 52 -29 83t-76 31q-41 0 -74.5 -21t-52 -56t-18.5 -74q0 -50 31.5 -80.5t79.5 -30.5q38 0 70 20.5z" />
    <glyph glyph-name="ntilde" unicode="&#xf1;" horiz-adv-x="589" 
d="M205 432q26 38 67.5 59t93.5 21q75 0 117 -44.5t42 -111.5q0 -29 -6 -61l-52 -295h-131l51 285q3 27 3 32q0 33 -20.5 53.5t-57.5 20.5q-57 0 -92 -39.5t-47 -105.5l-44 -246h-130l87 496h122l-11 -64h8zM387.5 599.5q-16.5 6.5 -40.5 19.5q-30 17 -45 17q-26 0 -33 -29
h-92q8 63 42 95.5t86 32.5q20 0 36.5 -6.5t40.5 -19.5q30 -17 45 -17q26 0 33 29h92q-8 -63 -42 -95.5t-86 -32.5q-20 0 -36.5 6.5z" />
    <glyph glyph-name="ograve" unicode="&#xf2;" horiz-adv-x="593" 
d="M124 15q-54 31 -83.5 83.5t-29.5 117.5q0 83 38 150.5t106.5 106.5t155.5 39q70 0 124 -30.5t83.5 -83.5t29.5 -117q0 -83 -38 -151t-106.5 -107t-155.5 -39q-70 0 -124 31zM339.5 126.5q35.5 21.5 56 59t20.5 81.5q0 54 -33 89t-85 35q-43 0 -78.5 -21.5t-56 -59
t-20.5 -81.5q0 -54 33.5 -89t84.5 -35q43 0 78.5 21.5zM216 730h149l18 -136h-102z" />
    <glyph glyph-name="oacute" unicode="&#xf3;" horiz-adv-x="593" 
d="M124 15q-54 31 -83.5 83.5t-29.5 117.5q0 83 38 150.5t106.5 106.5t155.5 39q70 0 124 -30.5t83.5 -83.5t29.5 -117q0 -83 -38 -151t-106.5 -107t-155.5 -39q-70 0 -124 31zM339.5 126.5q35.5 21.5 56 59t20.5 81.5q0 54 -33 89t-85 35q-43 0 -78.5 -21.5t-56 -59
t-20.5 -81.5q0 -54 33.5 -89t84.5 -35q43 0 78.5 21.5zM343 730h154l-114 -136h-106z" />
    <glyph glyph-name="ocircumflex" unicode="&#xf4;" horiz-adv-x="593" 
d="M124 15q-54 31 -83.5 83.5t-29.5 117.5q0 83 38 150.5t106.5 106.5t155.5 39q70 0 124 -30.5t83.5 -83.5t29.5 -117q0 -83 -38 -151t-106.5 -107t-155.5 -39q-70 0 -124 31zM339.5 126.5q35.5 21.5 56 59t20.5 81.5q0 54 -33 89t-85 35q-43 0 -78.5 -21.5t-56 -59
t-20.5 -81.5q0 -54 33.5 -89t84.5 -35q43 0 78.5 21.5zM157 596l132 126h119l92 -126l-2 -8h-121l-31 59h-12l-48 -59h-130z" />
    <glyph glyph-name="otilde" unicode="&#xf5;" horiz-adv-x="593" 
d="M124 15q-54 31 -83.5 83.5t-29.5 117.5q0 83 38 150.5t106.5 106.5t155.5 39q70 0 124 -30.5t83.5 -83.5t29.5 -117q0 -83 -38 -151t-106.5 -107t-155.5 -39q-70 0 -124 31zM339.5 126.5q35.5 21.5 56 59t20.5 81.5q0 54 -33 89t-85 35q-43 0 -78.5 -21.5t-56 -59
t-20.5 -81.5q0 -54 33.5 -89t84.5 -35q43 0 78.5 21.5zM365.5 599.5q-16.5 6.5 -40.5 19.5q-30 17 -45 17q-26 0 -33 -29h-92q8 63 42 95.5t86 32.5q20 0 36.5 -6.5t40.5 -19.5q30 -17 45 -17q26 0 33 29h92q-8 -63 -42 -95.5t-86 -32.5q-20 0 -36.5 6.5z" />
    <glyph glyph-name="odieresis" unicode="&#xf6;" horiz-adv-x="593" 
d="M124 15q-54 31 -83.5 83.5t-29.5 117.5q0 83 38 150.5t106.5 106.5t155.5 39q70 0 124 -30.5t83.5 -83.5t29.5 -117q0 -83 -38 -151t-106.5 -107t-155.5 -39q-70 0 -124 31zM339.5 126.5q35.5 21.5 56 59t20.5 81.5q0 54 -33 89t-85 35q-43 0 -78.5 -21.5t-56 -59
t-20.5 -81.5q0 -54 33.5 -89t84.5 -35q43 0 78.5 21.5zM197 614.5q-21 21.5 -21 50.5q0 31 21 51.5t51 20.5t50.5 -20.5t20.5 -51.5q0 -30 -20.5 -51t-50.5 -21t-51 21.5zM388 614.5q-21 21.5 -21 50.5q0 31 21 51.5t51 20.5t50.5 -20.5t20.5 -51.5q0 -30 -20.5 -51
t-50.5 -21t-51 21.5z" />
    <glyph glyph-name="divide" unicode="&#xf7;" horiz-adv-x="569" 
d="M246 410q-24 24 -24 58t24 58t58 24t58 -24t24 -58t-24 -58t-58 -24t-58 24zM51 325h457l-20 -108h-456zM177 16q-24 24 -24 58t24 58t58 24t58 -24t24 -58t-24 -58t-58 -24t-58 24z" />
    <glyph glyph-name="oslash" unicode="&#xf8;" horiz-adv-x="593" 
d="M34 10l36 47q-28 31 -43.5 72t-15.5 87q0 83 38 150.5t106.5 106.5t155.5 39q55 0 105 -21l42 53l74 -61l-40 -49q56 -64 56 -153q0 -83 -38 -151t-106.5 -107t-155.5 -39q-52 0 -98 19l-39 -50zM336 391q-18 8 -38 8q-43 0 -79.5 -23.5t-58 -63t-21.5 -83.5
q0 -38 16 -66zM340.5 119.5q36.5 23.5 58 62.5t21.5 85q0 33 -13 58l-178 -224q17 -5 32 -5q43 0 79.5 23.5z" />
    <glyph glyph-name="ugrave" unicode="&#xf9;" horiz-adv-x="589" 
d="M345 64q-26 -38 -67.5 -59t-93.5 -21q-75 0 -117 44.5t-42 111.5q0 27 6 61l52 295h131l-51 -285q-3 -27 -3 -32q0 -32 21 -53t57 -21q57 0 92 39t47 106l44 246h130l-87 -496h-122l11 64h-8zM220 730h149l18 -136h-102z" />
    <glyph glyph-name="uacute" unicode="&#xfa;" horiz-adv-x="589" 
d="M345 64q-26 -38 -67.5 -59t-93.5 -21q-75 0 -117 44.5t-42 111.5q0 27 6 61l52 295h131l-51 -285q-3 -27 -3 -32q0 -32 21 -53t57 -21q57 0 92 39t47 106l44 246h130l-87 -496h-122l11 64h-8zM347 730h154l-114 -136h-106z" />
    <glyph glyph-name="ucircumflex" unicode="&#xfb;" horiz-adv-x="589" 
d="M345 64q-26 -38 -67.5 -59t-93.5 -21q-75 0 -117 44.5t-42 111.5q0 27 6 61l52 295h131l-51 -285q-3 -27 -3 -32q0 -32 21 -53t57 -21q57 0 92 39t47 106l44 246h130l-87 -496h-122l11 64h-8zM161 596l132 126h119l92 -126l-2 -8h-121l-31 59h-12l-48 -59h-130z" />
    <glyph glyph-name="udieresis" unicode="&#xfc;" horiz-adv-x="589" 
d="M345 64q-26 -38 -67.5 -59t-93.5 -21q-75 0 -117 44.5t-42 111.5q0 27 6 61l52 295h131l-51 -285q-3 -27 -3 -32q0 -32 21 -53t57 -21q57 0 92 39t47 106l44 246h130l-87 -496h-122l11 64h-8zM201 614.5q-21 21.5 -21 50.5q0 31 21 51.5t51 20.5t50.5 -20.5t20.5 -51.5
q0 -30 -20.5 -51t-50.5 -21t-51 21.5zM392 614.5q-21 21.5 -21 50.5q0 31 21 51.5t51 20.5t50.5 -20.5t20.5 -51.5q0 -30 -20.5 -51t-50.5 -21t-51 21.5z" />
    <glyph glyph-name="yacute" unicode="&#xfd;" horiz-adv-x="565" 
d="M164 29l-124 467h147l73 -303h7l177 303h148l-436 -712h-143zM339 730h154l-114 -136h-106z" />
    <glyph glyph-name="thorn" unicode="&#xfe;" horiz-adv-x="605" 
d="M135 716h131l-37 -209l-20 -70h8q23 34 62 54.5t95 20.5q58 0 104.5 -30t73 -83t26.5 -119q0 -80 -35.5 -148t-99.5 -108t-145 -40q-49 0 -90.5 22t-58.5 54h-8l-3 -71l-36 -205h-131zM373 127q35 22 54.5 59.5t19.5 82.5q0 56 -33.5 89t-87.5 33q-40 0 -75.5 -20.5
t-56.5 -58.5t-21 -87q0 -54 34 -87t87 -33q44 0 79 22z" />
    <glyph glyph-name="ydieresis" unicode="&#xff;" horiz-adv-x="565" 
d="M164 29l-124 467h147l73 -303h7l177 303h148l-436 -712h-143zM193 614.5q-21 21.5 -21 50.5q0 31 21 51.5t51 20.5t50.5 -20.5t20.5 -51.5q0 -30 -20.5 -51t-50.5 -21t-51 21.5zM384 614.5q-21 21.5 -21 50.5q0 31 21 51.5t51 20.5t50.5 -20.5t20.5 -51.5
q0 -30 -20.5 -51t-50.5 -21t-51 21.5z" />
    <glyph glyph-name="Amacron" unicode="&#x100;" horiz-adv-x="720" 
d="M340 716h158l143 -716h-143l-32 171h-273l-89 -171h-154zM443 295l-33 180l-10 86h-8l-40 -86l-95 -180h186zM297 893h296l-18 -100h-296z" />
    <glyph glyph-name="amacron" unicode="&#x101;" horiz-adv-x="548" 
d="M92.5 4.5q-37.5 20.5 -58.5 55.5t-21 79q0 84 61.5 133t167.5 49q66 0 129 -24l4 18q2 12 2 17q0 32 -27.5 53t-70.5 21q-73 0 -120 -56l-88 64q39 48 97.5 73t126.5 25q99 0 154 -47t55 -127q0 -21 -5 -51l-51 -287h-129l9 52h-8q-52 -68 -142 -68q-48 0 -85.5 20.5z
M309 120q37 34 46 82q-51 23 -108 23q-46 0 -74 -19.5t-28 -56.5q0 -30 22 -46.5t55 -16.5q50 0 87 34zM187 715h296l-18 -100h-296z" />
    <glyph glyph-name="Abreve" unicode="&#x102;" horiz-adv-x="720" 
d="M340 716h158l143 -716h-143l-32 171h-273l-89 -171h-154zM443 295l-33 180l-10 86h-8l-40 -86l-95 -180h186zM341.5 795q-34.5 32 -34.5 81q0 13 2 23h92q-1 -4 -1 -9q0 -16 10 -26.5t28 -10.5q19 0 33 13t18 33h92q-10 -66 -51 -101t-104 -35q-50 0 -84.5 32z" />
    <glyph glyph-name="abreve" unicode="&#x103;" horiz-adv-x="548" 
d="M92.5 4.5q-37.5 20.5 -58.5 55.5t-21 79q0 84 61.5 133t167.5 49q66 0 129 -24l4 18q2 12 2 17q0 32 -27.5 53t-70.5 21q-73 0 -120 -56l-88 64q39 48 97.5 73t126.5 25q99 0 154 -47t55 -127q0 -21 -5 -51l-51 -287h-129l9 52h-8q-52 -68 -142 -68q-48 0 -85.5 20.5z
M309 120q37 34 46 82q-51 23 -108 23q-46 0 -74 -19.5t-28 -56.5q0 -30 22 -46.5t55 -16.5q50 0 87 34zM230.5 617q-34.5 32 -34.5 81q0 13 2 23h92q-1 -4 -1 -9q0 -16 10 -26.5t28 -10.5q19 0 33 13t18 33h92q-10 -66 -51 -101t-104 -35q-50 0 -84.5 32z" />
    <glyph glyph-name="Aogonek" unicode="&#x104;" horiz-adv-x="720" 
d="M470.5 -197q-30.5 27 -30.5 70q0 37 20.5 68.5t54.5 53.5l-1 5h-16l-32 171h-273l-89 -171h-154l390 716h158l143 -716q-34 -19 -59.5 -45t-25.5 -52q0 -15 9 -23.5t24 -8.5q18 0 42 11l-17 -96q-29 -10 -59 -10q-54 0 -84.5 27zM443 295l-33 180l-10 86h-8l-40 -86
l-95 -180h186z" />
    <glyph glyph-name="aogonek" unicode="&#x105;" horiz-adv-x="548" 
d="M277.5 -197q-30.5 27 -30.5 70q0 37 20.5 68t56.5 53l-5 6l9 52h-8q-52 -68 -142 -68q-48 0 -85.5 20.5t-58.5 55.5t-21 79q0 84 61.5 133t167.5 49q66 0 129 -24l4 18q2 12 2 17q0 32 -27.5 53t-70.5 21q-73 0 -120 -56l-88 64q39 48 97.5 73t126.5 25q99 0 154 -47
t55 -127q0 -21 -5 -51l-51 -287q-34 -19 -59.5 -45t-25.5 -52q0 -15 9 -23.5t24 -8.5q18 0 42 11l-17 -96q-29 -10 -59 -10q-54 0 -84.5 27zM309 120q37 34 46 82q-51 23 -108 23q-46 0 -74 -19.5t-28 -56.5q0 -30 22 -46.5t55 -16.5q50 0 87 34z" />
    <glyph glyph-name="Cacute" unicode="&#x106;" horiz-adv-x="746" 
d="M195 24.5q-74 40.5 -116.5 115.5t-42.5 176q0 112 55 207.5t153.5 152t221.5 56.5q88 0 154 -32.5t106 -90.5l-107 -88q-31 41 -71.5 62t-99.5 21q-75 0 -138.5 -37.5t-101 -102t-37.5 -141.5q0 -63 26 -111t72.5 -74t105.5 -26q61 0 110.5 25t98.5 74l86 -97
q-68 -69 -139.5 -99.5t-168.5 -30.5q-93 0 -167 40.5zM479 908h154l-114 -136h-106z" />
    <glyph glyph-name="cacute" unicode="&#x107;" horiz-adv-x="559" 
d="M124.5 14q-53.5 30 -83.5 83t-30 121q0 78 37.5 145.5t107 108t158.5 40.5q82 0 138 -39t77 -105l-123 -47q-12 34 -40.5 52t-68.5 18q-45 0 -80 -21.5t-55 -58t-20 -80.5q0 -56 34 -91t84 -35q43 0 75.5 19.5t51.5 54.5l111 -54q-82 -141 -252 -141q-68 0 -121.5 30z
M334 730h154l-114 -136h-106z" />
    <glyph glyph-name="Ccircumflex" unicode="&#x108;" horiz-adv-x="746" 
d="M195 24.5q-74 40.5 -116.5 115.5t-42.5 176q0 112 55 207.5t153.5 152t221.5 56.5q88 0 154 -32.5t106 -90.5l-107 -88q-31 41 -71.5 62t-99.5 21q-75 0 -138.5 -37.5t-101 -102t-37.5 -141.5q0 -63 26 -111t72.5 -74t105.5 -26q61 0 110.5 25t98.5 74l86 -97
q-68 -69 -139.5 -99.5t-168.5 -30.5q-93 0 -167 40.5zM296 786l132 126h119l91 -126l-1 -8h-121l-31 59h-12l-49 -59h-129z" />
    <glyph glyph-name="ccircumflex" unicode="&#x109;" horiz-adv-x="559" 
d="M124.5 14q-53.5 30 -83.5 83t-30 121q0 78 37.5 145.5t107 108t158.5 40.5q82 0 138 -39t77 -105l-123 -47q-12 34 -40.5 52t-68.5 18q-45 0 -80 -21.5t-55 -58t-20 -80.5q0 -56 34 -91t84 -35q43 0 75.5 19.5t51.5 54.5l111 -54q-82 -141 -252 -141q-68 0 -121.5 30z
M148 596l132 126h119l92 -126l-2 -8h-121l-31 59h-12l-48 -59h-130z" />
    <glyph glyph-name="Cdotaccent" unicode="&#x10a;" horiz-adv-x="746" 
d="M195 24.5q-74 40.5 -116.5 115.5t-42.5 176q0 112 55 207.5t153.5 152t221.5 56.5q88 0 154 -32.5t106 -90.5l-107 -88q-31 41 -71.5 62t-99.5 21q-75 0 -138.5 -37.5t-101 -102t-37.5 -141.5q0 -63 26 -111t72.5 -74t105.5 -26q61 0 110.5 25t98.5 74l86 -97
q-68 -69 -139.5 -99.5t-168.5 -30.5q-93 0 -167 40.5zM432 806q-21 21 -21 50t20.5 50t49.5 21q30 0 50.5 -21t20.5 -50t-20.5 -50t-50.5 -21q-28 0 -49 21z" />
    <glyph glyph-name="cdotaccent" unicode="&#x10b;" horiz-adv-x="559" 
d="M124.5 14q-53.5 30 -83.5 83t-30 121q0 78 37.5 145.5t107 108t158.5 40.5q82 0 138 -39t77 -105l-123 -47q-12 34 -40.5 52t-68.5 18q-45 0 -80 -21.5t-55 -58t-20 -80.5q0 -56 34 -91t84 -35q43 0 75.5 19.5t51.5 54.5l111 -54q-82 -141 -252 -141q-68 0 -121.5 30z
M279.5 603.5q-22.5 22.5 -22.5 53.5t22.5 53.5t53.5 22.5t53.5 -22t22.5 -54q0 -31 -22.5 -53.5t-53.5 -22.5t-53.5 22.5z" />
    <glyph glyph-name="Ccaron" unicode="&#x10c;" horiz-adv-x="746" 
d="M195 24.5q-74 40.5 -116.5 115.5t-42.5 176q0 112 55 207.5t153.5 152t221.5 56.5q88 0 154 -32.5t106 -90.5l-107 -88q-31 41 -71.5 62t-99.5 21q-75 0 -138.5 -37.5t-101 -102t-37.5 -141.5q0 -63 26 -111t72.5 -74t105.5 -26q61 0 110.5 25t98.5 74l86 -97
q-68 -69 -139.5 -99.5t-168.5 -30.5q-93 0 -167 40.5zM321 904l1 8h121l31 -59h12l49 59h129l-1 -8l-132 -126h-119z" />
    <glyph glyph-name="ccaron" unicode="&#x10d;" horiz-adv-x="559" 
d="M124.5 14q-53.5 30 -83.5 83t-30 121q0 78 37.5 145.5t107 108t158.5 40.5q82 0 138 -39t77 -105l-123 -47q-12 34 -40.5 52t-68.5 18q-45 0 -80 -21.5t-55 -58t-20 -80.5q0 -56 34 -91t84 -35q43 0 75.5 19.5t51.5 54.5l111 -54q-82 -141 -252 -141q-68 0 -121.5 30z
M174 714l1 8h121l31 -59h12l49 59h130l-2 -8l-132 -126h-119z" />
    <glyph glyph-name="Dcaron" unicode="&#x10e;" horiz-adv-x="733" 
d="M141 716h228q104 0 177.5 -40t111 -110.5t37.5 -163.5q0 -109 -52 -201t-149.5 -146.5t-225.5 -54.5h-254zM273 128q84 0 149 33.5t101 92.5t36 133q0 98 -51.5 149.5t-152.5 51.5h-102l-81 -460h101zM230 892l1 8h121l31 -59h12l49 59h129l-1 -8l-132 -126h-119z" />
    <glyph glyph-name="dcaron" unicode="&#x10f;" horiz-adv-x="730" 
d="M110.5 14q-46.5 30 -73 83t-26.5 119q0 80 35.5 148t99.5 108t145 40q49 0 90.5 -22t58.5 -53h8l3 70l37 209h131l-127 -716h-122l10 60h-8q-23 -34 -62 -55t-95 -21q-58 0 -104.5 30zM338.5 125.5q35.5 20.5 56.5 58.5t21 87q0 54 -34 87t-87 33q-44 0 -79 -22
t-54.5 -59.5t-19.5 -82.5q0 -56 33.5 -89t87.5 -33q40 0 75.5 20.5zM672 716h138l-81 -215h-95z" />
    <glyph glyph-name="Dcroat" unicode="&#x110;" horiz-adv-x="725" 
d="M-9 317l18 110h73l52 289h227q104 0 177.5 -40t111 -110.5t37.5 -163.5q0 -109 -52 -201t-149.5 -146.5t-225.5 -54.5h-253l55 317h-71zM415 161.5q65 33.5 100.5 92.5t35.5 133q0 98 -51 149.5t-153 51.5h-101l-29 -161h184l-19 -110h-185l-33 -189h102q84 0 149 33.5z
" />
    <glyph glyph-name="dcroat" unicode="&#x111;" horiz-adv-x="612" 
d="M110.5 14q-46.5 30 -73 83t-26.5 119q0 80 35.5 148t99.5 108t145 40q49 0 90.5 -22t58.5 -53h8l3 70l10 58h-135l16 91h135l11 60h131l-12 -60h60l-16 -91h-59l-100 -565h-122l10 60h-8q-23 -34 -62 -55t-95 -21q-58 0 -104.5 30zM338.5 125.5q35.5 20.5 56.5 58.5
t21 87q0 54 -34 87t-87 33q-44 0 -79 -22t-54.5 -59.5t-19.5 -82.5q0 -56 33.5 -89t87.5 -33q40 0 75.5 20.5z" />
    <glyph glyph-name="Emacron" unicode="&#x112;" horiz-adv-x="589" 
d="M141 716h454l-22 -128h-320l-29 -166h287l-23 -128h-287l-29 -166h319l-23 -128h-454zM250 893h296l-18 -100h-296z" />
    <glyph glyph-name="emacron" unicode="&#x113;" horiz-adv-x="573" 
d="M121 15.5q-53 31.5 -81.5 85t-28.5 118.5q0 77 37 144.5t104 108t153 40.5q69 0 119 -28t75.5 -75.5t25.5 -103.5q0 -47 -14 -87h-373l-1 -11q1 -51 35 -79t82 -28q50 0 83.5 18.5t56.5 54.5l99 -52q-45 -68 -104 -102.5t-145 -34.5q-70 0 -123 31.5zM403 311v4
q0 37 -29 63.5t-80 26.5q-49 0 -86.5 -27t-52.5 -67h248zM194 715h296l-18 -100h-296z" />
    <glyph glyph-name="Ebreve" unicode="&#x114;" horiz-adv-x="589" 
d="M141 716h454l-22 -128h-320l-29 -166h287l-23 -128h-287l-29 -166h319l-23 -128h-454zM294.5 795q-34.5 32 -34.5 81q0 13 2 23h92q-1 -4 -1 -9q0 -16 10 -26.5t28 -10.5q19 0 33 13t18 33h92q-10 -66 -51 -101t-104 -35q-50 0 -84.5 32z" />
    <glyph glyph-name="ebreve" unicode="&#x115;" horiz-adv-x="573" 
d="M121 15.5q-53 31.5 -81.5 85t-28.5 118.5q0 77 37 144.5t104 108t153 40.5q69 0 119 -28t75.5 -75.5t25.5 -103.5q0 -47 -14 -87h-373l-1 -11q1 -51 35 -79t82 -28q50 0 83.5 18.5t56.5 54.5l99 -52q-45 -68 -104 -102.5t-145 -34.5q-70 0 -123 31.5zM403 311v4
q0 37 -29 63.5t-80 26.5q-49 0 -86.5 -27t-52.5 -67h248zM237.5 617q-34.5 32 -34.5 81q0 13 2 23h92q-1 -4 -1 -9q0 -16 10 -26.5t28 -10.5q19 0 33 13t18 33h92q-10 -66 -51 -101t-104 -35q-50 0 -84.5 32z" />
    <glyph glyph-name="Edotaccent" unicode="&#x116;" horiz-adv-x="589" 
d="M141 716h454l-22 -128h-320l-29 -166h287l-23 -128h-287l-29 -166h319l-23 -128h-454zM342 806q-21 21 -21 50t20.5 50t49.5 21q30 0 50.5 -21t20.5 -50t-20.5 -50t-50.5 -21q-28 0 -49 21z" />
    <glyph glyph-name="edotaccent" unicode="&#x117;" horiz-adv-x="573" 
d="M121 15.5q-53 31.5 -81.5 85t-28.5 118.5q0 77 37 144.5t104 108t153 40.5q69 0 119 -28t75.5 -75.5t25.5 -103.5q0 -47 -14 -87h-373l-1 -11q1 -51 35 -79t82 -28q50 0 83.5 18.5t56.5 54.5l99 -52q-45 -68 -104 -102.5t-145 -34.5q-70 0 -123 31.5zM403 311v4
q0 37 -29 63.5t-80 26.5q-49 0 -86.5 -27t-52.5 -67h248zM278.5 603.5q-22.5 22.5 -22.5 53.5t22.5 53.5t53.5 22.5t53.5 -22t22.5 -54q0 -31 -22.5 -53.5t-53.5 -22.5t-53.5 22.5z" />
    <glyph glyph-name="Eogonek" unicode="&#x118;" horiz-adv-x="589" 
d="M141 716h454l-22 -128h-320l-29 -166h287l-23 -128h-287l-29 -166h319l-23 -128h-454zM297.5 -197q-30.5 27 -30.5 70q0 40 22.5 72.5t61.5 54.5h117q-34 -19 -59.5 -45t-25.5 -52q0 -15 9 -23.5t24 -8.5q18 0 42 11l-17 -96q-30 -10 -60 -10q-53 0 -83.5 27z" />
    <glyph glyph-name="eogonek" unicode="&#x119;" horiz-adv-x="573" 
d="M184.5 -196.5q-31.5 27.5 -31.5 69.5q0 33 16.5 62t45.5 50q-62 7 -108.5 39.5t-71 83.5t-24.5 111q0 77 37 144.5t104 108t153 40.5q69 0 119 -28t75.5 -75.5t25.5 -103.5q0 -47 -14 -87h-373l-1 -11q1 -51 35 -79t82 -28q50 0 83.5 18.5t56.5 54.5l99 -52
q-51 -78 -129 -116q-41 -19 -68 -46.5t-27 -55.5q0 -15 9 -23.5t24 -8.5q14 0 29 7l11 -88q-31 -14 -72 -14q-54 0 -85.5 27.5zM403 311v4q0 37 -29 63.5t-80 26.5q-49 0 -86.5 -27t-52.5 -67h248z" />
    <glyph glyph-name="Ecaron" unicode="&#x11a;" horiz-adv-x="589" 
d="M141 716h454l-22 -128h-320l-29 -166h287l-23 -128h-287l-29 -166h319l-23 -128h-454zM231 904l1 8h121l31 -59h12l49 59h129l-1 -8l-132 -126h-119z" />
    <glyph glyph-name="ecaron" unicode="&#x11b;" horiz-adv-x="573" 
d="M121 15.5q-53 31.5 -81.5 85t-28.5 118.5q0 77 37 144.5t104 108t153 40.5q69 0 119 -28t75.5 -75.5t25.5 -103.5q0 -47 -14 -87h-373l-1 -11q1 -51 35 -79t82 -28q50 0 83.5 18.5t56.5 54.5l99 -52q-45 -68 -104 -102.5t-145 -34.5q-70 0 -123 31.5zM403 311v4
q0 37 -29 63.5t-80 26.5q-49 0 -86.5 -27t-52.5 -67h248zM173 714l1 8h121l31 -59h12l49 59h130l-2 -8l-132 -126h-119z" />
    <glyph glyph-name="Gcircumflex" unicode="&#x11c;" horiz-adv-x="822" 
d="M203.5 27q-78.5 43 -122.5 120.5t-44 176.5q0 108 54.5 202t153.5 150t225 56q88 0 157 -31t111 -86l-107 -91q-26 36 -71.5 58t-103.5 22q-78 0 -142.5 -34.5t-102.5 -97t-38 -142.5q0 -66 28.5 -115.5t77.5 -76t111 -26.5q101 0 167 57q46 40 69 109h-222l21 115h350
q1 -8 1 -21q0 -88 -32.5 -161.5t-89.5 -126.5q-54 -49 -123 -74.5t-148 -25.5q-101 0 -179.5 43zM306 786l132 126h119l91 -126l-1 -8h-121l-31 59h-12l-49 -59h-129z" />
    <glyph glyph-name="gcircumflex" unicode="&#x11d;" horiz-adv-x="612" 
d="M67 -188.5q-58 43.5 -73 105.5l128 47q8 -38 36 -59t69 -21q134 0 159 139l7 43h-8q-23 -34 -61.5 -52t-88.5 -18q-58 0 -104.5 28t-73 79t-26.5 117q0 75 33.5 142t96 108.5t145.5 41.5q50 0 88 -18t58 -51h8l9 53h125l-85 -482q-21 -122 -94.5 -184t-198.5 -62
q-91 0 -149 43.5zM352 136.5q35 21.5 56 59t21 83.5q0 53 -33.5 83.5t-80.5 30.5q-43 0 -78 -22t-55 -59.5t-20 -80.5q0 -55 32.5 -85.5t81.5 -30.5q41 0 76 21.5zM161 596l132 126h119l92 -126l-2 -8h-121l-31 59h-12l-48 -59h-130z" />
    <glyph glyph-name="Gbreve" unicode="&#x11e;" horiz-adv-x="822" 
d="M203.5 27q-78.5 43 -122.5 120.5t-44 176.5q0 108 54.5 202t153.5 150t225 56q88 0 157 -31t111 -86l-107 -91q-26 36 -71.5 58t-103.5 22q-78 0 -142.5 -34.5t-102.5 -97t-38 -142.5q0 -66 28.5 -115.5t77.5 -76t111 -26.5q101 0 167 57q46 40 69 109h-222l21 115h350
q1 -8 1 -21q0 -88 -32.5 -161.5t-89.5 -126.5q-54 -49 -123 -74.5t-148 -25.5q-101 0 -179.5 43zM394.5 795q-34.5 32 -34.5 81q0 13 2 23h92q-1 -4 -1 -9q0 -16 10 -26.5t28 -10.5q19 0 33 13t18 33h92q-10 -66 -51 -101t-104 -35q-50 0 -84.5 32z" />
    <glyph glyph-name="gbreve" unicode="&#x11f;" horiz-adv-x="612" 
d="M67 -188.5q-58 43.5 -73 105.5l128 47q8 -38 36 -59t69 -21q134 0 159 139l7 43h-8q-23 -34 -61.5 -52t-88.5 -18q-58 0 -104.5 28t-73 79t-26.5 117q0 75 33.5 142t96 108.5t145.5 41.5q50 0 88 -18t58 -51h8l9 53h125l-85 -482q-21 -122 -94.5 -184t-198.5 -62
q-91 0 -149 43.5zM352 136.5q35 21.5 56 59t21 83.5q0 53 -33.5 83.5t-80.5 30.5q-43 0 -78 -22t-55 -59.5t-20 -80.5q0 -55 32.5 -85.5t81.5 -30.5q41 0 76 21.5zM251.5 617q-34.5 32 -34.5 81q0 13 2 23h92q-1 -4 -1 -9q0 -16 10 -26.5t28 -10.5q19 0 33 13t18 33h92
q-10 -66 -51 -101t-104 -35q-50 0 -84.5 32z" />
    <glyph glyph-name="Gdotaccent" unicode="&#x120;" horiz-adv-x="822" 
d="M203.5 27q-78.5 43 -122.5 120.5t-44 176.5q0 108 54.5 202t153.5 150t225 56q88 0 157 -31t111 -86l-107 -91q-26 36 -71.5 58t-103.5 22q-78 0 -142.5 -34.5t-102.5 -97t-38 -142.5q0 -66 28.5 -115.5t77.5 -76t111 -26.5q101 0 167 57q46 40 69 109h-222l21 115h350
q1 -8 1 -21q0 -88 -32.5 -161.5t-89.5 -126.5q-54 -49 -123 -74.5t-148 -25.5q-101 0 -179.5 43zM442 806q-21 21 -21 50t20.5 50t49.5 21q30 0 50.5 -21t20.5 -50t-20.5 -50t-50.5 -21q-28 0 -49 21z" />
    <glyph glyph-name="gdotaccent" unicode="&#x121;" horiz-adv-x="612" 
d="M67 -188.5q-58 43.5 -73 105.5l128 47q8 -38 36 -59t69 -21q134 0 159 139l7 43h-8q-23 -34 -61.5 -52t-88.5 -18q-58 0 -104.5 28t-73 79t-26.5 117q0 75 33.5 142t96 108.5t145.5 41.5q50 0 88 -18t58 -51h8l9 53h125l-85 -482q-21 -122 -94.5 -184t-198.5 -62
q-91 0 -149 43.5zM352 136.5q35 21.5 56 59t21 83.5q0 53 -33.5 83.5t-80.5 30.5q-43 0 -78 -22t-55 -59.5t-20 -80.5q0 -55 32.5 -85.5t81.5 -30.5q41 0 76 21.5zM292.5 603.5q-22.5 22.5 -22.5 53.5t22.5 53.5t53.5 22.5t53.5 -22t22.5 -54q0 -31 -22.5 -53.5t-53.5 -22.5
t-53.5 22.5z" />
    <glyph glyph-name="Gcommaaccent" unicode="&#x122;" horiz-adv-x="822" 
d="M203.5 27q-78.5 43 -122.5 120.5t-44 176.5q0 108 54.5 202t153.5 150t225 56q88 0 157 -31t111 -86l-107 -91q-26 36 -71.5 58t-103.5 22q-78 0 -142.5 -34.5t-102.5 -97t-38 -142.5q0 -66 28.5 -115.5t77.5 -76t111 -26.5q101 0 167 57q46 40 69 109h-222l21 115h350
q1 -8 1 -21q0 -88 -32.5 -161.5t-89.5 -126.5q-54 -49 -123 -74.5t-148 -25.5q-101 0 -179.5 43zM330 -183q-20 8 -31.5 25t-11.5 39q0 29 20.5 50t50.5 21t50.5 -21t20.5 -51q0 -29 -19 -52l-94 -114l-44 37z" />
    <glyph glyph-name="gcommaaccent" unicode="&#x123;" horiz-adv-x="612" 
d="M67 -188.5q-58 43.5 -73 105.5l128 47q8 -38 36 -59t69 -21q134 0 159 139l7 43h-8q-23 -34 -61.5 -52t-88.5 -18q-58 0 -104.5 28t-73 79t-26.5 117q0 75 33.5 142t96 108.5t145.5 41.5q50 0 88 -18t58 -51h8l9 53h125l-85 -482q-21 -122 -94.5 -184t-198.5 -62
q-91 0 -149 43.5zM352 136.5q35 21.5 56 59t21 83.5q0 53 -33.5 83.5t-80.5 30.5q-43 0 -78 -22t-55 -59.5t-20 -80.5q0 -55 32.5 -85.5t81.5 -30.5q41 0 76 21.5zM373 713q20 -8 31.5 -25t11.5 -39q0 -29 -20.5 -50t-50.5 -21t-50.5 21t-20.5 51q0 29 19 52l94 114l44 -37z
" />
    <glyph glyph-name="Hcircumflex" unicode="&#x124;" horiz-adv-x="729" 
d="M141 716h135l-51 -286h302l51 286h135l-127 -716h-135l54 302h-302l-54 -302h-135zM267 786l132 126h119l91 -126l-1 -8h-121l-31 59h-12l-49 -59h-129z" />
    <glyph glyph-name="hcircumflex" unicode="&#x125;" horiz-adv-x="589" 
d="M125 716h130l-35 -194l-23 -90h8q26 38 68 59t94 21q75 0 116.5 -44t41.5 -111q0 -33 -6 -61l-53 -296h-130l50 285q4 18 4 32q0 33 -20.5 53.5t-57.5 20.5q-57 0 -92 -39.5t-47 -107.5l-44 -244h-130zM198 774l132 126h119l92 -126l-2 -8h-121l-31 59h-12l-48 -59h-130z
" />
    <glyph glyph-name="Hbar" unicode="&#x126;" horiz-adv-x="729" 
d="M39 493l17 98h63l22 125h135l-22 -125h302l22 125h135l-23 -125h63l-17 -98h-63l-87 -493h-135l54 302h-302l-54 -302h-135l88 493h-63zM538 493h-302l-11 -63h302z" />
    <glyph glyph-name="hbar" unicode="&#x127;" horiz-adv-x="588" 
d="M97 565h-58l16 91h58l11 60h131l-11 -60h135l-16 -91h-135l-8 -43l-23 -90h8q26 38 67.5 59t93.5 21q76 0 117 -44t41 -111q0 -32 -5 -61l-53 -296h-131l51 285q3 14 3 32q0 32 -20.5 53t-56.5 21q-57 0 -92 -39.5t-48 -107.5l-43 -244h-131z" />
    <glyph glyph-name="Itilde" unicode="&#x128;" horiz-adv-x="293" 
d="M141 716h135l-127 -716h-135zM254.5 777.5q-16.5 6.5 -40.5 19.5q-30 17 -45 17q-26 0 -33 -29h-92q8 63 42 95.5t86 32.5q20 0 36.5 -6.5t40.5 -19.5q30 -17 45 -17q26 0 33 29h92q-8 -63 -42 -95.5t-86 -32.5q-20 0 -36.5 6.5z" />
    <glyph glyph-name="itilde" unicode="&#x129;" horiz-adv-x="271" 
d="M92 496h131l-87 -496h-130zM209.5 599.5q-16.5 6.5 -40.5 19.5q-30 17 -45 17q-26 0 -33 -29h-92q8 63 42 95.5t86 32.5q20 0 36.5 -6.5t40.5 -19.5q30 -17 45 -17q26 0 33 29h92q-8 -63 -42 -95.5t-86 -32.5q-20 0 -36.5 6.5z" />
    <glyph glyph-name="Imacron" unicode="&#x12a;" horiz-adv-x="293" 
d="M101 893h275l-18 -100h-274zM141 716h135l-127 -716h-135z" />
    <glyph glyph-name="imacron" unicode="&#x12b;" horiz-adv-x="271" 
d="M92 496h131l-87 -496h-130zM48 715h296l-18 -100h-296z" />
    <glyph glyph-name="Ibreve" unicode="&#x12c;" horiz-adv-x="293" 
d="M141 716h135l-127 -716h-135zM137.5 795q-34.5 32 -34.5 81q0 13 2 23h92q-1 -4 -1 -9q0 -16 10 -26.5t28 -10.5q19 0 33 13t18 33h92q-10 -66 -51 -101t-104 -35q-50 0 -84.5 32z" />
    <glyph glyph-name="ibreve" unicode="&#x12d;" horiz-adv-x="271" 
d="M92 496h131l-87 -496h-130zM91.5 617q-34.5 32 -34.5 81q0 13 2 23h92q-1 -4 -1 -9q0 -16 10 -26.5t28 -10.5q19 0 33 13t18 33h92q-10 -66 -51 -101t-104 -35q-50 0 -84.5 32z" />
    <glyph glyph-name="Iogonek" unicode="&#x12e;" horiz-adv-x="293" 
d="M-21.5 -197q-30.5 27 -30.5 70q0 37 21 68.5t56 53.5l-1 5h-10l127 716h135l-127 -716q-34 -19 -59.5 -45t-25.5 -52q0 -15 9 -23.5t24 -8.5q18 0 42 11l-17 -96q-30 -10 -60 -10q-53 0 -83.5 27z" />
    <glyph glyph-name="iogonek" unicode="&#x12f;" horiz-adv-x="271" 
d="M130.5 598q-22.5 23 -22.5 55t22.5 54.5t54.5 22.5t55 -22.5t23 -54.5t-23 -55t-55 -23t-54.5 23zM-34.5 -197q-30.5 27 -30.5 70q0 37 19.5 67.5t54.5 52.5l-3 7l86 496h131l-87 -496q-34 -19 -59.5 -45t-25.5 -52q0 -15 9 -23.5t24 -8.5q18 0 42 11l-17 -96
q-29 -10 -59 -10q-54 0 -84.5 27z" />
    <glyph glyph-name="Idotaccent" unicode="&#x130;" horiz-adv-x="293" 
d="M141 716h135l-127 -716h-135zM185 806q-21 21 -21 50t20.5 50t49.5 21q30 0 50.5 -21t20.5 -50t-20.5 -50t-50.5 -21q-28 0 -49 21z" />
    <glyph glyph-name="dotlessi" unicode="&#x131;" horiz-adv-x="271" 
d="M92 496h131l-87 -496h-130z" />
    <glyph glyph-name="Jcircumflex" unicode="&#x134;" horiz-adv-x="565" 
d="M109 6q-47 22 -78 61.5t-37 89.5l129 50q6 -46 34 -70.5t69 -24.5q46 0 76.5 30t39.5 84l86 490h135l-86 -489q-22 -124 -92.5 -183.5t-173.5 -59.5q-55 0 -102 22zM336 786l132 126h119l91 -126l-1 -8h-121l-31 59h-12l-49 -59h-129z" />
    <glyph glyph-name="jcircumflex" unicode="&#x135;" horiz-adv-x="271" 
d="M-130 -217l22 122q18 -11 48 -11q26 0 38.5 13.5t18.5 42.5l96 546h131l-97 -550q-18 -99 -64 -135.5t-124 -36.5q-40 0 -69 9zM2 596l132 126h119l92 -126l-2 -8h-121l-31 59h-12l-48 -59h-130z" />
    <glyph glyph-name="Kcommaaccent" unicode="&#x136;" horiz-adv-x="679" 
d="M141 716h135l-53 -303h8l311 303h167l-1 -8l-312 -298l212 -402l-2 -8h-157l-162 307l-100 -97l-38 -210h-135zM254 -183q-20 8 -31.5 25t-11.5 39q0 29 20.5 50t50.5 21t50.5 -21t20.5 -51q0 -29 -19 -52l-94 -114l-44 37z" />
    <glyph glyph-name="kcommaaccent" unicode="&#x137;" horiz-adv-x="546" 
d="M125 716h131l-68 -385h7l192 165h168l-2 -8l-220 -184l148 -296l-1 -8h-149l-103 218l-70 -59l-28 -159h-131zM189 -183q-20 8 -31.5 25t-11.5 39q0 29 20.5 50t50.5 21t50.5 -21t20.5 -51q0 -29 -19 -52l-94 -114l-44 37z" />
    <glyph glyph-name="kgreenlandic" unicode="&#x138;" horiz-adv-x="529" 
d="M86 496h130l-37 -212h8l196 212h157l-2 -8l-221 -233l144 -247l-2 -8h-147l-133 237h-8l-43 -237h-129z" />
    <glyph glyph-name="Lacute" unicode="&#x139;" horiz-adv-x="546" 
d="M141 716h135l-104 -588h303l-23 -128h-438zM232 908h154l-114 -136h-106z" />
    <glyph glyph-name="lacute" unicode="&#x13a;" horiz-adv-x="255" 
d="M125 716h130l-126 -716h-130zM213 908h154l-114 -136h-106z" />
    <glyph glyph-name="Lcommaaccent" unicode="&#x13b;" horiz-adv-x="546" 
d="M141 716h135l-104 -588h303l-23 -128h-438zM209 -183q-20 8 -31.5 25t-11.5 39q0 29 20.5 50t50.5 21t50.5 -21t20.5 -51q0 -29 -19 -52l-94 -114l-44 37z" />
    <glyph glyph-name="lcommaaccent" unicode="&#x13c;" horiz-adv-x="255" 
d="M125 716h130l-126 -716h-130zM17 -183q-20 8 -31.5 25t-11.5 39q0 29 20.5 50t50.5 21t50.5 -21t20.5 -51q0 -29 -19 -52l-94 -114l-44 37z" />
    <glyph glyph-name="Lcaron" unicode="&#x13d;" horiz-adv-x="546" 
d="M141 716h135l-104 -588h303l-23 -128h-438zM411 716h138l-81 -215h-95z" />
    <glyph glyph-name="lcaron" unicode="&#x13e;" horiz-adv-x="396" 
d="M125 716h130l-126 -716h-130zM338 716h138l-81 -215h-95z" />
    <glyph glyph-name="Ldot" unicode="&#x13f;" horiz-adv-x="546" 
d="M141 716h135l-104 -588h303l-23 -128h-438zM330.5 282.5q-25.5 25.5 -25.5 61.5t25.5 61.5t61.5 25.5t61 -25.5t25 -61.5t-25 -61.5t-61 -25.5t-61.5 25.5z" />
    <glyph glyph-name="Lslash" unicode="&#x141;" horiz-adv-x="617" 
d="M75 214l-49 91l131 74l60 337h135l-45 -250l121 68l49 -88l-192 -109l-38 -209h304l-23 -128h-438l44 247z" />
    <glyph glyph-name="lslash" unicode="&#x142;" horiz-adv-x="419" 
d="M123 261l-52 -33l-54 84l130 85l57 319h131l-41 -228l68 44l55 -85l-147 -95l-62 -352h-131z" />
    <glyph glyph-name="Nacute" unicode="&#x143;" horiz-adv-x="737" 
d="M141 716h150l211 -480h8l16 138l61 342h133l-127 -716h-133l-223 507h-8l-16 -138l-65 -369h-134zM442 908h154l-114 -136h-106z" />
    <glyph glyph-name="nacute" unicode="&#x144;" horiz-adv-x="589" 
d="M205 432q26 38 67.5 59t93.5 21q75 0 117 -44.5t42 -111.5q0 -29 -6 -61l-52 -295h-131l51 285q3 27 3 32q0 33 -20.5 53.5t-57.5 20.5q-57 0 -92 -39.5t-47 -105.5l-44 -246h-130l87 496h122l-11 -64h8zM365 730h154l-114 -136h-106z" />
    <glyph glyph-name="Ncommaaccent" unicode="&#x145;" horiz-adv-x="737" 
d="M141 716h150l211 -480h8l16 138l61 342h133l-127 -716h-133l-223 507h-8l-16 -138l-65 -369h-134zM270 -183q-20 8 -31.5 25t-11.5 39q0 29 20.5 50t50.5 21t50.5 -21t20.5 -51q0 -29 -19 -52l-94 -114l-44 37z" />
    <glyph glyph-name="ncommaaccent" unicode="&#x146;" horiz-adv-x="589" 
d="M205 432q26 38 67.5 59t93.5 21q75 0 117 -44.5t42 -111.5q0 -29 -6 -61l-52 -295h-131l51 285q3 27 3 32q0 33 -20.5 53.5t-57.5 20.5q-57 0 -92 -39.5t-47 -105.5l-44 -246h-130l87 496h122l-11 -64h8zM187 -183q-20 8 -31.5 25t-11.5 39q0 29 20.5 50t50.5 21
t50.5 -21t20.5 -51q0 -29 -19 -52l-94 -114l-44 37z" />
    <glyph glyph-name="Ncaron" unicode="&#x147;" horiz-adv-x="737" 
d="M141 716h150l211 -480h8l16 138l61 342h133l-127 -716h-133l-223 507h-8l-16 -138l-65 -369h-134zM284 904l1 8h121l31 -59h12l49 59h129l-1 -8l-132 -126h-119z" />
    <glyph glyph-name="ncaron" unicode="&#x148;" horiz-adv-x="589" 
d="M205 432q26 38 67.5 59t93.5 21q75 0 117 -44.5t42 -111.5q0 -29 -6 -61l-52 -295h-131l51 285q3 27 3 32q0 33 -20.5 53.5t-57.5 20.5q-57 0 -92 -39.5t-47 -105.5l-44 -246h-130l87 496h122l-11 -64h8zM205 714l1 8h121l31 -59h12l49 59h130l-2 -8l-132 -126h-119z" />
    <glyph glyph-name="Eng" unicode="&#x14a;" horiz-adv-x="737" 
d="M356.5 -224.5q-13.5 1.5 -31.5 5.5l23 126q23 -13 48 -13q24 0 37.5 14.5t18.5 44.5l9 48l-224 506h-8l-16 -138l-65 -369h-134l127 716h151l211 -470h8l17 138l59 332h133l-136 -766q-15 -90 -68.5 -133t-124.5 -43q-21 0 -34.5 1.5z" />
    <glyph glyph-name="eng" unicode="&#x14b;" horiz-adv-x="589" 
d="M201 -217l22 122q18 -11 48 -11q25 0 38 14t18 42l60 335q3 27 3 32q0 33 -20.5 53.5t-57.5 20.5q-57 0 -92 -39t-47 -106l-44 -246h-130l87 496h122l-11 -64h8q26 38 67.5 59t93.5 21q75 0 117 -44.5t42 -111.5q0 -29 -6 -61l-62 -349q-17 -99 -63 -135.5t-124 -36.5
q-40 0 -69 9z" />
    <glyph glyph-name="Omacron" unicode="&#x14c;" horiz-adv-x="835" 
d="M201.5 25.5q-77.5 41.5 -121.5 117.5t-44 174q0 112 53.5 207t150.5 151.5t220 56.5q98 0 175 -43t120 -119t43 -171q0 -112 -53.5 -207t-150 -151.5t-219.5 -56.5q-96 0 -173.5 41.5zM525.5 150q63.5 38 100 103.5t36.5 143.5q0 60 -28 107t-77 73.5t-109 26.5
q-77 0 -140 -38t-99.5 -102.5t-36.5 -141.5q0 -61 28 -109t77 -74.5t109 -26.5q76 0 139.5 38zM349 893h296l-18 -100h-296z" />
    <glyph glyph-name="omacron" unicode="&#x14d;" horiz-adv-x="593" 
d="M124 15q-54 31 -83.5 83.5t-29.5 117.5q0 83 38 150.5t106.5 106.5t155.5 39q70 0 124 -30.5t83.5 -83.5t29.5 -117q0 -83 -38 -151t-106.5 -107t-155.5 -39q-70 0 -124 31zM339.5 126.5q35.5 21.5 56 59t20.5 81.5q0 54 -33 89t-85 35q-43 0 -78.5 -21.5t-56 -59
t-20.5 -81.5q0 -54 33.5 -89t84.5 -35q43 0 78.5 21.5zM204 715h296l-18 -100h-296z" />
    <glyph glyph-name="Obreve" unicode="&#x14e;" horiz-adv-x="835" 
d="M201.5 25.5q-77.5 41.5 -121.5 117.5t-44 174q0 112 53.5 207t150.5 151.5t220 56.5q98 0 175 -43t120 -119t43 -171q0 -112 -53.5 -207t-150 -151.5t-219.5 -56.5q-96 0 -173.5 41.5zM525.5 150q63.5 38 100 103.5t36.5 143.5q0 60 -28 107t-77 73.5t-109 26.5
q-77 0 -140 -38t-99.5 -102.5t-36.5 -141.5q0 -61 28 -109t77 -74.5t109 -26.5q76 0 139.5 38zM393.5 795q-34.5 32 -34.5 81q0 13 2 23h92q-1 -4 -1 -9q0 -16 10 -26.5t28 -10.5q19 0 33 13t18 33h92q-10 -66 -51 -101t-104 -35q-50 0 -84.5 32z" />
    <glyph glyph-name="obreve" unicode="&#x14f;" horiz-adv-x="593" 
d="M124 15q-54 31 -83.5 83.5t-29.5 117.5q0 83 38 150.5t106.5 106.5t155.5 39q70 0 124 -30.5t83.5 -83.5t29.5 -117q0 -83 -38 -151t-106.5 -107t-155.5 -39q-70 0 -124 31zM339.5 126.5q35.5 21.5 56 59t20.5 81.5q0 54 -33 89t-85 35q-43 0 -78.5 -21.5t-56 -59
t-20.5 -81.5q0 -54 33.5 -89t84.5 -35q43 0 78.5 21.5zM247.5 617q-34.5 32 -34.5 81q0 13 2 23h92q-1 -4 -1 -9q0 -16 10 -26.5t28 -10.5q19 0 33 13t18 33h92q-10 -66 -51 -101t-104 -35q-50 0 -84.5 32z" />
    <glyph glyph-name="Ohungarumlaut" unicode="&#x150;" horiz-adv-x="835" 
d="M201.5 25.5q-77.5 41.5 -121.5 117.5t-44 174q0 112 53.5 207t150.5 151.5t220 56.5q98 0 175 -43t120 -119t43 -171q0 -112 -53.5 -207t-150 -151.5t-219.5 -56.5q-96 0 -173.5 41.5zM525.5 150q63.5 38 100 103.5t36.5 143.5q0 60 -28 107t-77 73.5t-109 26.5
q-77 0 -140 -38t-99.5 -102.5t-36.5 -141.5q0 -61 28 -109t77 -74.5t109 -26.5q76 0 139.5 38zM389 908h154l-114 -136h-106zM587 908h154l-114 -136h-106z" />
    <glyph glyph-name="ohungarumlaut" unicode="&#x151;" horiz-adv-x="593" 
d="M124 15q-54 31 -83.5 83.5t-29.5 117.5q0 83 38 150.5t106.5 106.5t155.5 39q70 0 124 -30.5t83.5 -83.5t29.5 -117q0 -83 -38 -151t-106.5 -107t-155.5 -39q-70 0 -124 31zM339.5 126.5q35.5 21.5 56 59t20.5 81.5q0 54 -33 89t-85 35q-43 0 -78.5 -21.5t-56 -59
t-20.5 -81.5q0 -54 33.5 -89t84.5 -35q43 0 78.5 21.5zM244 730h154l-114 -136h-106zM443 730h154l-114 -136h-106z" />
    <glyph glyph-name="OE" unicode="&#x152;" horiz-adv-x="1157" 
d="M197.5 26q-74.5 42 -118 118t-43.5 173q0 111 54 206.5t150.5 152t217.5 56.5q76 0 134.5 -25t95.5 -70h7l14 79h454l-22 -128h-320l-29 -166h288l-24 -128h-287l-29 -166h319l-23 -128h-454l13 69h-7q-41 -41 -98 -63t-127 -22q-91 0 -165.5 42zM524 149q62 37 97 100.5
t35 139.5q0 64 -27 113t-75 75.5t-109 26.5q-76 0 -138.5 -37.5t-98.5 -102.5t-36 -144q0 -60 28.5 -107.5t77 -74t106.5 -26.5q78 0 140 37z" />
    <glyph glyph-name="oe" unicode="&#x153;" horiz-adv-x="972" 
d="M124 15q-54 31 -83.5 83.5t-29.5 117.5q0 83 38 150.5t106.5 106.5t155.5 39q58 0 105 -24.5t77 -66.5q39 43 92.5 67t118.5 24q69 0 119 -28t75.5 -75.5t25.5 -103.5q0 -45 -13 -87h-374v-11q1 -51 34.5 -79t81.5 -28q50 0 83.5 18.5t56.5 54.5l99 -52
q-45 -68 -104 -102.5t-145 -34.5q-60 0 -106 23.5t-76 64.5q-39 -42 -93 -65t-120 -23q-70 0 -124 31zM803 311v4q0 37 -29 63.5t-81 26.5q-48 0 -86 -27t-53 -67h249zM339.5 126.5q35.5 21.5 56 59t20.5 81.5q0 54 -33 89t-85 35q-43 0 -78.5 -21.5t-56 -59t-20.5 -81.5
q0 -54 33.5 -89t84.5 -35q43 0 78.5 21.5z" />
    <glyph glyph-name="Racute" unicode="&#x154;" horiz-adv-x="630" 
d="M141 716h236q67 0 118.5 -26.5t80 -72t28.5 -100.5q0 -88 -53.5 -150.5t-134.5 -81.5l-2 -7l140 -270l-2 -8h-146l-138 269h-71l-48 -269h-135zM344 393q56 0 90.5 28.5t34.5 82.5q0 39 -26.5 63t-70.5 24h-119l-34 -198h125zM367 908h154l-114 -136h-106z" />
    <glyph glyph-name="racute" unicode="&#x155;" horiz-adv-x="418" 
d="M86 496h122l-11 -62h8q23 35 65 56t91 21q36 0 60 -11l-23 -132q-33 19 -78 19q-56 0 -96.5 -40t-51.5 -103l-43 -244h-130zM280 730h154l-114 -136h-106z" />
    <glyph glyph-name="Rcommaaccent" unicode="&#x156;" horiz-adv-x="630" 
d="M141 716h236q67 0 118.5 -26.5t80 -72t28.5 -100.5q0 -88 -53.5 -150.5t-134.5 -81.5l-2 -7l140 -270l-2 -8h-146l-138 269h-71l-48 -269h-135zM344 393q56 0 90.5 28.5t34.5 82.5q0 39 -26.5 63t-70.5 24h-119l-34 -198h125zM229 -183q-20 8 -31.5 25t-11.5 39
q0 29 20.5 50t50.5 21t50.5 -21t20.5 -51q0 -29 -19 -52l-94 -114l-44 37z" />
    <glyph glyph-name="rcommaaccent" unicode="&#x157;" horiz-adv-x="418" 
d="M86 496h122l-11 -62h8q23 35 65 56t91 21q36 0 60 -11l-23 -132q-33 19 -78 19q-56 0 -96.5 -40t-51.5 -103l-43 -244h-130zM18 -183q-20 8 -31.5 25t-11.5 39q0 29 20.5 50t50.5 21t50.5 -21t20.5 -51q0 -29 -19 -52l-94 -114l-44 37z" />
    <glyph glyph-name="Rcaron" unicode="&#x158;" horiz-adv-x="630" 
d="M141 716h236q67 0 118.5 -26.5t80 -72t28.5 -100.5q0 -88 -53.5 -150.5t-134.5 -81.5l-2 -7l140 -270l-2 -8h-146l-138 269h-71l-48 -269h-135zM344 393q56 0 90.5 28.5t34.5 82.5q0 39 -26.5 63t-70.5 24h-119l-34 -198h125zM209 904l1 8h121l31 -59h12l49 59h129l-1 -8
l-132 -126h-119z" />
    <glyph glyph-name="rcaron" unicode="&#x159;" horiz-adv-x="418" 
d="M86 496h122l-11 -62h8q23 35 65 56t91 21q36 0 60 -11l-23 -132q-33 19 -78 19q-56 0 -96.5 -40t-51.5 -103l-43 -244h-130zM120 714l1 8h121l31 -59h12l49 59h130l-2 -8l-132 -126h-119z" />
    <glyph glyph-name="Sacute" unicode="&#x15a;" horiz-adv-x="585" 
d="M83 36.5q-66 52.5 -83 150.5l129 52q5 -56 38 -91.5t89 -35.5q52 0 87.5 26t35.5 69q0 37 -26 62t-89 50l-35 14q-65 25 -106 71.5t-41 118.5q0 59 33.5 107t91.5 75t129 27q68 0 115 -23.5t71.5 -58.5t31.5 -71l-124 -47q-8 35 -34.5 55.5t-72.5 20.5q-44 0 -75 -21.5
t-31 -58.5q0 -32 23.5 -54t76.5 -41l41 -15q76 -29 116.5 -76t40.5 -120q0 -69 -34.5 -123t-96.5 -84.5t-143 -30.5q-92 0 -158 52.5zM361 908h154l-114 -136h-106z" />
    <glyph glyph-name="sacute" unicode="&#x15b;" horiz-adv-x="492" 
d="M61.5 23q-56.5 39 -74.5 101l121 49q9 -36 37.5 -55t68.5 -19q34 0 57.5 13.5t23.5 36.5q0 21 -16.5 34t-51.5 21l-52 14q-54 13 -92.5 48t-38.5 90q0 72 60 114t156 42q148 0 196 -118l-120 -44q-9 26 -33 41t-54 15q-36 0 -55.5 -12t-19.5 -31q0 -15 15 -27.5t41 -19.5
l71 -18q61 -15 93.5 -52t32.5 -86q0 -53 -28.5 -93t-79 -61.5t-115.5 -21.5q-86 0 -142.5 39zM292 730h154l-114 -136h-106z" />
    <glyph glyph-name="Scircumflex" unicode="&#x15c;" horiz-adv-x="585" 
d="M83 36.5q-66 52.5 -83 150.5l129 52q5 -56 38 -91.5t89 -35.5q52 0 87.5 26t35.5 69q0 37 -26 62t-89 50l-35 14q-65 25 -106 71.5t-41 118.5q0 59 33.5 107t91.5 75t129 27q68 0 115 -23.5t71.5 -58.5t31.5 -71l-124 -47q-8 35 -34.5 55.5t-72.5 20.5q-44 0 -75 -21.5
t-31 -58.5q0 -32 23.5 -54t76.5 -41l41 -15q76 -29 116.5 -76t40.5 -120q0 -69 -34.5 -123t-96.5 -84.5t-143 -30.5q-92 0 -158 52.5zM178 786l132 126h119l91 -126l-1 -8h-121l-31 59h-12l-49 -59h-129z" />
    <glyph glyph-name="scircumflex" unicode="&#x15d;" horiz-adv-x="492" 
d="M61.5 23q-56.5 39 -74.5 101l121 49q9 -36 37.5 -55t68.5 -19q34 0 57.5 13.5t23.5 36.5q0 21 -16.5 34t-51.5 21l-52 14q-54 13 -92.5 48t-38.5 90q0 72 60 114t156 42q148 0 196 -118l-120 -44q-9 26 -33 41t-54 15q-36 0 -55.5 -12t-19.5 -31q0 -15 15 -27.5t41 -19.5
l71 -18q61 -15 93.5 -52t32.5 -86q0 -53 -28.5 -93t-79 -61.5t-115.5 -21.5q-86 0 -142.5 39zM106 596l132 126h119l92 -126l-2 -8h-121l-31 59h-12l-48 -59h-130z" />
    <glyph glyph-name="Scedilla" unicode="&#x15e;" horiz-adv-x="585" 
d="M474.5 342q40.5 -47 40.5 -120q0 -69 -34.5 -123t-96.5 -84.5t-143 -30.5l-19 -31q7 1 18 1q35 0 57 -24.5t22 -61.5q0 -48 -32.5 -76.5t-82.5 -28.5q-34 0 -62 19t-35 47l68 27q2 -12 11.5 -20t22.5 -8q15 0 25.5 9.5t10.5 25.5q0 14 -8.5 22.5t-21.5 8.5q-14 0 -28 -14
l-55 28l46 83q-69 16 -116.5 66t-61.5 130l129 52q5 -56 38 -91.5t89 -35.5q52 0 87.5 26t35.5 69q0 37 -26 62t-89 50l-35 14q-65 25 -106 71.5t-41 118.5q0 59 33.5 107t91.5 75t129 27q68 0 115 -23.5t71.5 -58.5t31.5 -71l-124 -47q-8 35 -34.5 55.5t-72.5 20.5
q-44 0 -75 -21.5t-31 -58.5q0 -32 23.5 -54t76.5 -41l41 -15q76 -29 116.5 -76z" />
    <glyph glyph-name="scedilla" unicode="&#x15f;" horiz-adv-x="492" 
d="M394.5 246q32.5 -37 32.5 -86q0 -79 -60.5 -126.5t-156.5 -49.5l-19 -31q7 1 18 1q35 0 57 -24.5t22 -61.5q0 -48 -32.5 -76.5t-82.5 -28.5q-34 0 -62 19t-35 47l68 27q2 -12 11.5 -20t22.5 -8q15 0 25.5 9.5t10.5 25.5q0 14 -8.5 22.5t-21.5 8.5q-14 0 -28 -14l-55 28
l45 81q-63 12 -103.5 48t-55.5 87l121 49q9 -36 37.5 -55t68.5 -19q34 0 57.5 13.5t23.5 36.5q0 21 -16.5 34t-51.5 21l-52 14q-54 13 -92.5 48t-38.5 90q0 72 60 114t156 42q148 0 196 -118l-120 -44q-9 26 -33 41t-54 15q-36 0 -55.5 -12t-19.5 -31q0 -15 15 -27.5
t41 -19.5l71 -18q61 -15 93.5 -52z" />
    <glyph glyph-name="Scaron" unicode="&#x160;" horiz-adv-x="585" 
d="M83 36.5q-66 52.5 -83 150.5l129 52q5 -56 38 -91.5t89 -35.5q52 0 87.5 26t35.5 69q0 37 -26 62t-89 50l-35 14q-65 25 -106 71.5t-41 118.5q0 59 33.5 107t91.5 75t129 27q68 0 115 -23.5t71.5 -58.5t31.5 -71l-124 -47q-8 35 -34.5 55.5t-72.5 20.5q-44 0 -75 -21.5
t-31 -58.5q0 -32 23.5 -54t76.5 -41l41 -15q76 -29 116.5 -76t40.5 -120q0 -69 -34.5 -123t-96.5 -84.5t-143 -30.5q-92 0 -158 52.5zM203 904l1 8h121l31 -59h12l49 59h129l-1 -8l-132 -126h-119z" />
    <glyph glyph-name="scaron" unicode="&#x161;" horiz-adv-x="492" 
d="M61.5 23q-56.5 39 -74.5 101l121 49q9 -36 37.5 -55t68.5 -19q34 0 57.5 13.5t23.5 36.5q0 21 -16.5 34t-51.5 21l-52 14q-54 13 -92.5 48t-38.5 90q0 72 60 114t156 42q148 0 196 -118l-120 -44q-9 26 -33 41t-54 15q-36 0 -55.5 -12t-19.5 -31q0 -15 15 -27.5t41 -19.5
l71 -18q61 -15 93.5 -52t32.5 -86q0 -53 -28.5 -93t-79 -61.5t-115.5 -21.5q-86 0 -142.5 39zM132 714l1 8h121l31 -59h12l49 59h130l-2 -8l-132 -126h-119z" />
    <glyph glyph-name="uni0162" unicode="&#x162;" horiz-adv-x="587" 
d="M152 -218q-28 19 -35 47l68 27q2 -12 11.5 -20t22.5 -8q15 0 25.5 9.5t10.5 25.5q0 14 -8.5 22.5t-21.5 8.5q-14 0 -28 -14l-55 28l51 92h-32l105 588h-200l22 128h535l-23 -128h-200l-104 -588h-35l-29 -47q7 1 18 1q35 0 57 -24.5t22 -61.5q0 -48 -32.5 -76.5
t-82.5 -28.5q-34 0 -62 19z" />
    <glyph glyph-name="uni0163" unicode="&#x163;" horiz-adv-x="410" 
d="M95 -218q-28 19 -35 47l68 27q2 -12 11.5 -20t22.5 -8q15 0 25.5 9.5t10.5 25.5q0 14 -8 22.5t-22 8.5q-15 0 -27 -14l-56 28l56 102q-30 16 -46.5 46.5t-16.5 74.5q0 26 5 52l35 201h-87l20 112h87l26 148h131l-27 -148h122l-19 -112h-122l-35 -195q-2 -22 -2 -24
q0 -22 12 -36t36 -14q26 0 49 14l19 -117q-37 -20 -104 -20l-23 1l-25 -40q7 1 18 1q34 0 56 -24.5t22 -61.5q0 -48 -32 -76.5t-83 -28.5q-34 0 -62 19z" />
    <glyph glyph-name="Tcaron" unicode="&#x164;" horiz-adv-x="587" 
d="M266 588h-200l22 128h535l-23 -128h-200l-104 -588h-135zM209 904l1 8h121l31 -59h12l49 59h129l-1 -8l-132 -126h-119z" />
    <glyph glyph-name="tcaron" unicode="&#x165;" horiz-adv-x="408" 
d="M362 716h118l-59 -165h-89zM117 28q-39 36 -39 103q0 27 5 52l35 201h-87l20 112h87l26 148h131l-26 -148h122l-20 -112h-122l-35 -195q-2 -22 -2 -24q0 -23 12.5 -36.5t37.5 -13.5q18 0 33 4.5t34 14.5l-22 -126q-39 -16 -87 -16q-64 0 -103 36z" />
    <glyph glyph-name="Tbar" unicode="&#x166;" horiz-adv-x="587" 
d="M218 321h-127l19 106h127l29 161h-200l22 128h535l-23 -128h-200l-29 -161h127l-19 -106h-127l-56 -321h-135z" />
    <glyph glyph-name="tbar" unicode="&#x167;" horiz-adv-x="410" 
d="M117 28q-39 36 -39 103q0 27 5 52l6 34h-86l17 100h86l12 67h-87l20 112h87l26 148h131l-26 -148h122l-20 -112h-122l-12 -67h107l-18 -100h-107l-5 -28q-2 -22 -2 -24q0 -23 12.5 -36.5t37.5 -13.5q18 0 33 4.5t34 14.5l-22 -126q-39 -16 -87 -16q-64 0 -103 36z" />
    <glyph glyph-name="Utilde" unicode="&#x168;" horiz-adv-x="687" 
d="M162.5 13.5q-54.5 29.5 -84.5 83t-30 123.5q0 35 8 84l73 412h134l-76 -435q-5 -24 -5 -47q0 -57 30.5 -89.5t91.5 -32.5q67 0 111.5 44.5t57.5 120.5l78 439h134l-78 -447q-25 -142 -107.5 -213.5t-212.5 -71.5q-70 0 -124.5 29.5zM446.5 777.5q-16.5 6.5 -40.5 19.5
q-30 17 -45 17q-26 0 -33 -29h-92q8 63 42 95.5t86 32.5q20 0 36.5 -6.5t40.5 -19.5q30 -17 45 -17q26 0 33 29h92q-8 -63 -42 -95.5t-86 -32.5q-20 0 -36.5 6.5z" />
    <glyph glyph-name="utilde" unicode="&#x169;" horiz-adv-x="589" 
d="M345 64q-26 -38 -67.5 -59t-93.5 -21q-75 0 -117 44.5t-42 111.5q0 27 6 61l52 295h131l-51 -285q-3 -27 -3 -32q0 -32 21 -53t57 -21q57 0 92 39t47 106l44 246h130l-87 -496h-122l11 64h-8zM369.5 599.5q-16.5 6.5 -40.5 19.5q-30 17 -45 17q-26 0 -33 -29h-92
q8 63 42 95.5t86 32.5q20 0 36.5 -6.5t40.5 -19.5q30 -17 45 -17q26 0 33 29h92q-8 -63 -42 -95.5t-86 -32.5q-20 0 -36.5 6.5z" />
    <glyph glyph-name="Umacron" unicode="&#x16a;" horiz-adv-x="687" 
d="M162.5 13.5q-54.5 29.5 -84.5 83t-30 123.5q0 35 8 84l73 412h134l-76 -435q-5 -24 -5 -47q0 -57 30.5 -89.5t91.5 -32.5q67 0 111.5 44.5t57.5 120.5l78 439h134l-78 -447q-25 -142 -107.5 -213.5t-212.5 -71.5q-70 0 -124.5 29.5zM285 893h296l-18 -100h-296z" />
    <glyph glyph-name="umacron" unicode="&#x16b;" horiz-adv-x="589" 
d="M345 64q-26 -38 -67.5 -59t-93.5 -21q-75 0 -117 44.5t-42 111.5q0 27 6 61l52 295h131l-51 -285q-3 -27 -3 -32q0 -32 21 -53t57 -21q57 0 92 39t47 106l44 246h130l-87 -496h-122l11 64h-8zM208 715h296l-18 -100h-296z" />
    <glyph glyph-name="Ubreve" unicode="&#x16c;" horiz-adv-x="687" 
d="M162.5 13.5q-54.5 29.5 -84.5 83t-30 123.5q0 35 8 84l73 412h134l-76 -435q-5 -24 -5 -47q0 -57 30.5 -89.5t91.5 -32.5q67 0 111.5 44.5t57.5 120.5l78 439h134l-78 -447q-25 -142 -107.5 -213.5t-212.5 -71.5q-70 0 -124.5 29.5zM329.5 795q-34.5 32 -34.5 81
q0 13 2 23h92q-1 -4 -1 -9q0 -16 10 -26.5t28 -10.5q19 0 33 13t18 33h92q-10 -66 -51 -101t-104 -35q-50 0 -84.5 32z" />
    <glyph glyph-name="ubreve" unicode="&#x16d;" horiz-adv-x="589" 
d="M345 64q-26 -38 -67.5 -59t-93.5 -21q-75 0 -117 44.5t-42 111.5q0 27 6 61l52 295h131l-51 -285q-3 -27 -3 -32q0 -32 21 -53t57 -21q57 0 92 39t47 106l44 246h130l-87 -496h-122l11 64h-8zM251.5 617q-34.5 32 -34.5 81q0 13 2 23h92q-1 -4 -1 -9q0 -16 10 -26.5
t28 -10.5q19 0 33 13t18 33h92q-10 -66 -51 -101t-104 -35q-50 0 -84.5 32z" />
    <glyph glyph-name="Uring" unicode="&#x16e;" horiz-adv-x="687" 
d="M162.5 13.5q-54.5 29.5 -84.5 83t-30 123.5q0 35 8 84l73 412h134l-76 -435q-5 -24 -5 -47q0 -57 30.5 -89.5t91.5 -32.5q67 0 111.5 44.5t57.5 120.5l78 439h134l-78 -447q-25 -142 -107.5 -213.5t-212.5 -71.5q-70 0 -124.5 29.5zM349.5 779.5q-31.5 31.5 -31.5 76.5
t31.5 76.5t76.5 31.5t76.5 -31.5t31.5 -76.5t-31.5 -76.5t-76.5 -31.5t-76.5 31.5zM450.5 831.5q10.5 10.5 10.5 24.5t-10.5 24.5t-24.5 10.5t-24 -10.5t-10 -24.5t10 -24.5t24 -10.5t24.5 10.5z" />
    <glyph glyph-name="uring" unicode="&#x16f;" horiz-adv-x="589" 
d="M345 64q-26 -38 -67.5 -59t-93.5 -21q-75 0 -117 44.5t-42 111.5q0 27 6 61l52 295h131l-51 -285q-3 -27 -3 -32q0 -32 21 -53t57 -21q57 0 92 39t47 106l44 246h130l-87 -496h-122l11 64h-8zM272.5 601.5q-31.5 31.5 -31.5 76.5t31.5 76.5t76.5 31.5t76.5 -31.5
t31.5 -76.5t-31.5 -76.5t-76.5 -31.5t-76.5 31.5zM373.5 653.5q10.5 10.5 10.5 24.5t-10.5 24.5t-24.5 10.5t-24 -10.5t-10 -24.5t10.5 -24.5t23.5 -10.5q14 0 24.5 10.5z" />
    <glyph glyph-name="Uhungarumlaut" unicode="&#x170;" horiz-adv-x="687" 
d="M162.5 13.5q-54.5 29.5 -84.5 83t-30 123.5q0 35 8 84l73 412h134l-76 -435q-5 -24 -5 -47q0 -57 30.5 -89.5t91.5 -32.5q67 0 111.5 44.5t57.5 120.5l78 439h134l-78 -447q-25 -142 -107.5 -213.5t-212.5 -71.5q-70 0 -124.5 29.5zM325 908h154l-114 -136h-106zM523 908
h154l-114 -136h-106z" />
    <glyph glyph-name="uhungarumlaut" unicode="&#x171;" horiz-adv-x="589" 
d="M345 64q-26 -38 -67.5 -59t-93.5 -21q-75 0 -117 44.5t-42 111.5q0 27 6 61l52 295h131l-51 -285q-3 -27 -3 -32q0 -32 21 -53t57 -21q57 0 92 39t47 106l44 246h130l-87 -496h-122l11 64h-8zM248 730h154l-114 -136h-106zM447 730h154l-114 -136h-106z" />
    <glyph glyph-name="Uogonek" unicode="&#x172;" horiz-adv-x="687" 
d="M228 -197q-30 27 -30 70q0 33 16.5 62t44.5 50q-95 9 -153 72.5t-58 162.5q0 35 8 84l73 412h134l-76 -435q-5 -25 -5 -47q0 -57 30.5 -89.5t91.5 -32.5q67 0 111.5 44.5t57.5 120.5l78 439h134l-78 -447q-19 -106 -68.5 -170.5t-117.5 -89.5q-52 -18 -80 -47t-28 -59
q0 -15 9 -23.5t24 -8.5q19 0 43 11l-17 -96q-30 -10 -60 -10q-54 0 -84 27z" />
    <glyph glyph-name="uogonek" unicode="&#x173;" horiz-adv-x="589" 
d="M293.5 -197q-30.5 27 -30.5 70q0 38 22 68.5t59 51.5l-2 7l11 64h-8q-26 -38 -67.5 -59t-93.5 -21q-75 0 -117 44.5t-42 111.5q0 27 6 61l52 295h131l-51 -285q-3 -27 -3 -32q0 -32 21 -53t57 -21q57 0 92 39.5t47 105.5l44 246h130l-87 -496q-34 -19 -59.5 -45
t-25.5 -52q0 -15 9 -23.5t24 -8.5q18 0 42 11l-17 -96q-29 -10 -59 -10q-54 0 -84.5 27z" />
    <glyph glyph-name="Wcircumflex" unicode="&#x174;" horiz-adv-x="983" 
d="M80 716h149l26 -402v-75h8l29 75l195 402h135l51 -402l3 -73h8l25 73l169 402h150l-308 -716h-145l-49 432l-2 77h-8l-30 -77l-202 -432h-139zM391 786l132 126h119l91 -126l-1 -8h-121l-31 59h-12l-49 -59h-129z" />
    <glyph glyph-name="wcircumflex" unicode="&#x175;" horiz-adv-x="816" 
d="M30 496h141l32 -315h7l154 315h136l46 -315h7l135 315h146l-243 -496h-142l-44 316h-7l-155 -316h-140zM271 596l132 126h119l92 -126l-2 -8h-121l-31 59h-12l-48 -59h-130z" />
    <glyph glyph-name="Ycircumflex" unicode="&#x176;" horiz-adv-x="641" 
d="M250 333l-173 383h155l102 -237h8l180 237h167l-305 -383l-59 -333h-134zM209 786l132 126h119l91 -126l-1 -8h-121l-31 59h-12l-49 -59h-129z" />
    <glyph glyph-name="ycircumflex" unicode="&#x177;" horiz-adv-x="565" 
d="M164 29l-124 467h147l73 -303h7l177 303h148l-436 -712h-143zM153 596l132 126h119l92 -126l-2 -8h-121l-31 59h-12l-48 -59h-130z" />
    <glyph glyph-name="Ydieresis" unicode="&#x178;" horiz-adv-x="641" 
d="M250 333l-173 383h155l102 -237h8l180 237h167l-305 -383l-59 -333h-134zM245 792.5q-21 21.5 -21 50.5q0 30 21 51t51 21t50.5 -21t20.5 -51t-20.5 -51t-50.5 -21t-51 21.5zM436 792.5q-21 21.5 -21 50.5q0 30 21 51t50 21q31 0 51.5 -21t20.5 -51t-21 -51t-51 -21
q-29 0 -50 21.5z" />
    <glyph glyph-name="Zacute" unicode="&#x179;" horiz-adv-x="606" 
d="M-2 136l436 452h-341l22 128h504l-24 -136l-433 -452h357l-23 -128h-523zM376 908h154l-114 -136h-106z" />
    <glyph glyph-name="zacute" unicode="&#x17a;" horiz-adv-x="492" 
d="M291 385h-243l19 111h408l-18 -107l-301 -278h255l-20 -111h-419l19 107zM291 730h154l-114 -136h-106z" />
    <glyph glyph-name="Zdotaccent" unicode="&#x17b;" horiz-adv-x="606" 
d="M-2 136l436 452h-341l22 128h504l-24 -136l-433 -452h357l-23 -128h-523zM329 806q-21 21 -21 50t20.5 50t49.5 21q30 0 50.5 -21t20.5 -50t-20.5 -50t-50.5 -21q-28 0 -49 21z" />
    <glyph glyph-name="zdotaccent" unicode="&#x17c;" horiz-adv-x="492" 
d="M291 385h-243l19 111h408l-18 -107l-301 -278h255l-20 -111h-419l19 107zM236.5 603.5q-22.5 22.5 -22.5 53.5t22.5 53.5t53.5 22.5t53.5 -22t22.5 -54q0 -31 -22.5 -53.5t-53.5 -22.5t-53.5 22.5z" />
    <glyph glyph-name="Zcaron" unicode="&#x17d;" horiz-adv-x="606" 
d="M-2 136l436 452h-341l22 128h504l-24 -136l-433 -452h357l-23 -128h-523zM218 904l1 8h121l31 -59h12l49 59h129l-1 -8l-132 -126h-119z" />
    <glyph glyph-name="zcaron" unicode="&#x17e;" horiz-adv-x="492" 
d="M291 385h-243l19 111h408l-18 -107l-301 -278h255l-20 -111h-419l19 107zM131 714l1 8h121l31 -59h12l49 59h130l-2 -8l-132 -126h-119z" />
    <glyph glyph-name="florin" unicode="&#x192;" horiz-adv-x="614" 
d="M465.5 578q-22.5 -19 -29.5 -54l-20 -104h113v-112h-135l-72 -365q-15 -74 -61 -118.5t-123 -44.5q-46 0 -80 11v128q32 -16 66 -16q60 0 75 74l65 331h-93v112h115l22 109q18 92 71.5 141.5t138.5 49.5q37 0 66 -10v-127q-32 14 -65 14q-31 0 -53.5 -19z" />
    <glyph glyph-name="Aringacute" unicode="&#x1fa;" horiz-adv-x="720" 
d="M321 680q-25 33 -25 76q0 52 35 89.5t88 40.5l40 67h117l-71 -94q24 -18 37.5 -45t13.5 -58q0 -29 -12 -54.5t-34 -44.5l131 -657h-143l-32 171h-273l-89 -171h-154zM454.5 728q11.5 12 11.5 28q0 17 -11.5 28.5t-28.5 11.5q-16 0 -28 -11.5t-12 -28.5q0 -16 12 -28
t28 -12q17 0 28.5 12zM443 295l-33 180l-10 86h-8l-40 -86l-95 -180h186z" />
    <glyph glyph-name="aringacute" unicode="&#x1fb;" horiz-adv-x="548" 
d="M344 927h138l-91 -115h-99zM248.5 600.5q-31.5 31.5 -31.5 76.5t31.5 76.5t76.5 31.5t76.5 -31.5t31.5 -76.5t-31.5 -76.5t-76.5 -31.5t-76.5 31.5zM349.5 652.5q10.5 10.5 10.5 24.5t-10.5 24.5t-24.5 10.5t-24 -10.5t-10 -24.5t10 -24.5t24 -10.5t24.5 10.5zM92.5 4.5
q-37.5 20.5 -58.5 55.5t-21 79q0 84 61.5 133t167.5 49q66 0 129 -24l4 18q2 12 2 17q0 32 -27.5 53t-70.5 21q-73 0 -120 -56l-88 64q39 48 97.5 73t126.5 25q99 0 154 -47t55 -127q0 -21 -5 -51l-51 -287h-129l9 52h-8q-52 -68 -142 -68q-48 0 -85.5 20.5zM309 120
q37 34 46 82q-51 23 -108 23q-46 0 -74 -19.5t-28 -56.5q0 -30 22 -46.5t55 -16.5q50 0 87 34z" />
    <glyph glyph-name="AEacute" unicode="&#x1fc;" horiz-adv-x="1011" 
d="M481 716h536l-23 -128h-319l-29 -166h287l-23 -128h-287l-30 -166h320l-23 -128h-454l31 173h-233l-128 -173h-167zM489 301l51 287h-10l-43 -70l-161 -217h163zM772 908h154l-114 -136h-106z" />
    <glyph glyph-name="aeacute" unicode="&#x1fd;" horiz-adv-x="920" 
d="M93 4.5q-38 20.5 -59 55.5t-21 79q0 86 63 134t168 48q69 0 127 -23l4 17q2 12 2 17q0 34 -26.5 54t-70.5 20q-36 0 -65.5 -14t-44.5 -40l-95 48q70 112 222 112q59 0 101.5 -21.5t66.5 -58.5q78 80 192 80q67 0 116 -28t74.5 -75.5t25.5 -103.5q0 -47 -14 -87h-373
q-1 -3 -1 -11q2 -52 35 -79.5t82 -27.5t82.5 18.5t56.5 54.5l100 -52q-45 -68 -104.5 -102.5t-145.5 -34.5q-126 0 -190 102q-86 -102 -222 -102q-48 0 -86 20.5zM751 311v4q0 37 -29 63.5t-81 26.5q-48 0 -85.5 -27t-52.5 -67h248zM309 120q37 34 46 82q-53 23 -108 23
q-46 0 -74 -19.5t-28 -56.5q0 -30 22 -46.5t55 -16.5q50 0 87 34zM499 730h154l-114 -136h-106z" />
    <glyph glyph-name="Oslashacute" unicode="&#x1fe;" horiz-adv-x="835" 
d="M73 15l53 67q-43 45 -66.5 104.5t-23.5 130.5q0 112 53.5 207t150.5 151.5t220 56.5q85 0 158 -35l56 70l85 -68l-52 -65q44 -45 67.5 -105t23.5 -130q0 -112 -53.5 -207t-150 -151.5t-219.5 -56.5q-88 0 -160 35l-57 -71zM531 588q-40 16 -83 16q-77 0 -140 -38
t-99.5 -102.5t-36.5 -141.5q0 -78 43 -130zM525.5 150q63.5 38 100 103.5t36.5 143.5q0 72 -43 127l-317 -396q40 -16 84 -16q76 0 139.5 38zM488 908h154l-114 -136h-106z" />
    <glyph glyph-name="oslashacute" unicode="&#x1ff;" horiz-adv-x="593" 
d="M34 10l36 47q-28 31 -43.5 72t-15.5 87q0 83 38 150.5t106.5 106.5t155.5 39q55 0 105 -21l42 53l74 -61l-40 -49q56 -64 56 -153q0 -83 -38 -151t-106.5 -107t-155.5 -39q-52 0 -98 19l-39 -50zM336 391q-18 8 -38 8q-43 0 -79.5 -23.5t-58 -63t-21.5 -83.5
q0 -38 16 -66zM340.5 119.5q36.5 23.5 58 62.5t21.5 85q0 33 -13 58l-178 -224q17 -5 32 -5q43 0 79.5 23.5zM343 730h154l-114 -136h-106z" />
    <glyph glyph-name="Scommaaccent" unicode="&#x218;" horiz-adv-x="585" 
d="M83 36.5q-66 52.5 -83 150.5l129 52q5 -56 38 -91.5t89 -35.5q52 0 87.5 26t35.5 69q0 37 -26 62t-89 50l-35 14q-65 25 -106 71.5t-41 118.5q0 59 33.5 107t91.5 75t129 27q68 0 115 -23.5t71.5 -58.5t31.5 -71l-124 -47q-8 35 -34.5 55.5t-72.5 20.5q-44 0 -75 -21.5
t-31 -58.5q0 -32 23.5 -54t76.5 -41l41 -15q76 -29 116.5 -76t40.5 -120q0 -69 -34.5 -123t-96.5 -84.5t-143 -30.5q-92 0 -158 52.5zM171 -183q-20 8 -31.5 25t-11.5 39q0 29 20.5 50t50.5 21t50.5 -21t20.5 -51q0 -29 -19 -52l-94 -114l-44 37z" />
    <glyph glyph-name="scommaaccent" unicode="&#x219;" horiz-adv-x="492" 
d="M61.5 23q-56.5 39 -74.5 101l121 49q9 -36 37.5 -55t68.5 -19q34 0 57.5 13.5t23.5 36.5q0 21 -16.5 34t-51.5 21l-52 14q-54 13 -92.5 48t-38.5 90q0 72 60 114t156 42q148 0 196 -118l-120 -44q-9 26 -33 41t-54 15q-36 0 -55.5 -12t-19.5 -31q0 -15 15 -27.5t41 -19.5
l71 -18q61 -15 93.5 -52t32.5 -86q0 -53 -28.5 -93t-79 -61.5t-115.5 -21.5q-86 0 -142.5 39zM140 -183q-20 8 -31.5 25t-11.5 39q0 29 20.5 50t50.5 21t50.5 -21t20.5 -51q0 -29 -19 -52l-94 -114l-44 37z" />
    <glyph glyph-name="uni021A" unicode="&#x21a;" horiz-adv-x="587" 
d="M266 588h-200l22 128h535l-23 -128h-200l-104 -588h-135zM181 -183q-20 8 -31.5 25t-11.5 39q0 29 20.5 50t50.5 21t50.5 -21t20.5 -51q0 -29 -19 -52l-94 -114l-44 37z" />
    <glyph glyph-name="uni021B" unicode="&#x21b;" horiz-adv-x="410" 
d="M117 28q-39 36 -39 103q0 27 5 52l35 201h-87l20 112h87l26 148h131l-26 -148h122l-20 -112h-122l-35 -195q-2 -22 -2 -24q0 -23 12.5 -36.5t37.5 -13.5q18 0 33 4.5t34 14.5l-22 -126q-39 -16 -87 -16q-64 0 -103 36zM155 -183q-20 8 -31.5 25t-11.5 39q0 29 20.5 50
t50.5 21t50.5 -21t20.5 -51q0 -29 -19 -52l-94 -114l-44 37z" />
    <glyph glyph-name="uni0237" unicode="&#x237;" horiz-adv-x="271" 
d="M-130 -217l22 122q18 -11 48 -11q26 0 38.5 13.5t18.5 42.5l96 546h131l-97 -550q-18 -99 -64 -135.5t-124 -36.5q-40 0 -69 9z" />
    <glyph glyph-name="uni0259" unicode="&#x259;" horiz-adv-x="561" 
d="M108 12q-50 28 -75.5 75.5t-25.5 103.5q0 48 14 88h373l1 10q-1 51 -35 79t-82 28q-49 0 -82.5 -18t-57.5 -55l-99 52q45 68 104.5 102.5t145.5 34.5q70 0 122.5 -31.5t81 -85t28.5 -118.5q0 -77 -37.5 -144.5t-104.5 -108t-152 -40.5q-69 0 -119 28zM324 118
q38 27 53 67h-248v-3q0 -37 28.5 -64t80.5 -27q48 0 86 27z" />
    <glyph glyph-name="circumflex" unicode="&#x2c6;" horiz-adv-x="456" 
d="M97 590l132 126h119l91 -126l-1 -8h-121l-31 59h-12l-49 -59h-129z" />
    <glyph glyph-name="caron" unicode="&#x2c7;" horiz-adv-x="456" 
d="M118 708l1 8h121l31 -59h12l49 59h129l-1 -8l-132 -126h-119z" />
    <glyph glyph-name="breve" unicode="&#x2d8;" horiz-adv-x="416" 
d="M167.5 611q-34.5 32 -34.5 81q0 13 2 23h92q-1 -4 -1 -9q0 -16 10 -26.5t28 -10.5q19 0 33 13t18 33h92q-10 -66 -51 -101t-104 -35q-50 0 -84.5 32z" />
    <glyph glyph-name="dotaccent" unicode="&#x2d9;" horiz-adv-x="269" 
d="M131.5 597.5q-22.5 22.5 -22.5 53.5t22.5 53.5t53.5 22.5q32 0 54 -22t22 -54q0 -31 -22.5 -53.5t-53.5 -22.5t-53.5 22.5z" />
    <glyph glyph-name="ring" unicode="&#x2da;" horiz-adv-x="408" 
d="M176.5 595.5q-31.5 31.5 -31.5 76.5t31.5 76.5t76.5 31.5t76.5 -31.5t31.5 -76.5t-31.5 -76.5t-76.5 -31.5t-76.5 31.5zM277.5 647.5q10.5 10.5 10.5 24.5t-10.5 24.5t-24.5 10.5t-24 -10.5t-10 -24.5t10 -24.5t24 -10.5t24.5 10.5z" />
    <glyph glyph-name="ogonek" unicode="&#x2db;" horiz-adv-x="426" 
d="M53.5 -197q-30.5 27 -30.5 70q0 40 22.5 72.5t61.5 54.5h117q-34 -19 -59.5 -45t-25.5 -52q0 -15 9 -23.5t24 -8.5q18 0 42 11l-17 -96q-30 -10 -60 -10q-53 0 -83.5 27z" />
    <glyph glyph-name="tilde" unicode="&#x2dc;" horiz-adv-x="419" 
d="M283.5 593.5q-16.5 6.5 -40.5 19.5q-30 17 -45 17q-26 0 -33 -29h-92q8 63 42 95.5t86 32.5q20 0 36.5 -6.5t40.5 -19.5q30 -17 45 -17q26 0 33 29h92q-8 -63 -42 -95.5t-86 -32.5q-20 0 -36.5 6.5z" />
    <glyph glyph-name="hungarumlaut" unicode="&#x2dd;" horiz-adv-x="476" 
d="M176 724h154l-114 -136h-106zM374 724h154l-114 -136h-106z" />
    <glyph glyph-name="gravecomb" unicode="&#x300;" horiz-adv-x="0" 
d="M-281 730h149l18 -136h-102z" />
    <glyph glyph-name="acutecomb" unicode="&#x301;" horiz-adv-x="0" 
d="M-186 730h154l-114 -136h-106z" />
    <glyph glyph-name="uni0302" unicode="&#x302;" horiz-adv-x="0" 
d="M-358 596l132 126h119l92 -126l-2 -8h-121l-31 59h-12l-48 -59h-130z" />
    <glyph glyph-name="tildecomb" unicode="&#x303;" horiz-adv-x="0" 
d="M-134.5 599.5q-16.5 6.5 -40.5 19.5q-30 17 -45 17q-26 0 -33 -29h-92q8 63 42 95.5t86 32.5q20 0 36.5 -6.5t40.5 -19.5q30 -17 45 -17q26 0 33 29h92q-8 -63 -42 -95.5t-86 -32.5q-20 0 -36.5 6.5z" />
    <glyph glyph-name="uni0304" unicode="&#x304;" horiz-adv-x="0" 
d="M-293 715h296l-18 -100h-296z" />
    <glyph glyph-name="uni0306" unicode="&#x306;" horiz-adv-x="0" 
d="M-247.5 617q-34.5 32 -34.5 81q0 13 2 23h92q-1 -4 -1 -9q0 -16 10 -26.5t28 -10.5q19 0 33 13t18 33h92q-10 -66 -51 -101t-104 -35q-50 0 -84.5 32z" />
    <glyph glyph-name="uni0307" unicode="&#x307;" horiz-adv-x="0" 
d="M-136.5 603.5q-22.5 22.5 -22.5 53.5t22.5 53.5t53.5 22.5t53.5 -22t22.5 -54q0 -31 -22.5 -53.5t-53.5 -22.5t-53.5 22.5z" />
    <glyph glyph-name="uni0308" unicode="&#x308;" horiz-adv-x="0" 
d="M-320 614.5q-21 21.5 -21 50.5q0 31 21 51.5t51 20.5t50.5 -20.5t20.5 -51.5q0 -30 -20.5 -51t-50.5 -21t-51 21.5zM-129 614.5q-21 21.5 -21 50.5q0 31 21 51.5t51 20.5t50.5 -20.5t20.5 -51.5q0 -30 -20.5 -51t-50.5 -21t-51 21.5z" />
    <glyph glyph-name="uni030A" unicode="&#x30a;" horiz-adv-x="0" 
d="M-230.5 601.5q-31.5 31.5 -31.5 76.5t31.5 76.5t76.5 31.5t76.5 -31.5t31.5 -76.5t-31.5 -76.5t-76.5 -31.5t-76.5 31.5zM-129.5 653.5q10.5 10.5 10.5 24.5t-10.5 24.5t-24.5 10.5t-24 -10.5t-10 -24.5t10.5 -24.5t23.5 -10.5q14 0 24.5 10.5z" />
    <glyph glyph-name="uni030B" unicode="&#x30b;" horiz-adv-x="0" 
d="M-299 730h154l-114 -136h-106zM-100 730h154l-114 -136h-106z" />
    <glyph glyph-name="uni030C" unicode="&#x30c;" horiz-adv-x="0" 
d="M-337 714l1 8h121l31 -59h12l49 59h130l-2 -8l-132 -126h-119z" />
    <glyph glyph-name="uni0312" unicode="&#x312;" horiz-adv-x="0" 
d="M-126 713q20 -8 31.5 -25t11.5 -39q0 -29 -20.5 -50t-50.5 -21t-50.5 21t-20.5 51q0 29 19 52l94 114l44 -37z" />
    <glyph glyph-name="uni0326" unicode="&#x326;" horiz-adv-x="0" 
d="M-303 -183q-20 8 -31.5 25t-11.5 39q0 29 20.5 50t50.5 21t50.5 -21t20.5 -51q0 -29 -19 -52l-94 -114l-44 37z" />
    <glyph glyph-name="uni0327" unicode="&#x327;" horiz-adv-x="0" 
d="M-379 -218q-28 19 -35 47l68 27q2 -12 11.5 -20t22.5 -8q15 0 25.5 9.5t10.5 25.5q0 14 -8.5 22.5t-21.5 8.5q-14 0 -28 -14l-55 28l51 92h68l-29 -47q7 1 18 1q35 0 57 -24.5t22 -61.5q0 -48 -32.5 -76.5t-82.5 -28.5q-34 0 -62 19z" />
    <glyph glyph-name="uni0328" unicode="&#x328;" horiz-adv-x="0" 
d="M-372.5 -197q-30.5 27 -30.5 70q0 40 22.5 72.5t61.5 54.5h117q-34 -19 -59.5 -45t-25.5 -52q0 -15 9 -23.5t24 -8.5q18 0 42 11l-17 -96q-30 -10 -60 -10q-53 0 -83.5 27z" />
    <glyph glyph-name="uni0374" unicode="&#x374;" horiz-adv-x="314" 
d="M337 716l-169 -221h-105l117 221h157z" />
    <glyph glyph-name="uni0375" unicode="&#x375;" horiz-adv-x="314" 
d="M-8 -99l152 221h108l-104 -221h-156z" />
    <glyph glyph-name="uni037E" unicode="&#x37e;" horiz-adv-x="271" 
d="M80.5 360.5q-25.5 25.5 -25.5 61.5t25.5 61.5t61.5 25.5t61.5 -25.5t25.5 -61.5t-25.5 -61.5t-61.5 -25.5t-61.5 25.5zM-31 -82l75 92q-19 14 -30.5 31.5t-11.5 45.5q0 36 26 61.5t61 25.5q36 0 61.5 -25.5t25.5 -61.5q0 -18 -8 -34.5t-26 -37.5l-118 -141z" />
    <glyph glyph-name="tonos" unicode="&#x384;" horiz-adv-x="442" 
d="M233 722h154l-111 -136h-108z" />
    <glyph glyph-name="dieresistonos" unicode="&#x385;" horiz-adv-x="464" 
d="M259 732h74l-25 -144h-74zM102.5 612.5q-19.5 19.5 -19.5 46.5q0 28 19.5 47t46.5 19q28 0 47 -19t19 -47q0 -27 -19 -46.5t-47 -19.5q-27 0 -46.5 19.5zM370.5 612.5q-19.5 19.5 -19.5 46.5q0 28 19.5 47t46.5 19q28 0 47 -19t19 -47q0 -27 -19 -46.5t-47 -19.5
q-27 0 -46.5 19.5z" />
    <glyph glyph-name="Alphatonos" unicode="&#x386;" horiz-adv-x="720" 
d="M340 716h158l143 -716h-143l-32 171h-273l-89 -171h-154zM443 295l-33 180l-10 86h-8l-40 -86l-95 -180h186zM132 724h154l-114 -136h-106z" />
    <glyph glyph-name="anoteleia" unicode="&#x387;" horiz-adv-x="213" 
d="M41.5 262.5q-25.5 25.5 -25.5 61.5t25.5 61.5t61.5 25.5t61 -25.5t25 -61.5t-25 -61.5t-61 -25.5t-61.5 25.5z" />
    <glyph glyph-name="Epsilontonos" unicode="&#x388;" horiz-adv-x="668" 
d="M221 716h454l-22 -128h-320l-29 -166h287l-23 -128h-287l-29 -166h319l-23 -128h-454zM32 724h154l-114 -136h-106z" />
    <glyph glyph-name="Etatonos" unicode="&#x389;" horiz-adv-x="808" 
d="M220 716h135l-51 -286h302l51 286h135l-127 -716h-135l54 302h-302l-54 -302h-135zM24 724h154l-114 -136h-106z" />
    <glyph glyph-name="Iotatonos" unicode="&#x38a;" horiz-adv-x="372" 
d="M220 716h135l-127 -716h-135zM24 724h154l-114 -136h-106z" />
    <glyph glyph-name="Omicrontonos" unicode="&#x38c;" horiz-adv-x="835" 
d="M201.5 25.5q-77.5 41.5 -121.5 117.5t-44 174q0 112 53.5 207t150.5 151.5t220 56.5q98 0 175 -43t120 -119t43 -171q0 -112 -53.5 -207t-150 -151.5t-219.5 -56.5q-96 0 -173.5 41.5zM525.5 150q63.5 38 100 103.5t36.5 143.5q0 60 -28 107t-77 73.5t-109 26.5
q-77 0 -140 -38t-99.5 -102.5t-36.5 -141.5q0 -61 28 -109t77 -74.5t109 -26.5q76 0 139.5 38zM13 724h154l-114 -136h-106z" />
    <glyph glyph-name="Upsilontonos" unicode="&#x38e;" horiz-adv-x="759" 
d="M368 333l-173 383h155l102 -237h8l180 237h167l-305 -383l-59 -333h-134zM24 724h154l-114 -136h-106z" />
    <glyph glyph-name="Omegatonos" unicode="&#x38f;" horiz-adv-x="785" 
d="M13 724h154l-114 -136h-106zM0 117h142l1 8q-46 40 -78.5 99t-32.5 139q0 98 51 182.5t143.5 135.5t211.5 51q96 0 168.5 -38t112 -104t39.5 -149q0 -199 -201 -316l-1 -8h135l-21 -117h-299l29 164q62 16 111.5 52.5t78.5 88t29 111.5q0 57 -25 99.5t-70 65.5t-101 23
q-74 0 -132.5 -33t-91 -87.5t-32.5 -118.5q0 -76 39.5 -128t101.5 -73l-29 -164h-298z" />
    <glyph glyph-name="iotadieresistonos" unicode="&#x390;" horiz-adv-x="271" 
d="M92 496h131l-87 -496h-130zM162 732h74l-25 -144h-74zM5.5 612.5q-19.5 19.5 -19.5 46.5q0 28 19.5 47t46.5 19q28 0 47 -19t19 -47q0 -27 -19 -46.5t-47 -19.5q-27 0 -46.5 19.5zM273.5 612.5q-19.5 19.5 -19.5 46.5q0 28 19.5 47t46.5 19q28 0 47 -19t19 -47
q0 -27 -19 -46.5t-47 -19.5q-27 0 -46.5 19.5z" />
    <glyph glyph-name="Alpha" unicode="&#x391;" horiz-adv-x="720" 
d="M340 716h158l143 -716h-143l-32 171h-273l-89 -171h-154zM443 295l-33 180l-10 86h-8l-40 -86l-95 -180h186z" />
    <glyph glyph-name="Beta" unicode="&#x392;" horiz-adv-x="642" 
d="M141 716h255q67 0 115 -24t73 -64t25 -88q0 -66 -35.5 -107t-89.5 -58l-2 -8q43 -19 69 -56t26 -89q0 -67 -35.5 -117t-97.5 -77.5t-139 -27.5h-291zM360 424q52 0 83 24t31 68q0 35 -22.5 57t-61.5 22h-136l-30 -171h136zM321 123q51 0 86 26.5t35 72.5q0 39 -25 62.5
t-71 23.5h-143l-32 -185h150z" />
    <glyph glyph-name="Gamma" unicode="&#x393;" horiz-adv-x="543" 
d="M141 716h438l-22 -128h-304l-104 -588h-135z" />
    <glyph glyph-name="uni0394" unicode="&#x394;" horiz-adv-x="712" 
d="M341 716h155l137 -716h-683zM469 124l-73 425h-8l-220 -425h301z" />
    <glyph glyph-name="Epsilon" unicode="&#x395;" horiz-adv-x="589" 
d="M141 716h454l-22 -128h-320l-29 -166h287l-23 -128h-287l-29 -166h319l-23 -128h-454z" />
    <glyph glyph-name="Zeta" unicode="&#x396;" horiz-adv-x="606" 
d="M-2 136l436 452h-341l22 128h504l-24 -136l-433 -452h357l-23 -128h-523z" />
    <glyph glyph-name="Eta" unicode="&#x397;" horiz-adv-x="729" 
d="M141 716h135l-51 -286h302l51 286h135l-127 -716h-135l54 302h-302l-54 -302h-135z" />
    <glyph glyph-name="Theta" unicode="&#x398;" horiz-adv-x="849" 
d="M201.5 25.5q-77.5 41.5 -121.5 117.5t-44 174q0 112 53.5 207t150.5 151.5t220 56.5q98 0 175 -43t120 -119t43 -171q0 -112 -53.5 -207t-150 -151.5t-219.5 -56.5q-96 0 -173.5 41.5zM525.5 150q63.5 38 100 103.5t36.5 143.5q0 60 -28 107t-77 73.5t-109 26.5
q-77 0 -140 -38t-99.5 -102.5t-36.5 -141.5q0 -61 28 -109t77 -74.5t109 -26.5q76 0 139.5 38zM278 417h309l-21 -118h-308z" />
    <glyph glyph-name="Iota" unicode="&#x399;" horiz-adv-x="293" 
d="M141 716h135l-127 -716h-135z" />
    <glyph glyph-name="Kappa" unicode="&#x39a;" horiz-adv-x="667" 
d="M141 716h135l-60 -336h8l311 336h172l-2 -8l-341 -360l230 -340l-2 -8h-163l-215 319h-8l-57 -319h-135z" />
    <glyph glyph-name="Lambda" unicode="&#x39b;" horiz-adv-x="704" 
d="M336 716h157l132 -716h-146l-76 477l-9 84h-8l-38 -84l-243 -477h-155z" />
    <glyph glyph-name="Mu" unicode="&#x39c;" horiz-adv-x="895" 
d="M141 716h171l102 -503h8l278 503h178l-127 -716h-133l62 353l29 119h-8l-263 -472h-106l-101 472h-8l-13 -119l-62 -353h-134z" />
    <glyph glyph-name="Nu" unicode="&#x39d;" horiz-adv-x="737" 
d="M141 716h150l211 -480h8l16 138l61 342h133l-127 -716h-133l-223 507h-8l-16 -138l-65 -369h-134z" />
    <glyph glyph-name="Xi" unicode="&#x39e;" horiz-adv-x="551" 
d="M94 716h488l-23 -128h-487zM74 421h423l-22 -126h-423zM-9 128h486l-22 -128h-487z" />
    <glyph glyph-name="Omicron" unicode="&#x39f;" horiz-adv-x="835" 
d="M201.5 25.5q-77.5 41.5 -121.5 117.5t-44 174q0 112 53.5 207t150.5 151.5t220 56.5q98 0 175 -43t120 -119t43 -171q0 -112 -53.5 -207t-150 -151.5t-219.5 -56.5q-96 0 -173.5 41.5zM525.5 150q63.5 38 100 103.5t36.5 143.5q0 60 -28 107t-77 73.5t-109 26.5
q-77 0 -140 -38t-99.5 -102.5t-36.5 -141.5q0 -61 28 -109t77 -74.5t109 -26.5q76 0 139.5 38z" />
    <glyph glyph-name="Pi" unicode="&#x3a0;" horiz-adv-x="708" 
d="M141 716h550l-127 -716h-134l104 588h-281l-104 -588h-135z" />
    <glyph glyph-name="Rho" unicode="&#x3a1;" horiz-adv-x="605" 
d="M141 716h240q63 0 113 -26t78.5 -73t28.5 -107q0 -77 -35.5 -133t-98.5 -85t-145 -29h-126l-47 -263h-135zM340 391q57 0 91.5 28t34.5 81q0 40 -24 64t-67 24h-122l-34 -197h121z" />
    <glyph glyph-name="Sigma" unicode="&#x3a3;" horiz-adv-x="536" 
d="M397 366l-229 -241h295l-22 -125h-457l23 133l230 235l-151 215l24 133h458l-23 -125h-299z" />
    <glyph glyph-name="Tau" unicode="&#x3a4;" horiz-adv-x="587" 
d="M266 588h-200l22 128h535l-23 -128h-200l-104 -588h-135z" />
    <glyph glyph-name="Upsilon" unicode="&#x3a5;" horiz-adv-x="641" 
d="M250 333l-173 383h155l102 -237h8l180 237h167l-305 -383l-59 -333h-134z" />
    <glyph glyph-name="Phi" unicode="&#x3a6;" horiz-adv-x="825" 
d="M291 60q-75 10 -132.5 47.5t-89 94t-31.5 123.5q0 93 48 165t130 115t181 51l16 92h134l-16 -92q77 -12 134.5 -49.5t88.5 -94t31 -123.5q0 -93 -48 -165t-130 -114.5t-181 -49.5l-16 -92h-135zM375 532q-88 -12 -144.5 -61.5t-56.5 -133.5q0 -62 37 -102t102 -51z
M592.5 244q56.5 49 56.5 134q0 63 -37.5 103t-102.5 51l-62 -348q89 11 145.5 60z" />
    <glyph glyph-name="Chi" unicode="&#x3a7;" horiz-adv-x="692" 
d="M261 377l-171 339h170l104 -231h8l182 231h174l-292 -351l184 -365h-165l-122 251h-8l-201 -251h-174z" />
    <glyph glyph-name="Psi" unicode="&#x3a8;" horiz-adv-x="788" 
d="M182.5 184.5q-49.5 28.5 -79 82t-29.5 125.5q0 32 5 62l47 262h134l-48 -272q-4 -23 -4 -44q0 -53 27 -84.5t78 -31.5l76 432h135l-77 -432q63 0 103.5 43t53.5 115l49 274h135l-52 -289q-15 -85 -61.5 -146.5t-112 -93t-137.5 -31.5l-28 -156h-135l28 156
q-58 0 -107.5 28.5z" />
    <glyph glyph-name="uni03A9" unicode="&#x3a9;" horiz-adv-x="811" 
d="M15 117h142l1 8q-46 40 -78.5 99t-32.5 139q0 98 51 182.5t143.5 135.5t211.5 51q96 0 168.5 -38t112 -104t39.5 -149q0 -199 -201 -316l-1 -8h135l-21 -117h-299l29 164q62 16 111.5 52.5t78.5 88t29 111.5q0 57 -25 99.5t-70 65.5t-101 23q-74 0 -132.5 -33t-91 -87.5
t-32.5 -118.5q0 -76 39.5 -128t101.5 -73l-29 -164h-298z" />
    <glyph glyph-name="Iotadieresis" unicode="&#x3aa;" horiz-adv-x="293" 
d="M92 809q-20 20 -20 47q0 28 20 47.5t48 19.5t47.5 -19.5t19.5 -47.5q0 -27 -19.5 -47t-47.5 -20t-48 20zM271 809q-20 20 -20 47q0 28 20 47.5t47 19.5q28 0 48 -19.5t20 -47.5q0 -27 -20 -47t-48 -20q-27 0 -47 20zM140 716h135l-127 -716h-135z" />
    <glyph glyph-name="Upsilondieresis" unicode="&#x3ab;" horiz-adv-x="641" 
d="M250 333l-173 383h155l102 -237h8l180 237h167l-305 -383l-59 -333h-134zM245 792.5q-21 21.5 -21 50.5q0 30 21 51t51 21t50.5 -21t20.5 -51t-20.5 -51t-50.5 -21t-51 21.5zM436 792.5q-21 21.5 -21 50.5q0 30 21 51t50 21q31 0 51.5 -21t20.5 -51t-21 -51t-51 -21
q-29 0 -50 21.5z" />
    <glyph glyph-name="alphatonos" unicode="&#x3ac;" horiz-adv-x="613" 
d="M114 12q-47 28 -75.5 79.5t-28.5 119.5q0 82 36.5 151t101 109.5t145.5 40.5q55 0 90.5 -21t54.5 -54h8l11 59h122l-87 -496h-123l10 60h-8q-23 -36 -60 -56t-96 -20q-54 0 -101 28zM337 127q36 22 57 60.5t21 84.5q0 53 -33 86t-83 33q-44 0 -80 -21.5t-56.5 -59.5
t-20.5 -83q0 -56 32.5 -89t84.5 -33q42 0 78 22zM331 722h154l-111 -136h-108z" />
    <glyph glyph-name="epsilontonos" unicode="&#x3ad;" horiz-adv-x="513" 
d="M57.5 23q-51.5 39 -51.5 101q0 48 27 81t76 51l1 8q-45 37 -45 90q0 47 29 83t79 55.5t111 19.5q59 0 101.5 -21t75.5 -65l-87 -69q-16 24 -43 37.5t-61 13.5q-36 0 -62 -15t-26 -44q0 -22 18 -35.5t49 -13.5h73l-16 -94h-83q-37 0 -62.5 -15t-25.5 -45q0 -25 21.5 -39
t58.5 -14q41 0 73 15t66 47l76 -73q-49 -51 -103 -74.5t-129 -23.5q-89 0 -140.5 39zM310 722h154l-111 -136h-108z" />
    <glyph glyph-name="etatonos" unicode="&#x3ae;" horiz-adv-x="589" 
d="M387 285q3 27 3 32q0 33 -20.5 53.5t-57.5 20.5q-57 0 -92 -39t-47 -106l-44 -246h-130l87 496h122l-11 -64h8q26 38 67.5 59t93.5 21q75 0 117 -44.5t42 -111.5q0 -29 -6 -61l-91 -511h-131zM362 722h154l-111 -136h-108z" />
    <glyph glyph-name="iotatonos" unicode="&#x3af;" horiz-adv-x="271" 
d="M92 496h131l-87 -496h-130zM184 722h154l-111 -136h-108z" />
    <glyph glyph-name="upsilondieresistonos" unicode="&#x3b0;" horiz-adv-x="583" 
d="M133 8q-48 24 -74.5 67t-26.5 100q0 30 6 64l45 257h130l-45 -258q-4 -17 -4 -35q1 -47 26 -72.5t65 -25.5q48 0 81.5 26t50.5 68t17 91q0 94 -47 206h141q37 -96 37 -203q0 -89 -35 -159.5t-101 -110t-156 -39.5q-62 0 -110 24zM297 732h74l-25 -144h-74zM140.5 612.5
q-19.5 19.5 -19.5 46.5q0 28 19.5 47t46.5 19q28 0 47 -19t19 -47q0 -27 -19 -46.5t-47 -19.5q-27 0 -46.5 19.5zM408.5 612.5q-19.5 19.5 -19.5 46.5q0 28 19.5 47t46.5 19q28 0 47 -19t19 -47q0 -27 -19 -46.5t-47 -19.5q-27 0 -46.5 19.5z" />
    <glyph glyph-name="alpha" unicode="&#x3b1;" horiz-adv-x="613" 
d="M114 12q-47 28 -75.5 79.5t-28.5 119.5q0 82 36.5 151t101 109.5t145.5 40.5q55 0 90.5 -21t54.5 -54h8l11 59h122l-87 -496h-123l10 60h-8q-23 -36 -60 -56t-96 -20q-54 0 -101 28zM337 127q36 22 57 60.5t21 84.5q0 53 -33 86t-83 33q-44 0 -80 -21.5t-56.5 -59.5
t-20.5 -83q0 -56 32.5 -89t84.5 -33q42 0 78 22z" />
    <glyph glyph-name="beta" unicode="&#x3b2;" horiz-adv-x="597" 
d="M102 507q18 102 82.5 163.5t170.5 61.5q57 0 103.5 -23t73 -62.5t26.5 -87.5q0 -63 -31 -105t-79 -63l-2 -8q41 -21 64.5 -61.5t23.5 -99.5q0 -61 -32.5 -116t-89 -88.5t-126.5 -33.5q-84 0 -135 59h-8l-5 -76l-32 -183h-131zM341 118.5q28 15.5 45 43t17 62.5
q0 46 -31.5 73t-80.5 27h-21l21 115h21q48 0 82 24.5t34 66.5q0 38 -24 59.5t-62 21.5q-44 0 -72 -29t-37 -75l-49 -278q-3 -16 -3 -36q0 -41 27 -65.5t73 -24.5q32 0 60 15.5z" />
    <glyph glyph-name="gamma" unicode="&#x3b3;" horiz-adv-x="589" 
d="M168 4l-135 492h144l80 -322h7l192 322h153l-310 -491l-40 -221h-130z" />
    <glyph glyph-name="delta" unicode="&#x3b4;" horiz-adv-x="593" 
d="M123 14q-53 30 -82.5 82.5t-29.5 115.5q0 68 28 128t82 102.5t129 58.5l-130 115l18 100h430l-19 -111h-239l136 -121q52 -46 74.5 -94.5t22.5 -110.5q0 -80 -37.5 -147.5t-106 -107.5t-157.5 -40q-66 0 -119 30zM334.5 126.5q35.5 21.5 56.5 58.5t21 83q0 53 -32.5 88
t-84.5 35q-42 0 -76.5 -22t-54.5 -60t-20 -85q0 -53 33.5 -86t80.5 -33q41 0 76.5 21.5z" />
    <glyph glyph-name="epsilon" unicode="&#x3b5;" horiz-adv-x="513" 
d="M57.5 23q-51.5 39 -51.5 101q0 48 27 81t76 51l1 8q-45 37 -45 90q0 47 29 83t79 55.5t111 19.5q59 0 101.5 -21t75.5 -65l-87 -69q-16 24 -43 37.5t-61 13.5q-36 0 -62 -15t-26 -44q0 -22 18 -35.5t49 -13.5h73l-16 -94h-83q-37 0 -62.5 -15t-25.5 -45q0 -25 21.5 -39
t58.5 -14q41 0 73 15t66 47l76 -73q-49 -51 -103 -74.5t-129 -23.5q-89 0 -140.5 39z" />
    <glyph glyph-name="zeta" unicode="&#x3b6;" horiz-adv-x="510" 
d="M264 -64q18 0 30.5 9t12.5 26q0 14 -9.5 21.5t-26.5 7.5h-117q-66 0 -106 36t-40 92q0 43 21 76t67 62l187 119h-216l20 111h407l-19 -106l-290 -182q-21 -12 -30.5 -24.5t-9.5 -29.5q0 -21 15.5 -32t37.5 -11h92q65 0 104 -34t39 -90q0 -74 -50.5 -114.5t-137.5 -40.5z
" />
    <glyph glyph-name="eta" unicode="&#x3b7;" horiz-adv-x="589" 
d="M387 285q3 27 3 32q0 33 -20.5 53.5t-57.5 20.5q-57 0 -92 -39t-47 -106l-44 -246h-130l87 496h122l-11 -64h8q26 38 67.5 59t93.5 21q75 0 117 -44.5t42 -111.5q0 -29 -6 -61l-91 -511h-131z" />
    <glyph glyph-name="theta" unicode="&#x3b8;" horiz-adv-x="691" 
d="M157.5 20.5q-55.5 36.5 -86.5 103t-31 154.5q0 110 43.5 207t122 156t178.5 59q73 0 128.5 -36.5t86.5 -103t31 -154.5q0 -110 -43.5 -207t-122 -156t-178.5 -59q-73 0 -128.5 36.5zM496 416q-6 74 -39.5 117.5t-86.5 43.5q-60 0 -107.5 -44.5t-70.5 -116.5h304z
M417.5 162.5q50.5 55.5 69.5 141.5h-314v-9q0 -85 34 -136.5t93 -51.5q67 0 117.5 55.5z" />
    <glyph glyph-name="iota" unicode="&#x3b9;" horiz-adv-x="271" 
d="M92 496h131l-87 -496h-130z" />
    <glyph glyph-name="kappa" unicode="&#x3ba;" horiz-adv-x="529" 
d="M86 496h130l-37 -212h8l196 212h157l-2 -8l-221 -233l144 -247l-2 -8h-147l-133 237h-8l-43 -237h-129z" />
    <glyph glyph-name="lambda" unicode="&#x3bb;" horiz-adv-x="559" 
d="M232 468l-63 238h143l178 -706h-144l-68 295h-7l-173 -295h-152z" />
    <glyph glyph-name="uni03BC" unicode="&#x3bc;" horiz-adv-x="589" 
d="M83 496h131l-51 -287q-3 -13 -3 -30q0 -33 20.5 -53.5t57.5 -20.5q57 0 92 39.5t47 105.5l44 246h130l-87 -496h-122l11 64h-8q-26 -40 -62 -60t-86 -20q-19 0 -39 6.5t-32 17.5h-8l-2 -65l-29 -159h-129z" />
    <glyph glyph-name="nu" unicode="&#x3bd;" horiz-adv-x="566" 
d="M32 496h148l63 -318h8l182 318h150l-300 -496h-130z" />
    <glyph glyph-name="xi" unicode="&#x3be;" horiz-adv-x="547" 
d="M283 -64q18 0 31 10t13 26q0 13 -9 20.5t-26 7.5h-76q-67 0 -116 24t-74.5 65.5t-25.5 91.5q0 68 36.5 118.5t108.5 82.5l1 8q-64 51 -64 130q0 58 33.5 106.5t92.5 77t133 28.5q73 0 124.5 -30.5t80.5 -79.5l-112 -74q-32 67 -105 67q-48 0 -82.5 -27t-34.5 -73
q0 -38 28.5 -61.5t69.5 -23.5h98l-20 -113h-111q-61 0 -101.5 -27.5t-40.5 -78.5q0 -40 33 -64t84 -24h42q74 0 116.5 -33.5t42.5 -96.5q0 -77 -50.5 -118.5t-138.5 -42.5z" />
    <glyph glyph-name="omicron" unicode="&#x3bf;" horiz-adv-x="593" 
d="M124 15q-54 31 -83.5 83.5t-29.5 117.5q0 83 38 150.5t106.5 106.5t155.5 39q70 0 124 -30.5t83.5 -83.5t29.5 -117q0 -83 -38 -151t-106.5 -107t-155.5 -39q-70 0 -124 31zM339.5 126.5q35.5 21.5 56 59t20.5 81.5q0 54 -33 89t-85 35q-43 0 -78.5 -21.5t-56 -59
t-20.5 -81.5q0 -54 33.5 -89t84.5 -35q43 0 78.5 21.5z" />
    <glyph glyph-name="pi" unicode="&#x3c0;" horiz-adv-x="742" 
d="M449 29.5q-38 37.5 -38 100.5q0 27 5 53l35 201h-177l-67 -384h-131l68 384h-116l20 112h674l-20 -112h-121l-34 -195q-3 -18 -3 -29q0 -22 12 -35.5t36 -13.5q17 0 31 4.5t34 14.5l-22 -125q-46 -13 -83 -13q-65 0 -103 37.5z" />
    <glyph glyph-name="rho" unicode="&#x3c1;" horiz-adv-x="616" 
d="M43 238q22 125 98.5 199.5t199.5 74.5q71 0 123 -29.5t79.5 -81.5t27.5 -119q0 -75 -35.5 -144t-99 -111.5t-144.5 -42.5q-52 0 -91 21.5t-60 54.5h-8l-3 -71l-36 -205h-130zM359.5 126.5q36.5 21.5 57.5 59.5t21 85q0 55 -33 87.5t-83 32.5q-43 0 -78.5 -22.5
t-56.5 -61.5t-21 -85q0 -53 32.5 -85t81.5 -32q43 0 79.5 21.5z" />
    <glyph glyph-name="uni03C2" unicode="&#x3c2;" horiz-adv-x="552" 
d="M128.5 14q-55.5 30 -86 84t-30.5 124q0 77 37 143.5t105.5 106.5t158.5 40q84 0 140 -39t78 -104l-126 -49q-12 35 -40.5 53t-69.5 18q-43 0 -77.5 -21.5t-54.5 -58t-20 -77.5q0 -59 35.5 -94t100.5 -35h23q69 0 110 -35.5t41 -93.5q0 -78 -49.5 -118.5t-138.5 -41.5
l18 104q19 0 31.5 9t12.5 26q0 13 -10 21t-29 8h-31q-73 0 -128.5 30z" />
    <glyph glyph-name="sigma" unicode="&#x3c3;" horiz-adv-x="619" 
d="M123 13q-54 29 -83.5 80.5t-29.5 115.5q0 77 37 143t104 105t153 39h324l-19 -111h-41l-75 8l-1 -8q41 -46 41 -122q0 -79 -37.5 -142.5t-103 -100t-146.5 -36.5q-69 0 -123 29zM329.5 125q33.5 20 52.5 55.5t19 78.5q0 51 -31.5 83.5t-79.5 32.5q-41 0 -75 -20
t-53 -55.5t-19 -78.5q0 -51 32 -83.5t80 -32.5q41 0 74.5 20z" />
    <glyph glyph-name="tau" unicode="&#x3c4;" horiz-adv-x="493" 
d="M183 375h-154l22 121h438l-21 -121h-154l-67 -375h-130z" />
    <glyph glyph-name="upsilon" unicode="&#x3c5;" horiz-adv-x="583" 
d="M133 8q-48 24 -74.5 67t-26.5 100q0 30 6 64l45 257h130l-45 -258q-4 -17 -4 -35q1 -47 26 -72.5t65 -25.5q48 0 81.5 26t50.5 68t17 91q0 94 -47 206h141q37 -96 37 -203q0 -89 -35 -159.5t-101 -110t-156 -39.5q-62 0 -110 24z" />
    <glyph glyph-name="phi" unicode="&#x3c6;" horiz-adv-x="753" 
d="M245 -11q-99 13 -157.5 75t-58.5 153q0 101 57 174.5t157 120.5l42 -109q-123 -61 -123 -170q0 -48 28 -80t76 -44l43 241q13 71 67.5 116.5t125.5 45.5q92 0 141.5 -56t49.5 -152q0 -88 -40.5 -158t-112.5 -111t-163 -46l-36 -205h-132zM518.5 170.5
q44.5 49.5 44.5 124.5q0 47 -17 73.5t-48 26.5q-21 0 -38 -14.5t-21 -41.5l-41 -231q76 13 120.5 62.5z" />
    <glyph glyph-name="chi" unicode="&#x3c7;" horiz-adv-x="525" 
d="M164 260l-127 236h154l65 -139h7l111 139h161l-214 -245l128 -251h-152l-67 146h-7l-115 -146h-161z" />
    <glyph glyph-name="psi" unicode="&#x3c8;" horiz-adv-x="735" 
d="M245 -16q-58 0 -106 24.5t-77 71.5t-29 112q0 28 4 55l44 249h131l-47 -263q-3 -16 -3 -33q0 -49 30 -72t74 -23l70 391h132l-70 -390q83 1 121.5 57t38.5 136q0 59 -7.5 103t-22.5 94h131q30 -79 30 -187q0 -92 -37 -166t-107.5 -116.5t-167.5 -42.5l-35 -200h-133z" />
    <glyph glyph-name="omega" unicode="&#x3c9;" horiz-adv-x="815" 
d="M114.5 8.5q-41.5 24.5 -65.5 70.5t-24 108q0 153 122 309h148q-60 -77 -95.5 -147.5t-35.5 -142.5q0 -43 19.5 -68.5t51.5 -25.5q38 0 67.5 32t40.5 96l24 135h123l-24 -135q-5 -25 -5 -47q0 -39 18.5 -60t51.5 -21q56 0 87 54t31 125q0 55 -11 102.5t-34 102.5h144
q37 -90 37 -203q0 -79 -30 -149.5t-89 -115t-143 -44.5q-56 0 -93 25.5t-54 66.5q-28 -45 -71 -68.5t-98 -23.5q-51 0 -92.5 24.5z" />
    <glyph glyph-name="iotadieresis" unicode="&#x3ca;" horiz-adv-x="271" 
d="M52.5 616.5q-20.5 20.5 -20.5 48.5q0 29 20.5 49t48.5 20q29 0 49 -20t20 -49q0 -28 -20.5 -48.5t-48.5 -20.5t-48.5 20.5zM220.5 616.5q-20.5 20.5 -20.5 48.5q0 29 20.5 49t48.5 20q29 0 49 -20t20 -49q0 -28 -20.5 -48.5t-48.5 -20.5t-48.5 20.5zM92 496h131l-87 -496
h-130z" />
    <glyph glyph-name="upsilondieresis" unicode="&#x3cb;" horiz-adv-x="583" 
d="M133 8q-48 24 -74.5 67t-26.5 100q0 30 6 64l45 257h130l-45 -258q-4 -17 -4 -35q1 -47 26 -72.5t65 -25.5q48 0 81.5 26t50.5 68t17 91q0 94 -47 206h141q37 -96 37 -203q0 -89 -35 -159.5t-101 -110t-156 -39.5q-62 0 -110 24zM176 614.5q-21 21.5 -21 50.5
q0 31 21 51.5t51 20.5t50.5 -20.5t20.5 -51.5q0 -30 -20.5 -51t-50.5 -21t-51 21.5zM367 614.5q-21 21.5 -21 50.5q0 31 21 51.5t51 20.5t50.5 -20.5t20.5 -51.5q0 -30 -20.5 -51t-50.5 -21t-51 21.5z" />
    <glyph glyph-name="omicrontonos" unicode="&#x3cc;" horiz-adv-x="593" 
d="M124 15q-54 31 -83.5 83.5t-29.5 117.5q0 83 38 150.5t106.5 106.5t155.5 39q70 0 124 -30.5t83.5 -83.5t29.5 -117q0 -83 -38 -151t-106.5 -107t-155.5 -39q-70 0 -124 31zM339.5 126.5q35.5 21.5 56 59t20.5 81.5q0 54 -33 89t-85 35q-43 0 -78.5 -21.5t-56 -59
t-20.5 -81.5q0 -54 33.5 -89t84.5 -35q43 0 78.5 21.5zM340 722h154l-111 -136h-108z" />
    <glyph glyph-name="upsilontonos" unicode="&#x3cd;" horiz-adv-x="583" 
d="M133 8q-48 24 -74.5 67t-26.5 100q0 30 6 64l45 257h130l-45 -258q-4 -17 -4 -35q1 -47 26 -72.5t65 -25.5q48 0 81.5 26t50.5 68t17 91q0 94 -47 206h141q37 -96 37 -203q0 -89 -35 -159.5t-101 -110t-156 -39.5q-62 0 -110 24zM319 722h154l-111 -136h-108z" />
    <glyph glyph-name="omegatonos" unicode="&#x3ce;" horiz-adv-x="815" 
d="M114.5 8.5q-41.5 24.5 -65.5 70.5t-24 108q0 153 122 309h148q-60 -77 -95.5 -147.5t-35.5 -142.5q0 -43 19.5 -68.5t51.5 -25.5q38 0 67.5 32t40.5 96l24 135h123l-24 -135q-5 -25 -5 -47q0 -39 18.5 -60t51.5 -21q56 0 87 54t31 125q0 55 -11 102.5t-34 102.5h144
q37 -90 37 -203q0 -79 -30 -149.5t-89 -115t-143 -44.5q-56 0 -93 25.5t-54 66.5q-28 -45 -71 -68.5t-98 -23.5q-51 0 -92.5 24.5zM476 722h154l-111 -136h-108z" />
    <glyph glyph-name="uni03D1" unicode="&#x3d1;" 
d="M125.5 8q-46.5 24 -73 69.5t-26.5 107.5q0 24 5 56l45 255h124l-46 -260q-3 -14 -3 -35q0 -49 27.5 -74.5t72.5 -25.5q57 0 92.5 34t47.5 99l6 40q-72 22 -117 85.5t-45 152.5q0 61 22 111t65.5 79.5t105.5 29.5q70 0 108 -39t38 -105q0 -14 -5 -44l-30 -169h89l-19 -107
h-89l-7 -42q-21 -117 -94 -179.5t-188 -62.5q-59 0 -105.5 24zM450 568q1 8 1 17q0 18 -9.5 29t-26.5 11q-29 0 -45 -32t-16 -75t16.5 -77.5t47.5 -51.5z" />
    <glyph glyph-name="uni03D2" unicode="&#x3d2;" horiz-adv-x="658" 
d="M251 312l-82 247q-8 25 -20 35.5t-31 10.5t-33 -8l-34 99q20 12 48 20t58 8q93 0 127 -100l54 -168h8l114 170q38 57 76.5 77.5t84.5 20.5q57 0 92 -29l-57 -101q-15 11 -34 11q-18 0 -34 -10.5t-33 -35.5l-169 -247l-55 -312h-134z" />
    <glyph glyph-name="uni03D3" unicode="&#x3d3;" horiz-adv-x="778" 
d="M371 312l-82 247q-8 25 -20 35.5t-31 10.5t-33 -8l-34 99q20 12 48 20t58 8q93 0 127 -100l54 -168h8l114 170q38 57 76.5 77.5t84.5 20.5q57 0 92 -29l-57 -101q-15 11 -34 11q-18 0 -34 -10.5t-33 -35.5l-169 -247l-55 -312h-134zM17 724h154l-114 -136h-106z" />
    <glyph glyph-name="uni03D4" unicode="&#x3d4;" horiz-adv-x="658" 
d="M251 312l-82 247q-8 25 -20 35.5t-31 10.5t-33 -8l-34 99q20 12 48 20t58 8q93 0 127 -100l54 -168h8l114 170q38 57 76.5 77.5t84.5 20.5q57 0 92 -29l-57 -101q-15 11 -34 11q-18 0 -34 -10.5t-33 -35.5l-169 -247l-55 -312h-134zM247 792.5q-21 21.5 -21 50.5
q0 30 21 51t51 21t50.5 -21t20.5 -51t-20.5 -51t-50.5 -21t-51 21.5zM438 792.5q-21 21.5 -21 50.5q0 30 21 51t50 21q31 0 51.5 -21t20.5 -51t-21 -51t-51 -21q-29 0 -50 21.5z" />
    <glyph glyph-name="uni03D6" unicode="&#x3d6;" horiz-adv-x="915" 
d="M147 8q-41 24 -65 69.5t-24 107.5q0 61 16 112t43 99h-70l17 100h835l-18 -100h-75q10 -56 10 -106q0 -80 -30 -150t-89.5 -113t-141.5 -43q-56 0 -93 25.5t-53 66.5q-29 -44 -72.5 -68t-97.5 -24q-51 0 -92 24zM333.5 144q30.5 32 41.5 96l16 90h123l-16 -90
q-4 -24 -4 -45q0 -40 18 -61.5t49 -21.5q57 0 87.5 52.5t30.5 123.5q0 50 -13 108h-405q-64 -105 -64 -194q0 -42 18.5 -66t50.5 -24q37 0 67.5 32z" />
    <glyph glyph-name="uni0400" unicode="&#x400;" horiz-adv-x="589" 
d="M141 716h454l-22 -128h-320l-29 -166h287l-23 -128h-287l-29 -166h319l-23 -128h-454zM257 908h148l19 -136h-102z" />
    <glyph glyph-name="uni0401" unicode="&#x401;" horiz-adv-x="589" 
d="M141 716h454l-22 -128h-320l-29 -166h287l-23 -128h-287l-29 -166h319l-23 -128h-454zM242 792.5q-21 21.5 -21 50.5q0 30 21 51t51 21t50.5 -21t20.5 -51t-20.5 -51t-50.5 -21t-51 21.5zM433 792.5q-21 21.5 -21 50.5q0 30 21 51t50 21q31 0 51.5 -21t20.5 -51t-21 -51
t-51 -21q-29 0 -50 21.5z" />
    <glyph glyph-name="uni0402" unicode="&#x402;" horiz-adv-x="788" 
d="M257 588h-193l22 128h525l-23 -128h-197l-26 -147l-21 -75h8q38 35 81 53.5t103 18.5q54 0 99.5 -23.5t72 -68t26.5 -104.5q0 -71 -35 -126t-97 -85.5t-141 -30.5h-33l21 120h21q54 0 90 28.5t36 78.5q0 41 -28 64t-76 23q-45 0 -90 -21.5t-73 -54.5l-42 -238h-135z" />
    <glyph glyph-name="uni0403" unicode="&#x403;" horiz-adv-x="543" 
d="M141 716h438l-22 -128h-304l-104 -588h-135zM383 908h154l-114 -136h-106z" />
    <glyph glyph-name="uni0404" unicode="&#x404;" horiz-adv-x="733" 
d="M184 26.5q-73 42.5 -113.5 118.5t-40.5 173q0 107 55 202t154.5 153.5t226.5 58.5q86 0 148.5 -30.5t109.5 -92.5l-111 -88q-63 83 -170 83q-94 0 -167 -51t-99 -136h320l-20 -118h-312q7 -86 61.5 -136.5t137.5 -50.5q64 0 112.5 23.5t96.5 71.5l83 -91
q-66 -67 -140 -99.5t-166 -32.5q-93 0 -166 42.5z" />
    <glyph glyph-name="uni0405" unicode="&#x405;" horiz-adv-x="585" 
d="M83 36.5q-66 52.5 -83 150.5l129 52q5 -56 38 -91.5t89 -35.5q52 0 87.5 26t35.5 69q0 37 -26 62t-89 50l-35 14q-65 25 -106 71.5t-41 118.5q0 59 33.5 107t91.5 75t129 27q68 0 115 -23.5t71.5 -58.5t31.5 -71l-124 -47q-8 35 -34.5 55.5t-72.5 20.5q-44 0 -75 -21.5
t-31 -58.5q0 -32 23.5 -54t76.5 -41l41 -15q76 -29 116.5 -76t40.5 -120q0 -69 -34.5 -123t-96.5 -84.5t-143 -30.5q-92 0 -158 52.5z" />
    <glyph glyph-name="uni0406" unicode="&#x406;" horiz-adv-x="293" 
d="M141 716h135l-127 -716h-135z" />
    <glyph glyph-name="uni0407" unicode="&#x407;" horiz-adv-x="279" 
d="M85 800q-20 20 -20 47q0 28 20 48t47 20q28 0 47.5 -20t19.5 -48q0 -27 -19.5 -47t-47.5 -20q-27 0 -47 20zM263 800q-20 20 -20 47q0 28 20 48t48 20t47.5 -20t19.5 -48q0 -27 -19.5 -47t-47.5 -20t-48 20zM140 716h135l-127 -716h-135z" />
    <glyph glyph-name="uni0408" unicode="&#x408;" horiz-adv-x="565" 
d="M109 6q-47 22 -78 61.5t-37 89.5l129 50q6 -46 34 -70.5t69 -24.5q46 0 76.5 30t39.5 84l86 490h135l-86 -489q-22 -124 -92.5 -183.5t-173.5 -59.5q-55 0 -102 22z" />
    <glyph glyph-name="uni0409" unicode="&#x409;" horiz-adv-x="1095" 
d="M-39 -3l22 127q10 -5 32 -5q40 0 67 25q21 20 33.5 58.5t24.5 106.5l72 407h507l-50 -285h146q64 0 115.5 -22.5t81 -67t29.5 -106.5q0 -70 -35.5 -123t-99.5 -82.5t-148 -29.5h-300l104 588h-238l-57 -325q-15 -83 -40 -137t-62 -86q-29 -25 -66 -36.5t-86 -11.5
q-37 0 -52 5zM779 125q53 0 86.5 27t33.5 72q0 38 -25 60t-68 22h-159l-32 -181h164z" />
    <glyph glyph-name="uni040A" unicode="&#x40a;" horiz-adv-x="1069" 
d="M134 716h135l-51 -285h289l51 285h134l-50 -285h145q64 0 115.5 -22.5t81.5 -67t30 -106.5q0 -70 -35.5 -123t-99.5 -82.5t-149 -29.5h-299l54 306h-288l-55 -306h-135zM752 125q53 0 86.5 27t33.5 72q0 38 -25 60t-68 22h-160l-32 -181h165z" />
    <glyph glyph-name="uni040B" unicode="&#x40b;" horiz-adv-x="784" 
d="M257 588h-193l22 128h525l-23 -128h-197l-26 -147l-21 -75h8q79 72 183 72q80 0 127.5 -47.5t47.5 -127.5q0 -24 -4 -47l-39 -216h-129l35 198q3 15 3 34q0 37 -26 59.5t-74 22.5q-83 0 -147 -76l-42 -238h-135z" />
    <glyph glyph-name="uni040C" unicode="&#x40c;" horiz-adv-x="667" 
d="M141 716h135l-60 -336h8l311 336h172l-2 -8l-341 -360l230 -340l-2 -8h-163l-215 319h-8l-57 -319h-135zM419 908h154l-114 -136h-106z" />
    <glyph glyph-name="uni040D" unicode="&#x40d;" horiz-adv-x="715" 
d="M134 716h134l-64 -360l-33 -138h8l374 498h152l-127 -716h-133l62 351l32 138h-8l-367 -489h-157zM297 908h148l19 -136h-102z" />
    <glyph glyph-name="uni040E" unicode="&#x40e;" horiz-adv-x="630" 
d="M14 4l55 115q21 -14 46 -14q40 0 68 43l36 53l-143 515h141l89 -361h8l219 361h149l-383 -608q-42 -67 -88 -95.5t-105 -28.5q-48 0 -92 20zM294.5 795q-34.5 32 -34.5 81q0 13 2 23h92q-1 -4 -1 -9q0 -16 10 -26.5t28 -10.5q19 0 33 13t18 33h92q-10 -66 -51 -101
t-104 -35q-50 0 -84.5 32z" />
    <glyph glyph-name="uni040F" unicode="&#x40f;" horiz-adv-x="694" 
d="M232 0h-210l126 716h135l-104 -588h281l104 588h134l-126 -716h-210l-28 -163h-130z" />
    <glyph glyph-name="uni0410" unicode="&#x410;" horiz-adv-x="720" 
d="M340 716h158l143 -716h-143l-32 171h-273l-89 -171h-154zM443 295l-33 180l-10 86h-8l-40 -86l-95 -180h186z" />
    <glyph glyph-name="uni0411" unicode="&#x411;" horiz-adv-x="640" 
d="M141 716h451l-22 -124h-316l-28 -158h142q59 0 107 -24t76 -67.5t28 -100.5q0 -74 -35.5 -129t-98 -84t-140.5 -29h-291zM322 125q53 0 87 28t34 75q0 39 -24.5 61t-67.5 22h-147l-32 -186h150z" />
    <glyph glyph-name="uni0412" unicode="&#x412;" horiz-adv-x="642" 
d="M141 716h255q67 0 115 -24t73 -64t25 -88q0 -66 -35.5 -107t-89.5 -58l-2 -8q43 -19 69 -56t26 -89q0 -67 -35.5 -117t-97.5 -77.5t-139 -27.5h-291zM360 424q52 0 83 24t31 68q0 35 -22.5 57t-61.5 22h-136l-30 -171h136zM321 123q51 0 86 26.5t35 72.5q0 39 -25 62.5
t-71 23.5h-143l-32 -185h150z" />
    <glyph glyph-name="uni0413" unicode="&#x413;" horiz-adv-x="543" 
d="M141 716h438l-22 -128h-304l-104 -588h-135z" />
    <glyph glyph-name="uni0414" unicode="&#x414;" horiz-adv-x="799" 
d="M12 128h86q45 57 80 157t55 213l38 218h485l-104 -588h79l-49 -280h-130l27 152h-460l-27 -152h-128zM518 128l81 460h-217l-20 -113q-22 -120 -49 -200t-70 -147h275z" />
    <glyph glyph-name="uni0415" unicode="&#x415;" horiz-adv-x="589" 
d="M141 716h454l-22 -128h-320l-29 -166h287l-23 -128h-287l-29 -166h319l-23 -128h-454z" />
    <glyph glyph-name="uni0416" unicode="&#x416;" horiz-adv-x="960" 
d="M-59 8l325 353l-184 347l2 8h159l166 -327h8l58 327h135l-58 -327h8l276 327h169l-2 -8l-311 -361l201 -339l-1 -8h-163l-183 313h-8l-55 -313h-135l55 313h-8l-281 -313h-175z" />
    <glyph glyph-name="uni0417" unicode="&#x417;" horiz-adv-x="571" 
d="M128 5.5q-50 21.5 -84 63t-43 99.5l123 48q7 -52 38 -80.5t81 -28.5q56 0 93.5 30.5t37.5 84.5q0 41 -31 67.5t-82 26.5h-58l20 113h47q58 0 98 27.5t40 78.5q0 36 -24 58t-64 22q-44 0 -75.5 -23.5t-45.5 -57.5l-106 47q26 65 87.5 108t153.5 43q61 0 108 -22.5t73 -62
t26 -89.5q0 -118 -114 -175l-1 -8q35 -21 57.5 -58.5t22.5 -91.5q0 -71 -36 -126t-98 -85t-137 -30q-57 0 -107 21.5z" />
    <glyph glyph-name="uni0418" unicode="&#x418;" horiz-adv-x="715" 
d="M134 716h134l-64 -360l-33 -138h8l374 498h152l-127 -716h-133l62 351l32 138h-8l-367 -489h-157z" />
    <glyph glyph-name="uni0419" unicode="&#x419;" horiz-adv-x="715" 
d="M134 716h134l-64 -360l-33 -138h8l374 498h152l-127 -716h-133l62 351l32 138h-8l-367 -489h-157zM334.5 795q-34.5 32 -34.5 81q0 13 2 23h92q-1 -4 -1 -9q0 -16 10 -26.5t28 -10.5q19 0 33 13t18 33h92q-10 -66 -51 -101t-104 -35q-50 0 -84.5 32z" />
    <glyph glyph-name="uni041A" unicode="&#x41a;" horiz-adv-x="667" 
d="M141 716h135l-60 -336h8l311 336h172l-2 -8l-341 -360l230 -340l-2 -8h-163l-215 319h-8l-57 -319h-135z" />
    <glyph glyph-name="uni041B" unicode="&#x41b;" horiz-adv-x="729" 
d="M-39 -3l22 127q10 -5 32 -5q40 0 67 25q21 20 33.5 58.5t24.5 106.5l72 407h507l-126 -716h-135l104 588h-238l-57 -325q-15 -83 -39.5 -137t-62.5 -86q-57 -48 -152 -48q-37 0 -52 5z" />
    <glyph glyph-name="uni041C" unicode="&#x41c;" horiz-adv-x="895" 
d="M141 716h171l102 -503h8l278 503h178l-127 -716h-133l62 353l29 119h-8l-263 -472h-106l-101 472h-8l-13 -119l-62 -353h-134z" />
    <glyph glyph-name="uni041D" unicode="&#x41d;" horiz-adv-x="729" 
d="M141 716h135l-51 -286h302l51 286h135l-127 -716h-135l54 302h-302l-54 -302h-135z" />
    <glyph glyph-name="uni041E" unicode="&#x41e;" horiz-adv-x="835" 
d="M201.5 25.5q-77.5 41.5 -121.5 117.5t-44 174q0 112 53.5 207t150.5 151.5t220 56.5q98 0 175 -43t120 -119t43 -171q0 -112 -53.5 -207t-150 -151.5t-219.5 -56.5q-96 0 -173.5 41.5zM525.5 150q63.5 38 100 103.5t36.5 143.5q0 60 -28 107t-77 73.5t-109 26.5
q-77 0 -140 -38t-99.5 -102.5t-36.5 -141.5q0 -61 28 -109t77 -74.5t109 -26.5q76 0 139.5 38z" />
    <glyph glyph-name="uni041F" unicode="&#x41f;" horiz-adv-x="708" 
d="M141 716h550l-127 -716h-134l104 588h-281l-104 -588h-135z" />
    <glyph glyph-name="uni0420" unicode="&#x420;" horiz-adv-x="605" 
d="M141 716h240q63 0 113 -26t78.5 -73t28.5 -107q0 -77 -35.5 -133t-98.5 -85t-145 -29h-126l-47 -263h-135zM340 391q57 0 91.5 28t34.5 81q0 40 -24 64t-67 24h-122l-34 -197h121z" />
    <glyph glyph-name="uni0421" unicode="&#x421;" horiz-adv-x="746" 
d="M195 24.5q-74 40.5 -116.5 115.5t-42.5 176q0 112 55 207.5t153.5 152t221.5 56.5q88 0 154 -32.5t106 -90.5l-107 -88q-31 41 -71.5 62t-99.5 21q-75 0 -138.5 -37.5t-101 -102t-37.5 -141.5q0 -63 26 -111t72.5 -74t105.5 -26q61 0 110.5 25t98.5 74l86 -97
q-68 -69 -139.5 -99.5t-168.5 -30.5q-93 0 -167 40.5z" />
    <glyph glyph-name="uni0422" unicode="&#x422;" horiz-adv-x="587" 
d="M266 588h-200l22 128h535l-23 -128h-200l-104 -588h-135z" />
    <glyph glyph-name="uni0423" unicode="&#x423;" horiz-adv-x="630" 
d="M14 4l55 115q21 -14 46 -14q40 0 68 43l36 53l-143 515h141l89 -361h8l219 361h149l-383 -608q-42 -67 -88 -95.5t-105 -28.5q-48 0 -92 20z" />
    <glyph glyph-name="uni0424" unicode="&#x424;" horiz-adv-x="827" 
d="M293 61q-81 11 -140 48t-90 94t-31 127q0 93 48.5 163.5t131.5 111.5t186 51l19 108h135l-20 -109q122 -17 191.5 -90t69.5 -179q0 -94 -48 -164.5t-131 -111.5t-187 -51l-18 -107h-135zM376 534q-93 -13 -150.5 -63t-57.5 -131q0 -62 38.5 -103t108.5 -54zM600.5 244
q57.5 50 57.5 130q0 63 -38 104t-109 55l-62 -352q94 13 151.5 63z" />
    <glyph glyph-name="uni0425" unicode="&#x425;" horiz-adv-x="692" 
d="M261 377l-171 339h170l104 -231h8l182 231h174l-292 -351l184 -365h-165l-122 251h-8l-201 -251h-174z" />
    <glyph glyph-name="uni0426" unicode="&#x426;" horiz-adv-x="754" 
d="M534 0h-511l126 716h134l-103 -588h283l104 588h134l-103 -588h89l-51 -296h-131z" />
    <glyph glyph-name="uni0427" unicode="&#x427;" horiz-adv-x="610" 
d="M414 309q-33 -25 -69 -37t-85 -12q-55 0 -100.5 22.5t-72 67t-26.5 105.5q0 28 6 59l36 202h135l-37 -205q-2 -13 -2 -29q0 -45 28.5 -69.5t75.5 -24.5q39 0 71 13t63 40l49 275h135l-127 -716h-135z" />
    <glyph glyph-name="uni0428" unicode="&#x428;" horiz-adv-x="933" 
d="M134 716h135l-104 -588h192l105 588h134l-104 -588h193l104 588h135l-127 -716h-790z" />
    <glyph glyph-name="uni0429" unicode="&#x429;" horiz-adv-x="981" 
d="M747 0h-740l127 716h135l-104 -588h192l105 588h134l-104 -588h193l104 588h135l-105 -588h81l-52 -296h-130z" />
    <glyph glyph-name="uni042A" unicode="&#x42a;" horiz-adv-x="776" 
d="M255 593h-191l22 123h326l-44 -245h115q68 0 123 -25t87 -72t32 -111q0 -80 -38 -139.5t-106 -91.5t-156 -32h-275zM451 125q60 0 99 33t39 91q0 46 -30.5 73t-81.5 27h-130l-40 -224h144z" />
    <glyph glyph-name="uni042B" unicode="&#x42b;" horiz-adv-x="870" 
d="M134 716h135l-44 -245h115q68 0 123 -25t87 -72t32 -111q0 -80 -38 -139.5t-106 -91.5t-156 -32h-275zM726 716h134l-127 -716h-134zM308 125q60 0 99 33t39 91q0 46 -30.5 73t-81.5 27h-130l-40 -224h144z" />
    <glyph glyph-name="uni042C" unicode="&#x42c;" horiz-adv-x="633" 
d="M134 716h135l-44 -245h115q68 0 123 -25t87 -72t32 -111q0 -80 -38 -139.5t-106 -91.5t-156 -32h-275zM308 125q60 0 99 33t39 91q0 46 -30.5 73t-81.5 27h-130l-40 -224h144z" />
    <glyph glyph-name="uni042D" unicode="&#x42d;" horiz-adv-x="733" 
d="M112 21q-74 37 -116 100l105 86q30 -45 78 -70t111 -25q94 0 164.5 52t97.5 135h-318l20 118h311q-7 88 -60.5 137.5t-136.5 49.5q-103 0 -182 -79l-89 90q115 117 283 117q94 0 167.5 -42.5t114 -118t40.5 -172.5q0 -112 -54 -207.5t-150 -151.5t-216 -56q-96 0 -170 37
z" />
    <glyph glyph-name="uni042E" unicode="&#x42e;" horiz-adv-x="1091" 
d="M469.5 23q-75.5 39 -120.5 110.5t-49 163.5v5h-104l-54 -302h-135l127 716h135l-51 -286h97q23 86 80.5 154.5t142 108t185.5 39.5q98 0 175 -43t120 -119t43 -171q0 -112 -53.5 -207t-150 -151.5t-219.5 -56.5q-93 0 -168.5 39zM789 150q63 38 99.5 103.5t36.5 143.5
q0 60 -28 107t-77 73.5t-109 26.5q-76 0 -139.5 -38t-100 -103t-36.5 -141q0 -61 28 -109t77 -74.5t110 -26.5q76 0 139 38z" />
    <glyph glyph-name="uni042F" unicode="&#x42f;" horiz-adv-x="643" 
d="M-29 8l239 275l1 7q-53 24 -87 71.5t-34 113.5q0 69 35.5 124t98.5 86t142 31h267l-127 -716h-134l48 269h-59l-230 -269h-162zM441 393l35 198h-126q-56 0 -90 -31t-34 -74q0 -42 27.5 -67.5t70.5 -25.5h117z" />
    <glyph glyph-name="uni0430" unicode="&#x430;" horiz-adv-x="548" 
d="M92.5 4.5q-37.5 20.5 -58.5 55.5t-21 79q0 84 61.5 133t167.5 49q66 0 129 -24l4 18q2 12 2 17q0 32 -27.5 53t-70.5 21q-73 0 -120 -56l-88 64q39 48 97.5 73t126.5 25q99 0 154 -47t55 -127q0 -21 -5 -51l-51 -287h-129l9 52h-8q-52 -68 -142 -68q-48 0 -85.5 20.5z
M309 120q37 34 46 82q-51 23 -108 23q-46 0 -74 -19.5t-28 -56.5q0 -30 22 -46.5t55 -16.5q50 0 87 34z" />
    <glyph glyph-name="uni0431" unicode="&#x431;" horiz-adv-x="614" 
d="M151 18q-53 34 -82.5 97.5t-29.5 148.5q0 106 40.5 202.5t116.5 159.5q44 37 99 57t118 20q52 0 72 6.5t28 23.5h113q-18 -78 -69.5 -107.5t-152.5 -29.5q-71 0 -120 -34q-64 -43 -87 -124h8q59 74 164 74q56 0 102 -30t72.5 -81.5t26.5 -112.5q0 -86 -38 -155t-105 -109
t-152 -40q-71 0 -124 34zM365.5 127q34.5 22 54 59t19.5 82q0 56 -32.5 89.5t-82.5 33.5q-46 0 -81.5 -22t-55 -59t-19.5 -80q0 -57 34.5 -91t84.5 -34q44 0 78.5 22z" />
    <glyph glyph-name="uni0432" unicode="&#x432;" horiz-adv-x="516" 
d="M80 496h242q71 0 111 -33.5t40 -88.5q0 -41 -23.5 -70.5t-56.5 -43.5l-2 -8q30 -15 47 -39t17 -62q0 -44 -24.5 -78t-68.5 -53.5t-101 -19.5h-269zM293 302q25 0 42 14t17 37q0 21 -13 32.5t-36 11.5h-117l-17 -95h124zM270 103q28 0 47.5 16t19.5 43q0 21 -14.5 34
t-40.5 13h-129l-19 -106h136z" />
    <glyph glyph-name="uni0433" unicode="&#x433;" horiz-adv-x="443" 
d="M80 496h362l-19 -112h-232l-68 -384h-131z" />
    <glyph glyph-name="uni0434" unicode="&#x434;" horiz-adv-x="660" 
d="M1 115h61q25 31 46.5 87.5t34.5 125.5l29 168h425l-67 -381h75l-47 -267h-118l27 152h-369l-27 -152h-117zM405 115l46 266h-175l-15 -84q-11 -59 -25.5 -99.5t-39.5 -82.5h209z" />
    <glyph glyph-name="uni0435" unicode="&#x435;" horiz-adv-x="573" 
d="M121 15.5q-53 31.5 -81.5 85t-28.5 118.5q0 77 37 144.5t104 108t153 40.5q69 0 119 -28t75.5 -75.5t25.5 -103.5q0 -47 -14 -87h-373l-1 -11q1 -51 35 -79t82 -28q50 0 83.5 18.5t56.5 54.5l99 -52q-45 -68 -104 -102.5t-145 -34.5q-70 0 -123 31.5zM403 311v4
q0 37 -29 63.5t-80 26.5q-49 0 -86.5 -27t-52.5 -67h248z" />
    <glyph glyph-name="uni0436" unicode="&#x436;" horiz-adv-x="767" 
d="M-66 8l234 261l-135 219l1 8h145l118 -208h8l37 208h130l-36 -208h8l191 208h150l-2 -8l-216 -230l137 -250l-1 -8h-143l-126 232h-9l-41 -232h-130l41 232h-8l-202 -232h-152z" />
    <glyph glyph-name="uni0437" unicode="&#x437;" horiz-adv-x="500" 
d="M-9 78l96 75q42 -60 117 -60q43 0 72 16t29 45q0 23 -23.5 37.5t-63.5 14.5h-61l17 94h67q38 0 63 15t25 39t-21 39t-53 15q-65 0 -109 -47l-78 68q43 44 92 63.5t109 19.5q52 0 93 -18t64 -49.5t23 -71.5q0 -41 -22.5 -70t-57.5 -43l-1 -8q27 -15 44 -40.5t17 -62.5
q0 -79 -67.5 -122t-169.5 -43q-130 0 -201 94z" />
    <glyph glyph-name="uni0438" unicode="&#x438;" horiz-adv-x="574" 
d="M80 496h131l-36 -205l-25 -96h8l248 301h137l-89 -496h-130l36 205l25 96h-8l-249 -301h-135z" />
    <glyph glyph-name="uni0439" unicode="&#x439;" horiz-adv-x="574" 
d="M80 496h131l-36 -205l-25 -96h8l248 301h137l-89 -496h-130l36 205l25 96h-8l-249 -301h-135zM238.5 617q-34.5 32 -34.5 81q0 13 2 23h92q-1 -4 -1 -9q0 -16 10 -26.5t28 -10.5q19 0 33 13t18 33h92q-10 -66 -51 -101t-104 -35q-50 0 -84.5 32z" />
    <glyph glyph-name="uni043A" unicode="&#x43a;" horiz-adv-x="529" 
d="M86 496h130l-37 -212h8l196 212h157l-2 -8l-221 -233l144 -247l-2 -8h-147l-133 237h-8l-43 -237h-129z" />
    <glyph glyph-name="uni043B" unicode="&#x43b;" horiz-adv-x="630" 
d="M-21 0l21 115q15 -5 32 -5q30 0 48 32t32 114l43 240h443l-87 -496h-126l67 379h-194l-27 -151q-23 -129 -71.5 -182.5t-121.5 -53.5q-38 0 -59 8z" />
    <glyph glyph-name="uni043C" unicode="&#x43c;" horiz-adv-x="691" 
d="M76 496h153l87 -263h8l179 263h161l-88 -496h-126l37 204l25 96h-8l-163 -236h-92l-82 236h-8l-9 -96l-37 -204h-124z" />
    <glyph glyph-name="uni043D" unicode="&#x43d;" horiz-adv-x="583" 
d="M80 496h131l-32 -183h209l32 183h131l-88 -496h-131l34 191h-209l-34 -191h-131z" />
    <glyph glyph-name="uni043E" unicode="&#x43e;" horiz-adv-x="593" 
d="M124 15q-54 31 -83.5 83.5t-29.5 117.5q0 83 38 150.5t106.5 106.5t155.5 39q70 0 124 -30.5t83.5 -83.5t29.5 -117q0 -83 -38 -151t-106.5 -107t-155.5 -39q-70 0 -124 31zM339.5 126.5q35.5 21.5 56 59t20.5 81.5q0 54 -33 89t-85 35q-43 0 -78.5 -21.5t-56 -59
t-20.5 -81.5q0 -54 33.5 -89t84.5 -35q43 0 78.5 21.5z" />
    <glyph glyph-name="uni043F" unicode="&#x43f;" horiz-adv-x="571" 
d="M80 496h459l-89 -496h-130l66 375h-197l-67 -375h-130z" />
    <glyph glyph-name="uni0440" unicode="&#x440;" horiz-adv-x="612" 
d="M91 496h123l-10 -59h8q23 34 62 54.5t95 20.5q58 0 104.5 -30t73 -83t26.5 -119q0 -80 -35.5 -148t-99.5 -108t-145 -40q-49 0 -90.5 22t-58.5 54h-8l-3 -71l-36 -205h-131zM367.5 127q35.5 22 55 59.5t19.5 82.5q0 56 -34 89t-88 33q-40 0 -75 -20.5t-56 -58.5t-21 -87
q0 -53 34 -86.5t86 -33.5q44 0 79.5 22z" />
    <glyph glyph-name="uni0441" unicode="&#x441;" horiz-adv-x="559" 
d="M124.5 14q-53.5 30 -83.5 83t-30 121q0 78 37.5 145.5t107 108t158.5 40.5q82 0 138 -39t77 -105l-123 -47q-12 34 -40.5 52t-68.5 18q-45 0 -80 -21.5t-55 -58t-20 -80.5q0 -56 34 -91t84 -35q43 0 75.5 19.5t51.5 54.5l111 -54q-82 -141 -252 -141q-68 0 -121.5 30z
" />
    <glyph glyph-name="uni0442" unicode="&#x442;" horiz-adv-x="493" 
d="M183 375h-154l22 121h438l-21 -121h-154l-67 -375h-130z" />
    <glyph glyph-name="uni0443" unicode="&#x443;" horiz-adv-x="565" 
d="M164 29l-124 467h147l73 -303h7l177 303h148l-436 -712h-143z" />
    <glyph glyph-name="uni0444" unicode="&#x444;" horiz-adv-x="766" 
d="M270 -10q-71 10 -125 43.5t-83.5 82.5t-29.5 107q0 125 90.5 199.5t240.5 86.5l36 207h131l-37 -209q70 -11 124 -44.5t84 -83t30 -108.5q0 -82 -42 -144t-116.5 -97.5t-171.5 -42.5l-36 -203h-131zM342 393q-80 -9 -131 -49t-51 -107q0 -52 35 -87.5t96 -46.5zM553 150
q50 38 50 106q0 54 -34 89.5t-96 46.5l-52 -290q82 10 132 48z" />
    <glyph glyph-name="uni0445" unicode="&#x445;" horiz-adv-x="525" 
d="M164 260l-127 236h154l65 -139h7l111 139h161l-214 -245l128 -251h-152l-67 146h-7l-115 -146h-161z" />
    <glyph glyph-name="uni0446" unicode="&#x446;" horiz-adv-x="615" 
d="M406 0h-413l87 496h130l-66 -379h197l67 379h131l-67 -379h72l-48 -269h-117z" />
    <glyph glyph-name="uni0447" unicode="&#x447;" horiz-adv-x="531" 
d="M318 177q-48 -19 -111 -19q-77 0 -125 43t-48 118q0 19 5 48l23 129h133l-23 -125q-2 -18 -2 -25q0 -34 21 -51.5t58 -17.5q53 0 91 22l35 197h130l-88 -496h-131z" />
    <glyph glyph-name="uni0448" unicode="&#x448;" horiz-adv-x="810" 
d="M80 496h128l-67 -379h147l67 379h128l-67 -379h146l68 379h128l-89 -496h-677z" />
    <glyph glyph-name="uni0449" unicode="&#x449;" horiz-adv-x="854" 
d="M625 0h-632l87 496h128l-67 -379h147l67 379h128l-67 -379h147l67 379h128l-67 -379h72l-48 -269h-117z" />
    <glyph glyph-name="uni044A" unicode="&#x44a;" horiz-adv-x="610" 
d="M156 393h-124l18 103h248l-29 -162h109q52 0 93 -19.5t63.5 -53.5t22.5 -78q0 -84 -57.5 -133.5t-161.5 -49.5h-252zM352 103q36 0 59.5 18.5t23.5 51.5q0 27 -19.5 42.5t-50.5 15.5h-114l-23 -128h124z" />
    <glyph glyph-name="uni044B" unicode="&#x44b;" horiz-adv-x="732" 
d="M80 496h125l-29 -162h109q52 0 92.5 -19.5t63 -53.5t22.5 -78q0 -83 -57 -133t-161 -50h-253zM576 496h124l-88 -496h-124zM259 103q36 0 59 18.5t23 51.5q0 27 -19 42.5t-51 15.5h-113l-23 -128h124z" />
    <glyph glyph-name="uni044C" unicode="&#x44c;" horiz-adv-x="518" 
d="M80 496h125l-29 -162h109q52 0 92.5 -19.5t63 -53.5t22.5 -78q0 -83 -57 -133t-161 -50h-253zM259 103q36 0 59 18.5t23 51.5q0 27 -19 42.5t-51 15.5h-113l-23 -128h124z" />
    <glyph glyph-name="uni044D" unicode="&#x44d;" horiz-adv-x="540" 
d="M63 23.5q-59 39.5 -78 102.5l110 41q13 -35 42.5 -55t74.5 -20q57 0 97.5 29.5t57.5 79.5h-204l16 93h197q-6 53 -37.5 81.5t-78.5 28.5q-45 0 -79 -21.5t-55 -57.5l-98 49q37 66 98 102t141 36q67 0 119.5 -28.5t81.5 -80.5t29 -120q0 -81 -36 -149.5t-103 -109
t-155 -40.5q-81 0 -140 39.5z" />
    <glyph glyph-name="uni044E" unicode="&#x44e;" horiz-adv-x="817" 
d="M362 11q-52 27 -82.5 74t-36.5 106h-78l-34 -191h-130l87 496h131l-33 -183h72q29 90 104.5 144.5t179.5 54.5q70 0 124 -30.5t83.5 -83.5t29.5 -117q0 -83 -38 -151t-106.5 -107t-155.5 -39q-65 0 -117 27zM570.5 126.5q35.5 21.5 56 59t20.5 81.5q0 54 -33 89t-85 35
q-43 0 -78.5 -21.5t-56 -59t-20.5 -81.5q0 -54 33.5 -89t84.5 -35q43 0 78.5 21.5z" />
    <glyph glyph-name="uni044F" unicode="&#x44f;" horiz-adv-x="506" 
d="M-61 8l151 166l-1 7q-33 15 -57.5 50.5t-24.5 82.5q0 49 26.5 91t75.5 66.5t113 24.5h252l-88 -496h-124l30 165h-65l-146 -165h-144zM310 267l22 126h-115q-35 0 -59 -19.5t-24 -49.5q0 -28 19 -42.5t47 -14.5h110z" />
    <glyph glyph-name="uni0450" unicode="&#x450;" horiz-adv-x="573" 
d="M121 15.5q-53 31.5 -81.5 85t-28.5 118.5q0 77 37 144.5t104 108t153 40.5q69 0 119 -28t75.5 -75.5t25.5 -103.5q0 -47 -14 -87h-373l-1 -11q1 -51 35 -79t82 -28q50 0 83.5 18.5t56.5 54.5l99 -52q-45 -68 -104 -102.5t-145 -34.5q-70 0 -123 31.5zM403 311v4
q0 37 -29 63.5t-80 26.5q-49 0 -86.5 -27t-52.5 -67h248zM206 730h149l18 -136h-102z" />
    <glyph glyph-name="uni0451" unicode="&#x451;" horiz-adv-x="573" 
d="M121 15.5q-53 31.5 -81.5 85t-28.5 118.5q0 77 37 144.5t104 108t153 40.5q69 0 119 -28t75.5 -75.5t25.5 -103.5q0 -47 -14 -87h-373l-1 -11q1 -51 35 -79t82 -28q50 0 83.5 18.5t56.5 54.5l99 -52q-45 -68 -104 -102.5t-145 -34.5q-70 0 -123 31.5zM403 311v4
q0 37 -29 63.5t-80 26.5q-49 0 -86.5 -27t-52.5 -67h248zM187 614.5q-21 21.5 -21 50.5q0 31 21 51.5t51 20.5t50.5 -20.5t20.5 -51.5q0 -30 -20.5 -51t-50.5 -21t-51 21.5zM378 614.5q-21 21.5 -21 50.5q0 31 21 51.5t51 20.5t50.5 -20.5t20.5 -51.5q0 -30 -20.5 -51
t-50.5 -21t-51 21.5z" />
    <glyph glyph-name="uni0452" unicode="&#x452;" horiz-adv-x="576" 
d="M223.5 -222q-23.5 4 -38.5 10l47 115q15 -9 33 -9q45 0 55 55l60 336q3 14 3 32q0 32 -20.5 53t-56.5 21q-57 0 -92 -39.5t-48 -107.5l-43 -244h-131l99 565h-58l16 91h58l11 60h131l-11 -60h135l-16 -91h-135l-8 -43l-23 -90h8q26 38 67.5 59t93.5 21q76 0 117 -44
t41 -111q0 -23 -5 -61l-62 -350q-17 -94 -62 -133t-121 -39q-21 0 -44.5 4z" />
    <glyph glyph-name="uni0453" unicode="&#x453;" horiz-adv-x="443" 
d="M80 496h362l-19 -112h-232l-68 -384h-131zM291 730h154l-114 -136h-106z" />
    <glyph glyph-name="uni0454" unicode="&#x454;" horiz-adv-x="538" 
d="M111.5 14q-50.5 30 -78.5 82.5t-28 118.5q0 79 37.5 147.5t105.5 109t156 40.5q158 0 207 -140l-110 -44q-11 34 -39.5 55t-69.5 21q-54 0 -95 -30t-59 -80h204l-16 -93h-200q6 -50 37.5 -79.5t82.5 -29.5q45 0 76.5 20t54.5 60l97 -46q-41 -71 -100 -106.5t-146 -35.5
q-66 0 -116.5 30z" />
    <glyph glyph-name="uni0455" unicode="&#x455;" horiz-adv-x="492" 
d="M61.5 23q-56.5 39 -74.5 101l121 49q9 -36 37.5 -55t68.5 -19q34 0 57.5 13.5t23.5 36.5q0 21 -16.5 34t-51.5 21l-52 14q-54 13 -92.5 48t-38.5 90q0 72 60 114t156 42q148 0 196 -118l-120 -44q-9 26 -33 41t-54 15q-36 0 -55.5 -12t-19.5 -31q0 -15 15 -27.5t41 -19.5
l71 -18q61 -15 93.5 -52t32.5 -86q0 -53 -28.5 -93t-79 -61.5t-115.5 -21.5q-86 0 -142.5 39z" />
    <glyph glyph-name="uni0456" unicode="&#x456;" horiz-adv-x="271" 
d="M124 587q-25 25 -25 60t25 59.5t60 24.5t59.5 -24.5t24.5 -59.5t-24.5 -60t-59.5 -25t-60 25zM92 496h131l-87 -496h-131z" />
    <glyph glyph-name="uni0457" unicode="&#x457;" horiz-adv-x="259" 
d="M47.5 616.5q-20.5 20.5 -20.5 48.5q0 29 20.5 49t48.5 20q29 0 49 -20t20 -49q0 -28 -20 -48.5t-49 -20.5q-28 0 -48.5 20.5zM216 616.5q-21 20.5 -21 48.5q0 29 20.5 49t49.5 20t49 -20t20 -49q0 -28 -20.5 -48.5t-48.5 -20.5t-49 20.5zM92 496h131l-87 -496h-130z" />
    <glyph glyph-name="uni0458" unicode="&#x458;" horiz-adv-x="271" 
d="M125 585.5q-25 24.5 -25 59.5t25 59.5t60 24.5t59.5 -24.5t24.5 -59.5t-24.5 -59.5t-59.5 -24.5t-60 24.5zM-130 -217l22 122q18 -11 48 -11q26 0 38.5 13.5t18.5 42.5l96 546h131l-97 -550q-18 -99 -64 -135.5t-124 -36.5q-40 0 -69 9z" />
    <glyph glyph-name="uni0459" unicode="&#x459;" horiz-adv-x="907" 
d="M-22 0l21 115q15 -5 31 -5q31 0 49 31t31 107l44 248h443l-30 -171h108q75 0 125 -40t50 -105q0 -84 -56 -132t-155 -48h-254l67 379h-195l-26 -152q-23 -128 -72 -181.5t-122 -53.5q-37 0 -59 8zM650 103q33 0 56 16.5t23 48.5q0 25 -17 40t-44 15h-119l-21 -120h122z
" />
    <glyph glyph-name="uni045A" unicode="&#x45a;" horiz-adv-x="876" 
d="M80 496h131l-30 -171h197l30 171h131l-30 -171h134q75 0 125.5 -40t50.5 -107q0 -82 -56.5 -130t-155.5 -48h-287l40 223h-197l-40 -223h-131zM619 103q32 0 55 16.5t23 48.5q0 25 -17.5 40t-44.5 15h-144l-21 -120h149z" />
    <glyph glyph-name="uni045B" unicode="&#x45b;" horiz-adv-x="576" 
d="M91 565h-58l16 91h58l11 60h131l-11 -60h135l-16 -91h-135l-8 -43l-23 -90h8q26 38 67.5 59t93.5 21q76 0 117 -44t41 -111q0 -23 -5 -61l-53 -296h-131l51 285q3 14 3 32q0 32 -20.5 53t-56.5 21q-57 0 -92 -39.5t-48 -107.5l-43 -244h-131z" />
    <glyph glyph-name="uni045C" unicode="&#x45c;" horiz-adv-x="529" 
d="M86 496h130l-37 -212h8l196 212h157l-2 -8l-221 -233l144 -247l-2 -8h-147l-133 237h-8l-43 -237h-129zM333 730h154l-114 -136h-106z" />
    <glyph glyph-name="uni045D" unicode="&#x45d;" horiz-adv-x="574" 
d="M80 496h131l-36 -205l-25 -96h8l248 301h137l-89 -496h-130l36 205l25 96h-8l-249 -301h-135zM207 730h149l18 -136h-102z" />
    <glyph glyph-name="uni045E" unicode="&#x45e;" horiz-adv-x="565" 
d="M164 29l-124 467h147l73 -303h7l177 303h148l-436 -712h-143zM243.5 617q-34.5 32 -34.5 81q0 13 2 23h92q-1 -4 -1 -9q0 -16 10 -26.5t28 -10.5q19 0 33 13t18 33h92q-10 -66 -51 -101t-104 -35q-50 0 -84.5 32z" />
    <glyph glyph-name="uni045F" unicode="&#x45f;" horiz-adv-x="578" 
d="M167 0h-174l87 496h131l-67 -375h204l67 375h130l-87 -496h-174l-27 -152h-117z" />
    <glyph glyph-name="uni0490" unicode="&#x490;" horiz-adv-x="549" 
d="M131 716h320l21 123h134l-45 -251h-318l-104 -588h-134z" />
    <glyph glyph-name="uni0491" unicode="&#x491;" horiz-adv-x="441" 
d="M80 496h248l19 108h113l-39 -220h-230l-68 -384h-130z" />
    <glyph glyph-name="uni04AE" unicode="&#x4ae;" horiz-adv-x="641" 
d="M250 333l-173 383h155l102 -237h8l180 237h167l-305 -383l-59 -333h-134z" />
    <glyph glyph-name="uni04AF" unicode="&#x4af;" horiz-adv-x="546" 
d="M143 1l-115 496h141l67 -332l181 331h148l-291 -495l-39 -217h-131z" />
    <glyph glyph-name="uni04B0" unicode="&#x4b0;" horiz-adv-x="637" 
d="M236 263h-173l17 98h155l-160 355h159l100 -237h8l179 237h166l-283 -355h156l-17 -98h-173l-47 -263h-134z" />
    <glyph glyph-name="uni04B1" unicode="&#x4b1;" horiz-adv-x="545" 
d="M148 0h-141l16 90h105l-8 36l-86 370h142l66 -331l183 331h146l-218 -370l-21 -36h105l-16 -90h-142l-38 -216h-131z" />
    <glyph glyph-name="uni0E3F" unicode="&#xe3f;" horiz-adv-x="618" 
d="M200 0h-192l121 684h192l17 100h89l-17 -100q77 -4 128 -47t51 -117q0 -60 -35 -103t-86 -58l-1 -8q42 -17 67 -52.5t25 -83.5q0 -65 -35 -113.5t-95.5 -74.5t-135.5 -27h-4l-17 -100h-89zM272 406l28 159h-62l-28 -159h62zM431 431q27 23 27 64q0 34 -18.5 51.5
t-50.5 18.5l-28 -159q43 2 70 25zM221 120l31 174h-61l-31 -174h61zM316 120q49 1 81.5 27t32.5 69q0 37 -21.5 57.5t-63.5 20.5h-4l-30 -174h5z" />
    <glyph glyph-name="Wgrave" unicode="&#x1e80;" horiz-adv-x="983" 
d="M80 716h149l26 -402v-75h8l29 75l195 402h135l51 -402l3 -73h8l25 73l169 402h150l-308 -716h-145l-49 432l-2 77h-8l-30 -77l-202 -432h-139zM442 908h148l19 -136h-102z" />
    <glyph glyph-name="wgrave" unicode="&#x1e81;" horiz-adv-x="816" 
d="M30 496h141l32 -315h7l154 315h136l46 -315h7l135 315h146l-243 -496h-142l-44 316h-7l-155 -316h-140zM330 730h149l18 -136h-102z" />
    <glyph glyph-name="Wacute" unicode="&#x1e82;" horiz-adv-x="983" 
d="M80 716h149l26 -402v-75h8l29 75l195 402h135l51 -402l3 -73h8l25 73l169 402h150l-308 -716h-145l-49 432l-2 77h-8l-30 -77l-202 -432h-139zM574 908h154l-114 -136h-106z" />
    <glyph glyph-name="wacute" unicode="&#x1e83;" horiz-adv-x="816" 
d="M30 496h141l32 -315h7l154 315h136l46 -315h7l135 315h146l-243 -496h-142l-44 316h-7l-155 -316h-140zM457 730h154l-114 -136h-106z" />
    <glyph glyph-name="Wdieresis" unicode="&#x1e84;" horiz-adv-x="983" 
d="M80 716h149l26 -402v-75h8l29 75l195 402h135l51 -402l3 -73h8l25 73l169 402h150l-308 -716h-145l-49 432l-2 77h-8l-30 -77l-202 -432h-139zM427 792.5q-21 21.5 -21 50.5q0 30 21 51t51 21t50.5 -21t20.5 -51t-20.5 -51t-50.5 -21t-51 21.5zM618 792.5
q-21 21.5 -21 50.5q0 30 21 51t50 21q31 0 51.5 -21t20.5 -51t-21 -51t-51 -21q-29 0 -50 21.5z" />
    <glyph glyph-name="wdieresis" unicode="&#x1e85;" horiz-adv-x="816" 
d="M30 496h141l32 -315h7l154 315h136l46 -315h7l135 315h146l-243 -496h-142l-44 316h-7l-155 -316h-140zM311 614.5q-21 21.5 -21 50.5q0 31 21 51.5t51 20.5t50.5 -20.5t20.5 -51.5q0 -30 -20.5 -51t-50.5 -21t-51 21.5zM502 614.5q-21 21.5 -21 50.5q0 31 21 51.5
t51 20.5t50.5 -20.5t20.5 -51.5q0 -30 -20.5 -51t-50.5 -21t-51 21.5z" />
    <glyph glyph-name="Ygrave" unicode="&#x1ef2;" horiz-adv-x="641" 
d="M250 333l-173 383h155l102 -237h8l180 237h167l-305 -383l-59 -333h-134zM260 908h148l19 -136h-102z" />
    <glyph glyph-name="ygrave" unicode="&#x1ef3;" horiz-adv-x="565" 
d="M164 29l-124 467h147l73 -303h7l177 303h148l-436 -712h-143zM212 730h149l18 -136h-102z" />
    <glyph glyph-name="uni2000" unicode="&#x2000;" horiz-adv-x="415" 
d="M0 0z" />
    <glyph glyph-name="uni2001" unicode="&#x2001;" horiz-adv-x="830" 
d="M0 0z" />
    <glyph glyph-name="uni2002" unicode="&#x2002;" horiz-adv-x="415" 
d="M0 0z" />
    <glyph glyph-name="uni2003" unicode="&#x2003;" horiz-adv-x="830" 
d="M0 0z" />
    <glyph glyph-name="uni2004" unicode="&#x2004;" horiz-adv-x="275" 
d="M0 0z" />
    <glyph glyph-name="uni2005" unicode="&#x2005;" horiz-adv-x="207" 
d="M0 0z" />
    <glyph glyph-name="uni2006" unicode="&#x2006;" horiz-adv-x="138" 
d="M0 0z" />
    <glyph glyph-name="uni2007" unicode="&#x2007;" 
d="M0 0z" />
    <glyph glyph-name="uni2008" unicode="&#x2008;" horiz-adv-x="232" 
d="M0 0z" />
    <glyph glyph-name="uni2009" unicode="&#x2009;" horiz-adv-x="138" 
d="M0 0z" />
    <glyph glyph-name="uni200A" unicode="&#x200a;" horiz-adv-x="70" 
d="M0 0z" />
    <glyph glyph-name="endash" unicode="&#x2013;" horiz-adv-x="611" 
d="M556 368l-20 -116h-499l21 116h498z" />
    <glyph glyph-name="emdash" unicode="&#x2014;" horiz-adv-x="917" 
d="M863 368l-20 -116h-806l21 116h805z" />
    <glyph glyph-name="uni2015" unicode="&#x2015;" horiz-adv-x="1056" 
d="M1004 368l-20 -116h-944l20 116h944z" />
    <glyph glyph-name="quoteleft" unicode="&#x2018;" horiz-adv-x="269" 
d="M198 612q22 -10 36 -30.5t14 -48.5q0 -36 -25.5 -61t-60.5 -25q-36 0 -61.5 25t-25.5 61q0 34 32 74l104 125l53 -43z" />
    <glyph glyph-name="quoteright" unicode="&#x2019;" horiz-adv-x="269" 
d="M149 566q-24 8 -39 29.5t-15 49.5q0 36 25.5 61.5t61.5 25.5t61.5 -25t25.5 -62q0 -33 -32 -73l-105 -125l-53 43z" />
    <glyph glyph-name="quotesinglbase" unicode="&#x201a;" horiz-adv-x="269" 
d="M56 0q-21 9 -35.5 30t-14.5 48q0 36 25.5 61.5t61.5 25.5t61.5 -25t25.5 -62q0 -33 -32 -73l-105 -125l-53 43z" />
    <glyph glyph-name="quotedblleft" unicode="&#x201c;" horiz-adv-x="488" 
d="M198 612q22 -10 36 -30.5t14 -48.5q0 -36 -25.5 -61t-60.5 -25q-36 0 -61.5 25t-25.5 61q0 34 32 74l104 125l53 -43zM417 612q22 -10 36 -30.5t14 -48.5q0 -36 -25.5 -61t-60.5 -25q-36 0 -61.5 25t-25.5 61q0 34 32 74l104 125l53 -43z" />
    <glyph glyph-name="quotedblright" unicode="&#x201d;" horiz-adv-x="488" 
d="M149 567q-21 9 -35.5 30t-14.5 48q0 36 25.5 61.5t61.5 25.5t61.5 -25t25.5 -62q0 -33 -32 -73l-105 -125l-53 43zM368 567q-21 9 -35.5 30t-14.5 48q0 36 25.5 61.5t61.5 25.5t61.5 -25t25.5 -62q0 -33 -32 -73l-105 -125l-53 43z" />
    <glyph glyph-name="quotedblbase" unicode="&#x201e;" horiz-adv-x="479" 
d="M56 0q-21 9 -35.5 30t-14.5 48q0 36 25.5 61.5t61.5 25.5t61.5 -25t25.5 -62q0 -33 -32 -73l-105 -125l-53 43zM265 0q-21 9 -35.5 30t-14.5 48q0 36 25.5 61.5t61.5 25.5t61.5 -25t25.5 -62q0 -33 -32 -73l-105 -125l-53 43z" />
    <glyph glyph-name="dagger" unicode="&#x2020;" horiz-adv-x="463" 
d="M213 585l23 131h116l-23 -131h141l-18 -106h-142l-57 -321h-116l57 321h-141l18 106h142z" />
    <glyph glyph-name="daggerdbl" unicode="&#x2021;" horiz-adv-x="463" 
d="M213 585l23 131h116l-23 -131h141l-18 -106h-142l-40 -226h142l-19 -106h-142l-26 -147h-116l26 147h-140l18 106h141l40 226h-141l18 106h142z" />
    <glyph glyph-name="bullet" unicode="&#x2022;" horiz-adv-x="421" 
d="M139.5 210.5q-30.5 17.5 -48 48t-17.5 65.5t17.5 65.5t48 48t65.5 17.5t65 -17.5t47.5 -48t17.5 -65.5t-17.5 -65.5t-47.5 -48t-65 -17.5t-65.5 17.5z" />
    <glyph glyph-name="ellipsis" unicode="&#x2026;" horiz-adv-x="752" 
d="M24.5 19.5q-25.5 25.5 -25.5 61.5t25.5 61t61.5 25t61.5 -25t25.5 -61t-25.5 -61.5t-61.5 -25.5t-61.5 25.5zM265.5 19.5q-25.5 25.5 -25.5 61.5t25.5 61t61.5 25t61.5 -25t25.5 -61t-25.5 -61.5t-61.5 -25.5t-61.5 25.5zM507.5 19.5q-25.5 25.5 -25.5 61.5t25.5 61
t61.5 25t61.5 -25t25.5 -61t-25.5 -61.5t-61.5 -25.5t-61.5 25.5z" />
    <glyph glyph-name="perthousand" unicode="&#x2030;" horiz-adv-x="1093" 
d="M105 39l561 662l67 -58l-561 -662zM105 400.5q-45 42.5 -45 107.5q0 51 25.5 95t71.5 70.5t105 26.5q68 0 112 -42.5t44 -108.5q0 -53 -26 -96.5t-71.5 -69t-99.5 -25.5q-71 0 -116 42.5zM286.5 480.5q22.5 24.5 22.5 59.5q0 27 -16.5 44.5t-41.5 17.5q-36 0 -59 -23.5
t-23 -59.5q0 -28 17.5 -45.5t43.5 -17.5q34 0 56.5 24.5zM465 26.5q-45 42.5 -45 107.5q0 51 25.5 95t71.5 70.5t105 26.5q38 0 68 -16.5t47 -45.5q20 27 57.5 44.5t78.5 17.5q68 0 112 -42.5t44 -108.5q0 -53 -26 -96.5t-71.5 -69t-99.5 -25.5q-38 0 -70.5 17t-50.5 46
q-20 -27 -55 -45t-75 -18q-71 0 -116 42.5zM646.5 106.5q22.5 24.5 22.5 59.5q0 27 -16.5 44.5t-41.5 17.5q-36 0 -59 -23.5t-23 -59.5q0 -28 17.5 -45.5t43.5 -17.5q34 0 56.5 24.5zM897 106.5q23 24.5 23 59.5q0 28 -16.5 45t-42.5 17q-36 0 -58.5 -23.5t-22.5 -59.5
q0 -28 17.5 -45.5t42.5 -17.5q34 0 57 24.5z" />
    <glyph glyph-name="uni2031" unicode="&#x2031;" horiz-adv-x="1346" 
d="M105 39l561 662l67 -58l-561 -662zM105 400.5q-45 42.5 -45 107.5q0 51 25.5 95t71.5 70.5t105 26.5q68 0 112 -42.5t44 -108.5q0 -53 -26 -96.5t-71.5 -69t-99.5 -25.5q-71 0 -116 42.5zM286.5 480.5q22.5 24.5 22.5 59.5q0 27 -16.5 44.5t-41.5 17.5q-36 0 -59 -23.5
t-23 -59.5q0 -28 17.5 -45.5t43.5 -17.5q34 0 56.5 24.5zM465 26.5q-45 42.5 -45 107.5q0 51 25.5 95t71.5 70.5t105 26.5q38 0 68 -16.5t47 -45.5q20 27 57.5 44.5t78.5 17.5q38 0 67.5 -16.5t47.5 -45.5q19 27 57 44.5t79 17.5q68 0 112 -42.5t44 -108.5
q0 -53 -26.5 -96.5t-71.5 -69t-99 -25.5q-38 0 -71 17t-50 46q-20 -27 -55 -45t-75 -18q-38 0 -70.5 17t-50.5 46q-20 -27 -55 -45t-75 -18q-71 0 -116 42.5zM646.5 106.5q22.5 24.5 22.5 59.5q0 27 -16.5 44.5t-41.5 17.5q-36 0 -59 -23.5t-23 -59.5q0 -28 17.5 -45.5
t43.5 -17.5q34 0 56.5 24.5zM897 106.5q23 24.5 23 59.5q0 28 -16.5 45t-42.5 17q-36 0 -58.5 -23.5t-22.5 -59.5q0 -28 17.5 -45.5t42.5 -17.5q34 0 57 24.5zM1148 106.5q23 24.5 23 59.5q0 27 -17 44.5t-42 17.5q-36 0 -59 -23.5t-23 -59.5q0 -28 17.5 -45.5t43.5 -17.5
q34 0 57 24.5z" />
    <glyph glyph-name="guilsinglleft" unicode="&#x2039;" horiz-adv-x="387" 
d="M194 41l-171 230l252 230l67 -74l-181 -163l117 -157z" />
    <glyph glyph-name="guilsinglright" unicode="&#x203a;" horiz-adv-x="387" 
d="M159 501l172 -230l-253 -230l-66 74l180 163l-116 157z" />
    <glyph glyph-name="exclamdbl" unicode="&#x203c;" horiz-adv-x="501" 
d="M94 510l36 206h135l-36 -206l-60 -264h-109zM25 19.5q-25 25.5 -25 61.5t25 61t61 25t61.5 -25t25.5 -61t-25.5 -61.5t-61.5 -25.5t-61 25.5zM326 510l36 206h135l-36 -206l-60 -264h-109zM257 19.5q-25 25.5 -25 61.5t25 61t61 25t61.5 -25t25.5 -61t-25.5 -61.5
t-61.5 -25.5t-61 25.5z" />
    <glyph glyph-name="uni2042" unicode="&#x2042;" horiz-adv-x="914" 
d="M325 429l83 91l-2 9l-92 35l40 89l96 -37l8 4l19 107h94l-19 -107l7 -4l97 35l28 -86l-112 -42l-5 -9l49 -87l-82 -52l-52 92h-9l-79 -93zM20 27l83 91l-2 9l-92 35l40 89l96 -37l9 4l19 107h93l-19 -107l7 -4l97 35l29 -86l-113 -42l-5 -9l50 -87l-82 -52l-53 92h-8
l-80 -93zM486 27l82 91l-1 9l-92 35l39 89l97 -37l8 4l19 107h93l-19 -107l7 -4l97 35l29 -86l-113 -42l-5 -9l50 -87l-82 -52l-52 92h-9l-80 -93z" />
    <glyph glyph-name="uni2043" unicode="&#x2043;" horiz-adv-x="416" 
d="M346 372l-22 -124h-272l22 124h272z" />
    <glyph glyph-name="fraction" unicode="&#x2044;" horiz-adv-x="192" 
d="M355 731l70 -54l-587 -693l-71 55z" />
    <glyph glyph-name="uni2047" unicode="&#x2047;" horiz-adv-x="981" 
d="M173 279q10 52 33.5 86t86.5 77q35 24 55 47t20 51q0 31 -22 50t-59 19q-40 0 -67.5 -23t-40.5 -59l-106 48q22 66 83 111.5t147 45.5q57 0 102 -22t70 -61t25 -88q0 -55 -30.5 -97t-89.5 -89q-40 -33 -56 -54.5t-23 -57.5l-3 -17h-131zM140.5 19.5
q-25.5 25.5 -25.5 61.5t25.5 61t61.5 25t61 -25t25 -61t-25 -61.5t-61 -25.5t-61.5 25.5zM640 279q10 52 33.5 86t86.5 77q35 24 55 47t20 51q0 31 -22 50t-59 19q-40 0 -67.5 -23t-40.5 -59l-106 48q22 66 83 111.5t147 45.5q57 0 102 -22t70 -61t25 -88q0 -55 -30.5 -97
t-89.5 -89q-40 -33 -56 -54.5t-23 -57.5l-3 -17h-131zM607.5 19.5q-25.5 25.5 -25.5 61.5t25.5 61t61.5 25t61 -25t25 -61t-25 -61.5t-61 -25.5t-61.5 25.5z" />
    <glyph glyph-name="uni2048" unicode="&#x2048;" horiz-adv-x="748" 
d="M173 279q10 52 33.5 86t86.5 77q35 24 55 47t20 51q0 31 -22 50t-59 19q-40 0 -67.5 -23t-40.5 -59l-106 48q22 66 83 111.5t147 45.5q57 0 102 -22t70 -61t25 -88q0 -55 -30.5 -97t-89.5 -89q-40 -33 -56 -54.5t-23 -57.5l-3 -17h-131zM140.5 19.5
q-25.5 25.5 -25.5 61.5t25.5 61t61.5 25t61 -25t25 -61t-25 -61.5t-61 -25.5t-61.5 25.5zM572 510l36 206h135l-36 -206l-60 -264h-109zM503 19.5q-25 25.5 -25 61.5t25 61t61 25t61.5 -25t25.5 -61t-25.5 -61.5t-61.5 -25.5t-61 25.5z" />
    <glyph glyph-name="uni2049" unicode="&#x2049;" horiz-adv-x="746" 
d="M406 279q10 52 33.5 86t86.5 77q35 24 55 47t20 51q0 31 -22 50t-59 19q-40 0 -67.5 -23t-40.5 -59l-106 48q22 66 83 111.5t147 45.5q57 0 102 -22t70 -61t25 -88q0 -55 -30.5 -97t-89.5 -89q-40 -33 -56 -54.5t-23 -57.5l-3 -17h-131zM373.5 19.5
q-25.5 25.5 -25.5 61.5t25.5 61t61.5 25t61 -25t25 -61t-25 -61.5t-61 -25.5t-61.5 25.5zM94 510l36 206h135l-36 -206l-60 -264h-109zM25 19.5q-25 25.5 -25 61.5t25 61t61 25t61.5 -25t25.5 -61t-25.5 -61.5t-61.5 -25.5t-61 25.5z" />
    <glyph glyph-name="uni204E" unicode="&#x204e;" horiz-adv-x="428" 
d="M11 41l90 99l-2 9l-94 36l35 88l102 -39l9 3l20 114h95l-21 -114l8 -3l104 35l26 -86l-116 -43l-5 -9l56 -97l-85 -52l-56 100h-8l-88 -100z" />
    <glyph glyph-name="uni2051" unicode="&#x2051;" horiz-adv-x="448" 
d="M91 429l82 91l-1 9l-92 35l39 89l97 -37l8 4l19 107h93l-19 -107l7 -4l97 35l29 -86l-113 -42l-5 -9l50 -87l-82 -52l-52 92h-9l-80 -93zM20 31l83 91l-2 9l-92 35l40 89l96 -37l9 4l19 107h93l-19 -107l7 -4l97 35l29 -86l-113 -42l-5 -9l50 -87l-82 -52l-53 92h-8
l-80 -93z" />
    <glyph glyph-name="uni2055" unicode="&#x2055;" horiz-adv-x="685" 
d="M291 202l-115 -115l-72 72l115 115h-163v102h163l-115 115l72 72l115 -115v163h103v-163l114 115l73 -72l-116 -115h164v-102h-164l116 -115l-73 -72l-114 115v-163h-103v163z" />
    <glyph glyph-name="uni2074" unicode="&#x2074;" horiz-adv-x="362" 
d="M209 415h-172l11 64l213 237h88l-41 -227h48l-13 -74h-48l-11 -65h-86zM222 489l19 104h-8l-91 -104h80z" />
    <glyph glyph-name="franc" unicode="&#x20a3;" horiz-adv-x="570" 
d="M49 114h-68l14 76h68l87 494h441l-21 -116h-318l-30 -176h286l-21 -116h-286l-15 -86h128l-14 -76h-128l-20 -114h-123z" />
    <glyph glyph-name="lira" unicode="&#x20a4;" horiz-adv-x="548" 
d="M-3 106q78 30 106 83h-101l13 76h104v3q-1 32 -9 58h-84l13 76h48q-9 33 -9 79q0 57 30.5 107.5t85.5 81t126 30.5q85 0 133 -43t64 -105l-123 -47q-7 35 -28 57t-60 22q-46 0 -75 -30.5t-29 -77.5q0 -33 9 -74h156l-13 -76h-121q6 -34 6 -55l-1 -6h105l-13 -76h-110
q-20 -37 -58 -66l3 -7h150q55 0 83 59l93 -44q-28 -67 -72 -99t-119 -32h-321z" />
    <glyph glyph-name="uni20A9" unicode="&#x20a9;" horiz-adv-x="1002" 
d="M128 326h-102l13 76h82l-25 282h142l20 -282h93l136 282h139l40 -282h92l119 282h145l-122 -282h72l-13 -76h-92l-140 -326h-139l-40 326h-101l-156 -326h-134zM539 402l-6 108h-8l-42 -108h56zM274 224l42 102h-54l4 -102h8zM688 225l39 101h-53l7 -101h7z" />
    <glyph glyph-name="dong" unicode="&#x20ab;" horiz-adv-x="587" 
d="M106 10q-46 26 -73.5 76t-27.5 118q0 77 33.5 142.5t94.5 104.5t140 39q52 0 89.5 -22t56.5 -53h8l3 70l9 54h-140l13 74h140l13 71h130l-13 -71h60l-13 -74h-60l-95 -539h-122l10 59h-8q-24 -33 -62.5 -54t-86.5 -21q-53 0 -99 26zM327 126.5q33 21.5 51 56.5t18 74
q0 51 -32 81.5t-80 30.5q-42 0 -75.5 -20.5t-52.5 -55.5t-19 -75q0 -53 34 -83t81 -30q42 0 75 21.5zM-16 -84h476l-17 -96h-475z" />
    <glyph glyph-name="Euro" unicode="&#x20ac;" horiz-adv-x="653" 
d="M205 46q-80 62 -103 169h-102l16 94h78q1 29 8 66h-74l16 94h87q48 104 145.5 167.5t228.5 63.5q92 0 160 -49l-71 -106q-46 31 -108 31q-66 0 -119 -28.5t-88 -78.5h209l-16 -94h-238q-8 -34 -8 -66h234l-16 -94h-200q21 -52 65 -79.5t99 -27.5q39 0 66.5 8.5t57.5 25.5
l49 -107q-81 -51 -186 -51q-110 0 -190 62z" />
    <glyph glyph-name="uni20AE" unicode="&#x20ae;" horiz-adv-x="557" 
d="M171 100l-125 -70h-7l20 109l132 75l10 56l-132 -75l20 114l132 75l32 184h-193l21 116h509l-21 -116h-193l-20 -113l125 71h7l-19 -110l-133 -75l-9 -56l132 76l-20 -114l-133 -75l-30 -172h-123z" />
    <glyph glyph-name="uni20B1" unicode="&#x20b1;" horiz-adv-x="659" 
d="M113 434h-76l14 76h75l31 174h233q91 0 149.5 -47t66.5 -127h63l-14 -76h-55q-18 -83 -88.5 -129t-167.5 -46h-139l-46 -259h-123zM481 510q-8 27 -30.5 42.5t-58.5 15.5h-133l-11 -58h233zM361 375q37 0 67.5 15.5t45.5 43.5h-239l-10 -59h136z" />
    <glyph glyph-name="uni20B8" unicode="&#x20b8;" horiz-adv-x="557" 
d="M81 684h509l-20 -112h-509zM224 400h-193l20 112h509l-20 -112h-193l-71 -400h-123z" />
    <glyph glyph-name="uni20B9" unicode="&#x20b9;" horiz-adv-x="581" 
d="M88 259l21 117h163q43 0 72 15t42 45h-349l14 76h343q-9 27 -31.5 43.5t-57.5 16.5h-244l20 112h533l-13 -76h-122q35 -44 39 -96h66l-14 -76h-57q-18 -82 -83.5 -126.5t-153.5 -47.5h-9l-2 -8l197 -246l-1 -8h-164z" />
    <glyph glyph-name="uni20BA" unicode="&#x20ba;" horiz-adv-x="550" 
d="M106 164l-129 -73l20 114l129 73l13 76l-129 -73l20 114l130 73l38 216h122l-25 -145l135 77l-20 -114l-135 -77l-13 -76l135 78l-20 -114l-136 -78l-22 -123q66 6 113 47t57 102h119q-14 -77 -57 -136.5t-110 -92t-149 -32.5h-115z" />
    <glyph glyph-name="uni20BD" unicode="&#x20bd;" horiz-adv-x="609" 
d="M56 114h-75l14 76h75l12 69h-76l20 112h76l55 313h234q98 0 157 -52.5t59 -142.5q0 -71 -34 -123t-94 -79.5t-135 -27.5h-139l-12 -69h131l-14 -76h-131l-20 -114h-123zM361 375q53 0 89 28t36 78q0 39 -25.5 63t-70.5 24h-131l-34 -193h136z" />
    <glyph glyph-name="uni2103" unicode="&#x2103;" horiz-adv-x="969" 
d="M91 474q-35 32 -35 82q0 63 41.5 103.5t104.5 40.5q49 0 84 -32t35 -82q0 -63 -41.5 -103.5t-104.5 -40.5q-49 0 -84 32zM439.5 25q-70.5 41 -109 111.5t-38.5 156.5q0 108 52.5 201.5t147 149.5t213.5 56q159 0 245 -115l-103 -86q-30 39 -66.5 58t-94.5 19
q-73 0 -133 -36t-94 -98t-34 -137q0 -91 52 -144t140 -53q61 0 105 21t88 67l79 -92q-60 -63 -129.5 -91.5t-157.5 -28.5q-92 0 -162.5 41zM223.5 536q16.5 17 16.5 41q0 20 -12.5 33t-32.5 13q-24 0 -41 -16.5t-17 -41.5q0 -21 13 -33.5t33 -12.5q24 0 40.5 17z" />
    <glyph glyph-name="uni2109" unicode="&#x2109;" horiz-adv-x="833" 
d="M102 474q-35 32 -35 82q0 63 41.5 103.5t104.5 40.5q49 0 84 -32t35 -82q0 -63 -41.5 -103.5t-104.5 -40.5q-49 0 -84 32zM423 684h435l-22 -124h-305l-28 -164h274l-22 -124h-274l-49 -272h-130zM234.5 536q16.5 17 16.5 41q0 20 -12.5 33t-32.5 13q-24 0 -41 -16.5
t-17 -41.5q0 -21 13 -33.5t33 -12.5q24 0 40.5 17z" />
    <glyph glyph-name="uni2113" unicode="&#x2113;" horiz-adv-x="455" 
d="M109.5 28.5q-42.5 36.5 -42.5 104.5q0 9 5 46l16 89h-88l18 107h89l32 183q14 80 62 127t121 47q64 0 101 -41t37 -115q0 -73 -32.5 -137t-89 -107t-125.5 -57l-17 -94q-2 -12 -2 -21q0 -25 14 -38t39 -13q23 0 50 15l30 -108q-49 -24 -108 -24q-67 0 -109.5 36.5z
M312.5 462q28.5 51 28.5 111q0 52 -31 52q-17 0 -28.5 -15t-16.5 -43l-32 -178q51 22 79.5 73z" />
    <glyph glyph-name="uni2114" unicode="&#x2114;" horiz-adv-x="847" 
d="M442.5 5q-39.5 21 -60.5 54h-8l-10 -59h-122l100 572h-85l-101 -572h-130l100 572h-64l13 72h64l13 72h130l-13 -72h85l13 72h131l-13 -72h131l-12 -72h-132l-13 -71l-20 -70h8q23 32 62.5 53.5t93.5 21.5q56 0 102 -28t73 -79.5t27 -120.5q0 -81 -37 -148.5t-99 -106.5
t-136 -39q-51 0 -90.5 21zM597 126.5q35 21.5 55.5 57.5t20.5 79q0 55 -31 88.5t-84 33.5q-46 0 -81 -22.5t-54 -59.5t-19 -80q0 -55 33.5 -86.5t83.5 -31.5q41 0 76 21.5z" />
    <glyph glyph-name="uni2116" unicode="&#x2116;" horiz-adv-x="1093" 
d="M790.5 432.5q-43.5 42.5 -43.5 110.5q0 50 23.5 93.5t68 69.5t104.5 26q67 0 110.5 -42t43.5 -108q0 -56 -26.5 -100t-72 -68t-99.5 -24q-65 0 -108.5 42.5zM135 716h150l210 -480h8l17 138l60 342h134l-127 -716h-134l-222 507h-8l-16 -138l-66 -369h-133zM977.5 503
q25.5 27 25.5 69q0 33 -19 53.5t-48 20.5q-42 0 -68 -29t-26 -68q0 -34 19.5 -53.5t50.5 -19.5q40 0 65.5 27zM741 323h280l-15 -85h-280z" />
    <glyph glyph-name="uni2117" unicode="&#x2117;" horiz-adv-x="532" 
d="M151 303q-53 31 -84 84t-31 115t31 115t84 84t115 31t115 -31t84 -84t31 -115t-31 -115t-84 -84t-115 -31t-115 31zM357.5 344.5q41.5 24.5 66 66.5t24.5 91q0 50 -24.5 91.5t-66 66t-91.5 24.5q-49 0 -91 -24.5t-66.5 -66t-24.5 -91.5q0 -49 25 -90.5t66.5 -66.5
t90.5 -25q50 0 91.5 24.5zM197 615h96q29 0 51 -21t22 -51t-22 -51t-51 -21h-50v-82h-46v226zM289 515q13 0 22 8t9 20q0 11 -8.5 19.5t-21.5 8.5h-47v-56h46z" />
    <glyph glyph-name="prescription" unicode="&#x211e;" horiz-adv-x="726" 
d="M168 -152l197 225l-100 196h-74l-48 -269h-135l127 716h249q65 0 114 -25t75.5 -69.5t26.5 -100.5q0 -61 -27.5 -109.5t-73.5 -80t-100 -42.5l-2 -7l57 -109l101 117h139l-2 -8l-186 -211l115 -223l-1 -8h-135l-66 130l-110 -130h-143zM338 396q53 0 88.5 29.5t35.5 78.5
q0 38 -23.5 61t-66.5 23h-125l-34 -192h125z" />
    <glyph glyph-name="uni2120" unicode="&#x2120;" horiz-adv-x="498" 
d="M165 600q21 -16 21 -47q0 -33 -26 -50t-56 -17q-29 0 -54 16t-34 44l41 18q5 -15 19 -25.5t28 -10.5t25 7t11 18q0 12 -12 20t-40 16q-29 7 -46.5 24t-17.5 42q0 29 23.5 47t56.5 18q25 0 47.5 -14.5t30.5 -37.5l-40 -16q-2 8 -13 17t-25 9q-15 0 -24.5 -6.5t-9.5 -16.5
q0 -16 39 -28q35 -11 56 -27zM430 608l2 44h-2l-66 -162h-32l-66 162h-2l2 -44v-118h-44v226h62l63 -162h2l63 162h62v-226h-44v118z" />
    <glyph glyph-name="trademark" unicode="&#x2122;" horiz-adv-x="501" 
d="M77 674h-69v42h181v-42h-66v-184h-46v184zM433 608l2 44h-2l-66 -162h-32l-66 162h-2l2 -44v-118h-44v226h62l63 -162h2l63 162h62v-226h-44v118z" />
    <glyph glyph-name="uni2126" unicode="&#x2126;" horiz-adv-x="811" 
d="M15 117h142l1 8q-46 40 -78.5 99t-32.5 139q0 98 51 182.5t143.5 135.5t211.5 51q96 0 168.5 -38t112 -104t39.5 -149q0 -199 -201 -316l-1 -8h135l-21 -117h-299l29 164q62 16 111.5 52.5t78.5 88t29 111.5q0 57 -25 99.5t-70 65.5t-101 23q-74 0 -132.5 -33t-91 -87.5
t-32.5 -118.5q0 -76 39.5 -128t101.5 -73l-29 -164h-298z" />
    <glyph glyph-name="estimated" unicode="&#x212e;" horiz-adv-x="784" 
d="M218.5 33q-82.5 49 -128.5 134.5t-46 190.5q0 100 44.5 185.5t124 137t179.5 51.5q104 0 182.5 -46.5t122 -131t43.5 -196.5q0 -14 -1 -22h-551v-185q37 -52 95.5 -77.5t123.5 -25.5q81 0 144 37t98 119l68 -28q-34 -82 -115.5 -137t-195.5 -55q-105 0 -187.5 49z
M508.5 648.5q-53.5 19.5 -116.5 19.5q-61 0 -114 -23t-90 -68v-181h408v194q-34 39 -87.5 58.5z" />
    <glyph glyph-name="uni2153" unicode="&#x2153;" horiz-adv-x="844" 
d="M190 601l-54 -38l-41 65l123 88h81l-65 -366h-89zM665 731l70 -54l-587 -693l-71 55zM502.5 18.5q-36.5 26.5 -45.5 74.5l78 28q14 -52 60 -52q22 0 39 13t17 34q0 19 -14.5 29t-39.5 10h-35l13 70h34q24 0 40.5 10.5t16.5 29.5q0 14 -11.5 23t-26.5 9q-21 0 -34.5 -10.5
t-20.5 -25.5l-73 32q18 37 54 59t87 22q50 0 82.5 -26.5t32.5 -66.5q0 -30 -16.5 -52t-44.5 -36q21 -11 33 -30t12 -43q0 -56 -43 -92t-109 -36q-49 0 -85.5 26.5z" />
    <glyph glyph-name="uni2154" unicode="&#x2154;" horiz-adv-x="892" 
d="M67 413l150 129q22 17 36 33t14 34q0 16 -11 26t-29 10q-40 0 -53 -48l-76 29q13 46 51.5 72t91.5 26q55 0 87 -28.5t32 -72.5q0 -35 -17.5 -59.5t-58.5 -60.5l-87 -74h134l-15 -79h-261zM714 731l70 -54l-587 -693l-71 55zM542.5 18.5q-36.5 26.5 -45.5 74.5l78 28
q14 -52 60 -52q22 0 39 13t17 34q0 19 -14.5 29t-39.5 10h-35l13 70h34q24 0 40.5 10.5t16.5 29.5q0 14 -11.5 23t-26.5 9q-21 0 -34.5 -10.5t-20.5 -25.5l-73 32q18 37 54 59t87 22q50 0 82.5 -26.5t32.5 -66.5q0 -30 -16.5 -52t-44.5 -36q21 -11 33 -30t12 -43
q0 -56 -43 -92t-109 -36q-49 0 -85.5 26.5z" />
    <glyph glyph-name="oneeighth" unicode="&#x215b;" horiz-adv-x="833" 
d="M190 601l-54 -38l-41 65l123 88h81l-65 -366h-89zM661 731l70 -54l-587 -693l-71 55zM484.5 20.5q-35.5 28.5 -35.5 74.5q0 32 20.5 59.5t53.5 41.5q-14 10 -23.5 26t-9.5 36q0 32 18 58.5t50.5 42t72.5 15.5q48 0 81 -26.5t33 -67.5q0 -57 -57 -88q18 -12 29 -31.5
t11 -44.5q0 -55 -43 -89.5t-110 -34.5q-55 0 -90.5 28.5zM644 236.5q13 11.5 13 30.5q0 14 -10.5 23t-25.5 9q-18 0 -31.5 -11t-13.5 -30q0 -15 10 -24t26 -9q19 0 32 11.5zM624.5 80q16.5 13 16.5 37q0 18 -13 29t-33 11q-23 0 -39.5 -14.5t-16.5 -37.5q0 -17 13 -27.5
t32 -10.5q24 0 40.5 13z" />
    <glyph glyph-name="threeeighths" unicode="&#x215c;" horiz-adv-x="857" 
d="M111.5 368.5q-36.5 26.5 -45.5 74.5l78 28q14 -52 60 -52q22 0 39 13t17 34q0 19 -14.5 29t-39.5 10h-35l13 70h34q24 0 40.5 10.5t16.5 29.5q0 14 -11.5 23t-26.5 9q-21 0 -34.5 -10.5t-20.5 -25.5l-73 32q18 37 54 59t87 22q50 0 82.5 -26.5t32.5 -66.5
q0 -30 -16.5 -52t-44.5 -36q21 -11 33 -30t12 -43q0 -56 -43 -92t-109 -36q-49 0 -85.5 26.5zM694 731l70 -54l-587 -693l-71 55zM513.5 20.5q-35.5 28.5 -35.5 74.5q0 32 20.5 59.5t53.5 41.5q-14 10 -23.5 26t-9.5 36q0 32 18 58.5t50.5 42t72.5 15.5q48 0 81 -26.5
t33 -67.5q0 -57 -57 -88q18 -12 29 -31.5t11 -44.5q0 -55 -43 -89.5t-110 -34.5q-55 0 -90.5 28.5zM673 236.5q13 11.5 13 30.5q0 14 -10.5 23t-25.5 9q-18 0 -31.5 -11t-13.5 -30q0 -15 10 -24t26 -9q19 0 32 11.5zM653.5 80q16.5 13 16.5 37q0 18 -13 29t-33 11
q-23 0 -39.5 -14.5t-16.5 -37.5q0 -17 13 -27.5t32 -10.5q24 0 40.5 13z" />
    <glyph glyph-name="fiveeighths" unicode="&#x215d;" horiz-adv-x="868" 
d="M111.5 366q-33.5 23 -45.5 68l78 29q5 -20 19.5 -31.5t36.5 -11.5q24 0 41.5 16.5t17.5 42.5q0 21 -12.5 33t-31.5 12q-33 0 -55 -29l-67 32l56 189h219l-12 -72h-154l-22 -66q25 17 60 17q46 0 76.5 -28t30.5 -80q0 -41 -20.5 -74t-56 -51.5t-76.5 -18.5q-49 0 -82.5 23
zM691 731l70 -54l-587 -693l-71 55zM513.5 20.5q-35.5 28.5 -35.5 74.5q0 32 20.5 59.5t53.5 41.5q-14 10 -23.5 26t-9.5 36q0 32 18 58.5t50.5 42t72.5 15.5q48 0 81 -26.5t33 -67.5q0 -57 -57 -88q18 -12 29 -31.5t11 -44.5q0 -55 -43 -89.5t-110 -34.5q-55 0 -90.5 28.5z
M673 236.5q13 11.5 13 30.5q0 14 -10.5 23t-25.5 9q-18 0 -31.5 -11t-13.5 -30q0 -15 10 -24t26 -9q19 0 32 11.5zM653.5 80q16.5 13 16.5 37q0 18 -13 29t-33 11q-23 0 -39.5 -14.5t-16.5 -37.5q0 -17 13 -27.5t32 -10.5q24 0 40.5 13z" />
    <glyph glyph-name="seveneighths" unicode="&#x215e;" horiz-adv-x="788" 
d="M257 635h-156l14 81h261l-13 -77l-225 -304l-67 48zM601 731l70 -54l-587 -693l-71 55zM439.5 20.5q-35.5 28.5 -35.5 74.5q0 32 20.5 59.5t53.5 41.5q-14 10 -23.5 26t-9.5 36q0 32 18 58.5t50.5 42t72.5 15.5q48 0 81 -26.5t33 -67.5q0 -57 -57 -88q18 -12 29 -31.5
t11 -44.5q0 -55 -43 -89.5t-110 -34.5q-55 0 -90.5 28.5zM599 236.5q13 11.5 13 30.5q0 14 -10.5 23t-25.5 9q-18 0 -31.5 -11t-13.5 -30q0 -15 10 -24t26 -9q19 0 32 11.5zM579.5 80q16.5 13 16.5 37q0 18 -13 29t-33 11q-23 0 -39.5 -14.5t-16.5 -37.5q0 -17 13 -27.5
t32 -10.5q24 0 40.5 13z" />
    <glyph glyph-name="uni2160" unicode="&#x2160;" horiz-adv-x="487" 
d="M-17 119h153l79 446h-154l21 119h439l-22 -119h-154l-78 -446h154l-21 -119h-438z" />
    <glyph glyph-name="uni2161" unicode="&#x2161;" horiz-adv-x="747" 
d="M-17 119h153l79 446h-154l21 119h699l-22 -119h-154l-78 -446h154l-21 -119h-698zM396 119l79 446h-130l-78 -446h129z" />
    <glyph glyph-name="uni2162" unicode="&#x2162;" horiz-adv-x="1007" 
d="M-17 119h153l79 446h-154l21 119h959l-22 -119h-154l-78 -446h154l-21 -119h-958zM396 119l79 446h-130l-78 -446h129zM656 119l79 446h-130l-78 -446h129z" />
    <glyph glyph-name="uni2163" unicode="&#x2163;" horiz-adv-x="1029" 
d="M-17 119h153l79 446h-154l21 119h981l-22 -119h-124l-220 -446h266l-21 -119h-980zM493 119l-64 446h-84l-78 -446h226zM610 190l35 85l137 290h-218l36 -290l2 -85h8z" />
    <glyph glyph-name="uni2164" unicode="&#x2164;" horiz-adv-x="785" 
d="M-17 119h266l-64 446h-124l21 119h737l-22 -119h-124l-220 -446h266l-21 -119h-736zM366 190l35 85l137 290h-218l36 -290l2 -85h8z" />
    <glyph glyph-name="uni2165" unicode="&#x2165;" horiz-adv-x="1057" 
d="M-17 119h266l-64 446h-124l21 119h981l-22 -119h-154l-78 -446h154l-21 -119h-980zM366 190l35 85l137 290h-218l36 -290l2 -85h8zM678 119l79 446h-84l-220 -446h225z" />
    <glyph glyph-name="uni2166" unicode="&#x2166;" horiz-adv-x="1297" 
d="M-17 119h266l-64 446h-124l21 119h1241l-22 -119h-154l-78 -446h154l-21 -119h-1240zM366 190l35 85l137 290h-218l36 -290l2 -85h8zM678 119l79 446h-84l-220 -446h225zM938 119l79 446h-130l-78 -446h129z" />
    <glyph glyph-name="uni2167" unicode="&#x2167;" horiz-adv-x="1549" 
d="M-17 119h266l-64 446h-124l21 119h1501l-22 -119h-154l-78 -446h154l-21 -119h-1500zM366 190l35 85l137 290h-218l36 -290l2 -85h8zM678 119l79 446h-84l-220 -446h225zM938 119l79 446h-130l-78 -446h129zM1198 119l79 446h-130l-78 -446h129z" />
    <glyph glyph-name="uni2168" unicode="&#x2168;" horiz-adv-x="975" 
d="M-17 119h153l79 446h-154l21 119h927l-22 -119h-119l-188 -226l107 -220h122l-21 -119h-926zM347 119l185 226l-108 220h-79l-78 -446h80zM626 440l28 42l69 83h-155l40 -83l12 -42h6zM642 119l-35 72l-13 45h-7l-32 -45l-60 -72h147z" />
    <glyph glyph-name="uni2169" unicode="&#x2169;" horiz-adv-x="730" 
d="M-17 119h119l185 226l-108 220h-118l21 119h682l-22 -119h-119l-188 -226l107 -220h122l-21 -119h-681zM381 440l28 42l69 83h-155l40 -83l12 -42h6zM397 119l-35 72l-13 45h-7l-32 -45l-60 -72h147z" />
    <glyph glyph-name="uni216A" unicode="&#x216a;" horiz-adv-x="975" 
d="M-17 119h119l185 226l-108 220h-118l21 119h927l-22 -119h-154l-78 -446h154l-21 -119h-926zM381 440l28 42l69 83h-155l40 -83l12 -42h6zM624 119l79 446h-80l-188 -226l107 -220h82zM397 119l-35 72l-13 45h-7l-32 -45l-60 -72h147z" />
    <glyph glyph-name="uni216B" unicode="&#x216b;" horiz-adv-x="1235" 
d="M-17 119h119l185 226l-108 220h-118l21 119h1187l-22 -119h-154l-78 -446h154l-21 -119h-1186zM381 440l28 42l69 83h-155l40 -83l12 -42h6zM624 119l79 446h-80l-188 -226l107 -220h82zM884 119l79 446h-130l-78 -446h129zM397 119l-35 72l-13 45h-7l-32 -45l-60 -72
h147z" />
    <glyph glyph-name="uni216C" unicode="&#x216c;" horiz-adv-x="661" 
d="M-17 119h129l79 446h-130l21 119h391l-22 -119h-130l-78 -446h217l24 132h131l-45 -251h-608z" />
    <glyph glyph-name="uni216D" unicode="&#x216d;" horiz-adv-x="746" 
d="M188 24q-72 40 -112 112t-40 166q0 100 54 192t147.5 149t207.5 57q110 0 175 -57h8l8 41h114l-35 -201h-114q-18 46 -60.5 71.5t-105.5 25.5q-74 0 -136.5 -37.5t-98.5 -100.5t-36 -134q0 -64 26 -110t71 -70t100 -24q67 0 123.5 29.5t106.5 91.5l94 -71
q-75 -92 -153 -131t-180 -39q-92 0 -164 40z" />
    <glyph glyph-name="uni216E" unicode="&#x216e;" horiz-adv-x="757" 
d="M105 119l78 446h-122l21 119h325q92 0 162.5 -39t109 -107t38.5 -154q0 -117 -54 -204t-148 -133.5t-210 -46.5h-343l21 119h122zM459 150q63 31 99 88t36 131q0 90 -52 143t-151 53h-85l-78 -446h91q77 0 140 31z" />
    <glyph glyph-name="uni216F" unicode="&#x216f;" horiz-adv-x="1009" 
d="M-17 119h125l79 446h-126l21 119h289l100 -480h8l266 480h298l-22 -119h-126l-78 -446h126l-21 -119h-335l21 119h86l42 237l28 115h-8l-266 -471h-97l-100 471h-8l-12 -115l-42 -237h86l-21 -119h-334z" />
    <glyph glyph-name="uni2180" unicode="&#x2180;" horiz-adv-x="1121" 
d="M182.5 39q-70.5 39 -109.5 107t-39 154q0 117 54 204t148 133.5t211 46.5h301q91 0 161.5 -39t109.5 -107t39 -154q0 -117 -54 -204t-148 -133.5t-210 -46.5h-301q-92 0 -162.5 39zM445 119l79 446h-92q-77 0 -139.5 -31t-98.5 -88t-36 -131q0 -90 52 -143t151 -53h84z
M660 119q77 0 139.5 31t98.5 88t36 131q0 90 -51.5 143t-150.5 53h-85l-79 -446h92z" />
    <glyph glyph-name="uni2181" unicode="&#x2181;" horiz-adv-x="756" 
d="M104 119l78 446h-122l21 119h325q92 0 162.5 -39t109 -107t38.5 -154q0 -117 -54 -204t-148 -133.5t-210 -46.5h-343l21 119h122zM458 150q63 31 99 88t36 131q0 90 -52 143t-151 53h-85l-8 -50h20q75 0 118.5 -43t43.5 -112q0 -54 -26 -97.5t-75.5 -68.5t-115.5 -25h-26
l-9 -50h91q77 0 140 31zM251 259h33q41 0 67 25t26 68q0 34 -18.5 53.5t-53.5 19.5h-25z" />
    <glyph glyph-name="uni2182" unicode="&#x2182;" horiz-adv-x="1097" 
d="M182.5 39q-70.5 39 -109.5 107t-39 154q0 117 54 204t148 133.5t211 46.5h301q91 0 161.5 -39t109.5 -107t39 -154q0 -117 -54 -204t-148 -133.5t-210 -46.5h-301q-92 0 -162.5 39zM445 119l9 50h-20q-75 0 -118.5 43t-43.5 112q0 54 26 97.5t75 68.5t115 25h28l8 50h-92
q-77 0 -139.5 -31t-98.5 -88t-36 -131q0 -90 52 -143t151 -53h84zM660 119q77 0 139.5 31t98.5 88t36 131q0 90 -51.5 143t-150.5 53h-85l-9 -50h20q75 0 119 -43t44 -112q0 -54 -26 -97.5t-75.5 -68.5t-115.5 -25h-27l-9 -50h92zM470 259l29 166h-32q-41 0 -67.5 -25
t-26.5 -68q0 -34 18.5 -53.5t53.5 -19.5h25zM626 259q41 0 67 25t26 68q0 34 -18.5 53.5t-53.5 19.5h-25l-29 -166h33z" />
    <glyph glyph-name="arrowleft" unicode="&#x2190;" horiz-adv-x="1123" 
d="M48 310l239 239v-177h780v-124h-780v-177z" />
    <glyph glyph-name="arrowup" unicode="&#x2191;" horiz-adv-x="559" 
d="M217 595h-177l239 240l240 -240h-178v-740h-124v740z" />
    <glyph glyph-name="arrowright" unicode="&#x2192;" horiz-adv-x="1123" 
d="M835 248h-779v124h779v177l240 -239l-240 -239v177z" />
    <glyph glyph-name="arrowdown" unicode="&#x2193;" horiz-adv-x="559" 
d="M40 71h177v741h124v-741h178l-240 -239z" />
    <glyph glyph-name="uni2196" unicode="&#x2196;" horiz-adv-x="792" 
d="M166 516l-126 -125v338h339l-126 -125l539 -537l-88 -88z" />
    <glyph glyph-name="uni2197" unicode="&#x2197;" horiz-adv-x="792" 
d="M0 67l539 537l-126 125h339v-338l-126 125l-538 -537z" />
    <glyph glyph-name="uni2198" unicode="&#x2198;" horiz-adv-x="792" 
d="M40 325l126 -125l538 537l88 -88l-539 -537l126 -125h-339v338z" />
    <glyph glyph-name="uni2199" unicode="&#x2199;" horiz-adv-x="792" 
d="M539 112l-539 537l88 88l538 -537l126 125v-338h-339z" />
    <glyph glyph-name="uni21C4" unicode="&#x21c4;" horiz-adv-x="1142" 
d="M854 479h-779v124h779v177l240 -239l-240 -239v177zM48 185l239 239v-177h780v-124h-780v-177z" />
    <glyph glyph-name="partialdiff" unicode="&#x2202;" horiz-adv-x="578" 
d="M123.5 11q-50.5 27 -80.5 76t-30 112q0 75 35.5 138t97.5 100t138 37q33 0 60.5 -9t43.5 -25l8 5q-22 70 -79 115.5t-139 63.5l42 100q151 -34 230 -136t79 -261q0 -91 -31.5 -169t-98 -126t-165.5 -48q-60 0 -110.5 27zM318.5 120.5q32.5 19.5 51 53t18.5 73.5
q0 52 -30 81.5t-78 29.5q-41 0 -72.5 -20.5t-49 -54t-17.5 -70.5q0 -52 30.5 -82t76.5 -30q38 0 70.5 19.5z" />
    <glyph glyph-name="uni2206" unicode="&#x2206;" horiz-adv-x="712" 
d="M341 716h155l137 -716h-683zM469 124l-73 425h-8l-220 -425h301z" />
    <glyph glyph-name="product" unicode="&#x220f;" horiz-adv-x="708" 
d="M141 716h550l-127 -716h-134l104 588h-281l-104 -588h-135z" />
    <glyph glyph-name="summation" unicode="&#x2211;" horiz-adv-x="536" 
d="M397 366l-229 -241h295l-22 -125h-457l23 133l230 235l-151 215l24 133h458l-23 -125h-299z" />
    <glyph glyph-name="minus" unicode="&#x2212;" horiz-adv-x="569" 
d="M50 329h457l-20 -116h-457z" />
    <glyph glyph-name="uni2215" unicode="&#x2215;" horiz-adv-x="480" 
d="M385 716h132l-424 -716h-131z" />
    <glyph glyph-name="radical" unicode="&#x221a;" horiz-adv-x="732" 
d="M27 490h145l39 -251l4 -85h8l34 85l295 577h244l-20 -111h-134l-390 -753h-130z" />
    </font>
</defs>
</svg>
