<?xml version="1.0" standalone="no"?>
<!DOCTYPE svg PUBLIC "-//W3C//DTD SVG 1.1//EN" "http://www.w3.org/Graphics/SVG/1.1/DTD/svg11.dtd" >
<svg xmlns="http://www.w3.org/2000/svg" xmlns:xlink="http://www.w3.org/1999/xlink" version="1.1">
<metadata>
Created by FontForge 20170731 at Thu Jul 20 19:12:01 2017
 By Aleksey,,,
Copyright 2017 Google, Inc. All Rights Reserved.
</metadata>
<defs>
<font id="GoogleSansDisplay-MediumItalic" horiz-adv-x="650" >
  <font-face 
    font-family="Google Sans Display Medium"
    font-weight="500"
    font-style="italic"
    font-stretch="normal"
    units-per-em="1000"
    panose-1="2 11 6 3 3 5 2 11 2 3"
    ascent="800"
    descent="-200"
    x-height="496"
    cap-height="716"
    bbox="-410 -265 3284 962"
    underline-thickness="84"
    underline-position="-244"
    slope="-10"
    unicode-range="U+0002-2792"
  />
<missing-glyph horiz-adv-x="570" 
d="M498 716v-716h-426v716h426zM434 60v596h-298v-596h298z" />
    <glyph glyph-name="f_b" unicode="fb" horiz-adv-x="974" 
d="M552.5 7q-41.5 23 -62.5 58h-6l-11 -65h-104l110 619h-130q-37 0 -60 -20t-30 -59l-8 -44h118l-17 -97h-118l-70 -399h-110l70 399h-91l17 97h91l9 50q32 174 217 174h239l-39 -219l-18 -69h6q25 35 66 57.5t97 22.5q58 0 105 -28.5t74 -81t27 -121.5q0 -80 -37 -148.5
t-101 -108.5t-141 -40q-51 0 -92.5 23zM727.5 109.5q39.5 24.5 62.5 66.5t23 94q0 64 -35 102.5t-95 38.5q-48 0 -87 -26.5t-61 -70t-22 -93.5q0 -63 36.5 -99.5t91.5 -36.5q47 0 86.5 24.5z" />
    <glyph glyph-name="f_f" unicode="ff" horiz-adv-x="705" 
d="M124 399h-91l17 97h91l9 54q14 83 68.5 128.5t134.5 45.5q38 0 65 -9l-18 -106q-24 12 -55 12t-55 -21t-31 -58l-8 -46h205l9 54q14 83 69 128.5t136 45.5q43 0 76 -12l-19 -106q-29 15 -64 15q-32 0 -57 -21t-32 -58l-8 -46h126l-17 -97h-126l-71 -399h-110l71 399h-205
l-71 -399h-110z" />
    <glyph glyph-name="f_f_b" unicode="ffb" horiz-adv-x="1288" 
d="M867 7q-41 23 -62 58h-6l-12 -65h-103l109 619h-129q-37 0 -60.5 -20t-30.5 -59l-8 -44h119l-17 -97h-119l-70 -399h-110l70 399h-204l-71 -399h-110l71 399h-91l17 97h91l9 54q14 83 68.5 128.5t134.5 45.5q38 0 65 -9l-18 -106q-24 12 -55 12t-55 -21t-31 -58l-8 -46
h204l10 50q30 174 216 174h240l-39 -219l-18 -69h5q25 35 66 57.5t98 22.5q58 0 104.5 -28.5t73.5 -81t27 -121.5q0 -80 -37 -148.5t-101 -108.5t-141 -40q-51 0 -92 23zM1041.5 109.5q39.5 24.5 62.5 66.5t23 94q0 64 -35 102.5t-94 38.5q-49 0 -88 -26.5t-61 -70
t-22 -93.5q0 -63 36.5 -99.5t91.5 -36.5q47 0 86.5 24.5z" />
    <glyph glyph-name="f_f_h" unicode="ffh" horiz-adv-x="1257" 
d="M124 399h-91l17 97h91l9 54q14 83 68.5 128.5t134.5 45.5q38 0 65 -9l-18 -106q-24 12 -55 12t-55 -21t-31 -58l-8 -46h204l10 50q30 174 216 174h240l-38 -212l-19 -78h6q27 38 70.5 60t95.5 22q77 0 117.5 -42.5t40.5 -108.5q0 -32 -6 -63l-53 -298h-110l52 292
q4 24 4 36q0 38 -24.5 60.5t-65.5 22.5q-58 0 -98.5 -43t-52.5 -109l-46 -259h-110l109 619h-129q-37 0 -60.5 -20t-30.5 -59l-8 -44h119l-17 -97h-119l-70 -399h-110l70 399h-204l-71 -399h-110z" />
    <glyph glyph-name="f_f_i" unicode="ffi" horiz-adv-x="927" 
d="M800.5 601.5q-21.5 21.5 -21.5 52.5t21.5 52.5t52.5 21.5t52.5 -21.5t21.5 -52.5t-21.5 -52.5t-52.5 -21.5t-52.5 21.5zM124 399h-91l17 97h91l9 54q14 83 68.5 128.5t134.5 45.5q38 0 65 -9l-18 -106q-24 12 -55 12t-55 -21t-31 -58l-8 -46h204l9 54q14 83 69 128.5
t135 45.5q38 0 65 -9l-19 -106q-23 12 -54 12q-32 0 -56 -21t-31 -58l-8 -46h315l-86 -496h-110l69 399h-205l-70 -399h-110l70 399h-204l-71 -399h-110z" />
    <glyph glyph-name="f_f_j" unicode="ffj" horiz-adv-x="927" 
d="M800.5 601.5q-21.5 21.5 -21.5 52.5t21.5 52.5t52.5 21.5t52.5 -21.5t21.5 -52.5t-21.5 -52.5t-52.5 -21.5t-52.5 21.5zM547 -218l19 103q16 -10 43 -10q29 0 43 16t20 47l81 461h-205l-70 -399h-110l70 399h-204l-71 -399h-110l71 399h-91l17 97h91l9 54
q14 83 68.5 128.5t134.5 45.5q38 0 65 -9l-18 -106q-24 12 -55 12t-55 -21t-31 -58l-8 -46h204l9 54q14 83 69 128.5t135 45.5q38 0 65 -9l-19 -106q-23 12 -54 12q-32 0 -56 -21t-31 -58l-8 -46h315l-98 -563q-16 -90 -60 -124.5t-117 -34.5q-28 0 -58 8z" />
    <glyph glyph-name="f_f_k" unicode="ffk" horiz-adv-x="1206" 
d="M124 399h-91l17 97h91l9 54q14 83 68.5 128.5t134.5 45.5q38 0 65 -9l-18 -106q-24 12 -55 12t-55 -21t-31 -58l-8 -46h204l10 50q30 174 216 174h240l-74 -417h4l224 193h143l-1 -6l-226 -189l149 -295l-1 -6h-127l-109 227l-81 -69l-28 -158h-110l109 619h-129
q-37 0 -60.5 -20t-30.5 -59l-8 -44h119l-17 -97h-119l-70 -399h-110l70 399h-204l-71 -399h-110z" />
    <glyph glyph-name="f_f_l" unicode="ffl" horiz-adv-x="920" 
d="M124 399h-91l17 97h91l9 54q14 83 68.5 128.5t134.5 45.5q38 0 65 -9l-18 -106q-24 12 -55 12t-55 -21t-31 -58l-8 -46h204l10 50q30 174 216 174h240l-127 -720h-110l109 619h-129q-37 0 -60.5 -20t-30.5 -59l-8 -44h119l-17 -97h-119l-70 -399h-110l70 399h-204
l-71 -399h-110z" />
    <glyph glyph-name="f_f_t" unicode="fft" horiz-adv-x="1025" 
d="M744.5 25.5q-36.5 33.5 -36.5 91.5q0 26 5 51l41 231h-206l-70 -399h-110l70 399h-204l-71 -399h-110l71 399h-91l17 97h91l9 54q14 83 68.5 128.5t134.5 45.5q38 0 65 -9l-18 -106q-24 12 -55 12t-55 -21t-31 -58l-8 -46h204l9 54q14 83 69 128.5t135 45.5q38 0 65 -9
l-19 -106q-23 12 -54 12q-32 0 -56 -21t-31 -58l-8 -46h206l26 148h110l-26 -148h121l-17 -97h-121l-40 -221q-3 -22 -3 -33q0 -23 13 -36.5t39 -13.5q28 0 55 15l-4 -104q-36 -14 -83 -14q-60 0 -96.5 33.5z" />
    <glyph glyph-name="f_h" unicode="fh" horiz-adv-x="943" 
d="M124 399h-91l17 97h91l9 50q30 174 217 174h239l-37 -212l-20 -78h6q27 38 70.5 60t95.5 22q77 0 118 -42.5t41 -108.5q0 -24 -6 -63l-54 -298h-110l52 292q4 24 4 36q0 38 -24 60.5t-65 22.5q-59 0 -99.5 -43t-52.5 -109l-45 -259h-110l109 619h-130q-37 0 -60 -20
t-30 -59l-8 -44h118l-17 -97h-118l-70 -399h-110z" />
    <glyph glyph-name="f_i" unicode="fi" horiz-adv-x="612" 
d="M485.5 601.5q-21.5 21.5 -21.5 52.5t21.5 52.5t52.5 21.5t52.5 -21.5t21.5 -52.5t-21.5 -52.5t-52.5 -21.5t-52.5 21.5zM124 399h-91l17 97h91l9 54q14 83 68.5 128.5t134.5 45.5q38 0 65 -9l-18 -106q-24 12 -55 12t-55 -21t-31 -58l-8 -46h314l-86 -496h-110l69 399
h-204l-71 -399h-110z" />
    <glyph glyph-name="f_j" unicode="fj" horiz-adv-x="613" 
d="M485.5 600.5q-21.5 21.5 -21.5 51.5q0 31 21.5 52.5t52.5 21.5t52.5 -21.5t21.5 -52.5q0 -30 -21.5 -51.5t-52.5 -21.5t-52.5 21.5zM232 -218l19 103q16 -10 43 -10q29 0 43 16t20 47l81 461h-204l-71 -399h-110l71 399h-91l17 97h91l9 54q14 83 68.5 128.5t134.5 45.5
q38 0 65 -9l-18 -106q-24 12 -55 12t-55 -21t-31 -58l-8 -46h314l-98 -563q-16 -90 -60 -124.5t-117 -34.5q-28 0 -58 8z" />
    <glyph glyph-name="f_k" unicode="fk" horiz-adv-x="892" 
d="M124 399h-91l17 97h91l9 50q30 174 217 174h239l-73 -417h3l224 193h143l-1 -6l-225 -189l149 -295l-2 -6h-126l-110 227l-81 -69l-28 -158h-110l110 619h-130q-37 0 -60 -20t-30 -59l-8 -44h118l-17 -97h-118l-70 -399h-110z" />
    <glyph glyph-name="f_l" unicode="fl" horiz-adv-x="605" 
d="M479 619h-130q-37 0 -60 -20t-30 -59l-8 -44h118l-17 -97h-118l-70 -399h-110l70 399h-91l17 97h91l9 50q32 174 217 174h239l-127 -720h-110z" />
    <glyph glyph-name="f_t" unicode="ft" horiz-adv-x="703" 
d="M429 25.5q-36 33.5 -36 91.5q0 26 5 51l41 231h-205l-71 -399h-110l71 399h-91l17 97h91l9 54q14 83 68.5 128.5t134.5 45.5q38 0 65 -9l-18 -106q-24 12 -55 12t-55 -21t-31 -58l-8 -46h205l26 148h110l-26 -148h121l-17 -97h-121l-40 -221q-3 -22 -3 -33
q0 -23 13.5 -36.5t38.5 -13.5q30 0 62 17l-19 -107q-19 -7 -36 -10t-41 -3q-59 0 -95 33.5z" />
    <glyph glyph-name="r_f" unicode="rf" horiz-adv-x="779" 
d="M86 496h104l-13 -74h6q23 42 67 65t100 23q24 0 39 -3l-20 -112q-20 8 -48 8q-63 0 -109.5 -41t-58.5 -107l-45 -255h-109zM517 399h-91l17 97h91l9 54q14 83 69 128.5t136 45.5q43 0 76 -12l-19 -106q-28 15 -64 15q-32 0 -57 -21t-32 -58l-8 -46h126l-17 -97h-126
l-71 -399h-110z" />
    <glyph glyph-name="r_f_f" unicode="rff" horiz-adv-x="1099" 
d="M86 496h104l-13 -74h6q23 42 67 65t100 23q24 0 39 -3l-20 -112q-20 8 -48 8q-63 0 -109.5 -41t-58.5 -107l-45 -255h-109zM518 399h-91l17 97h91l9 54q14 83 68.5 128.5t134.5 45.5q38 0 65 -9l-18 -106q-24 12 -55 12t-55 -21t-31 -58l-8 -46h205l9 54q14 83 69 128.5
t136 45.5q43 0 76 -12l-19 -106q-29 15 -64 15q-32 0 -57 -21t-32 -58l-8 -46h126l-17 -97h-126l-71 -399h-110l71 399h-205l-71 -399h-110z" />
    <glyph glyph-name="r_t" unicode="rt" horiz-adv-x="785" 
d="M86 496h104l-13 -74h6q23 42 67 65t100 23q24 0 39 -3l-20 -112q-20 8 -48 8q-63 0 -109.5 -41t-58.5 -107l-45 -255h-109zM512 25.5q-36 33.5 -36 91.5q0 26 5 51l40 231h-87l18 97h87l26 148h110l-26 -148h121l-17 -97h-122l-39 -221q-3 -22 -3 -33q0 -23 13 -36.5
t39 -13.5q30 0 62 17l-19 -107q-19 -7 -36 -10t-41 -3q-59 0 -95 33.5z" />
    <glyph glyph-name="t_f" unicode="tf" horiz-adv-x="703" 
d="M111.5 25.5q-36.5 33.5 -36.5 91.5q0 26 5 51l40 231h-87l18 97h87l26 148h110l-26 -148h206l9 54q14 83 69 128.5t136 45.5q43 0 76 -12l-19 -106q-28 15 -64 15q-32 0 -57 -21t-32 -58l-8 -46h126l-17 -97h-126l-71 -399h-110l71 399h-207l-39 -221q-3 -22 -3 -33
q0 -23 13 -36.5t39 -13.5t54 14l-18 -106q-31 -11 -69 -11q-59 0 -95.5 33.5z" />
    <glyph glyph-name="t_t" unicode="tt" horiz-adv-x="711" 
d="M111.5 25.5q-36.5 33.5 -36.5 91.5q0 26 5 51l40 231h-87l18 97h87l26 148h110l-26 -148h209l26 148h110l-26 -148h122l-18 -97h-121l-39 -221q-4 -20 -4 -33q0 -23 13.5 -36.5t38.5 -13.5q30 0 55 15l-4 -104q-36 -14 -83 -14q-59 0 -96 33.5t-37 91.5q0 18 5 51l41 231
h-210l-39 -221q-3 -22 -3 -33q0 -23 13 -36.5t39 -13.5t54 14l-18 -106q-31 -11 -69 -11q-59 0 -95.5 33.5z" />
    <glyph glyph-name=".notdef" horiz-adv-x="570" 
d="M498 716v-716h-426v716h426zM434 60v596h-298v-596h298z" />
    <glyph glyph-name=".null" horiz-adv-x="0" 
 />
    <glyph glyph-name="nonmarkingreturn" unicode="&#xd;" horiz-adv-x="0" 
d="M0 0z" />
    <glyph glyph-name="uni0002" horiz-adv-x="0" 
d="M0 0z" />
    <glyph glyph-name="uni0009" unicode="&#x9;" horiz-adv-x="0" 
d="M0 0z" />
    <glyph glyph-name="uni000A" unicode="&#xa;" horiz-adv-x="0" 
d="M0 0z" />
    <glyph glyph-name="space" unicode=" " horiz-adv-x="220" 
d="M0 0z" />
    <glyph glyph-name="exclam" unicode="!" horiz-adv-x="249" 
d="M94 499l38 217h112l-39 -217l-58 -266h-89zM20.5 16.5q-22.5 22.5 -22.5 54.5t22.5 54t54.5 22t54.5 -22t22.5 -54t-22.5 -54.5t-54.5 -22.5t-54.5 22.5z" />
    <glyph glyph-name="quotedbl" unicode="&#x22;" horiz-adv-x="347" 
d="M107 716h100l-40 -226h-100zM266 716h100l-40 -226h-100z" />
    <glyph glyph-name="numbersign" unicode="#" horiz-adv-x="644" 
d="M138 198h-119l17 88h117l22 121h-121l16 88h120l33 189h94l-33 -189h125l33 189h95l-34 -189h120l-16 -88h-119l-21 -121h122l-16 -88h-121l-35 -198h-94l34 198h-124l-35 -198h-94zM373 285l22 123h-127l-22 -123h127z" />
    <glyph glyph-name="dollar" unicode="$" horiz-adv-x="545" 
d="M174 -11q-68 13 -118 61.5t-61 123.5l101 39q5 -44 30 -75.5t67 -43.5l37 217q-153 68 -153 193q0 51 27 93.5t77.5 69.5t117.5 32l15 85h82l-16 -89q59 -13 96.5 -50.5t52.5 -86.5l-103 -40q-19 57 -64 72l-36 -205q77 -36 115.5 -80t38.5 -108q0 -91 -62 -146.5
t-162 -64.5l-15 -86h-82zM280 596q-43 -6 -69 -28.5t-26 -62.5q0 -50 65 -85zM343 121.5q26 24.5 26 66.5q0 31 -15.5 50.5t-47.5 37.5l-32 -186q43 7 69 31.5z" />
    <glyph glyph-name="percent" unicode="%" horiz-adv-x="826" 
d="M103 400q-43 42 -43 108q0 52 26 96t72 70t103 26q66 0 108.5 -42.5t42.5 -107.5q0 -53 -26 -97t-71.5 -69.5t-100.5 -25.5q-68 0 -111 42zM101 36l562 660l58 -49l-561 -660zM293 469.5q28 29.5 28 73.5q0 34 -20 54.5t-51 20.5q-43 0 -71 -29t-28 -73q0 -34 20.5 -55
t51.5 -21q42 0 70 29.5zM454 26q-43 42 -43 108q0 52 26 96t72 70t103 26q66 0 108.5 -42.5t42.5 -107.5q0 -53 -26 -97t-71.5 -69.5t-100.5 -25.5q-68 0 -111 42zM644.5 95.5q28.5 29.5 28.5 73.5q0 34 -20.5 54.5t-51.5 20.5q-43 0 -71 -29t-28 -73q0 -34 20.5 -55
t51.5 -21q42 0 70.5 29.5z" />
    <glyph glyph-name="ampersand" unicode="&#x26;" horiz-adv-x="631" 
d="M117 11q-51 27 -80.5 76.5t-29.5 115.5q0 80 39.5 142.5t119.5 102.5q-29 55 -29 102t23.5 89t67.5 67.5t103 25.5q68 0 109 -33.5t58 -91.5l-103 -43q-5 28 -24.5 48t-51.5 20t-53.5 -21t-21.5 -54q0 -29 22 -68l169 -280l77 107l70 -52l-99 -135l56 -91l-94 -54l-37 61
q-74 -61 -178 -61q-62 0 -113 27zM360 124l-147 244q-47 -24 -74.5 -62.5t-27.5 -90.5q0 -56 38.5 -93.5t96.5 -37.5q66 0 114 40z" />
    <glyph glyph-name="quotesingle" unicode="'" horiz-adv-x="188" 
d="M107 716h100l-40 -226h-100z" />
    <glyph glyph-name="parenleft" unicode="(" horiz-adv-x="343" 
d="M88 35.5q-33 98.5 -33 214.5q0 152 71.5 291t195.5 239l66 -60q-110 -106 -166.5 -221t-56.5 -257q0 -94 23 -171.5t64 -148.5l-80 -58q-51 73 -84 171.5z" />
    <glyph glyph-name="parenright" unicode=")" horiz-adv-x="343" 
d="M-44 -76q110 106 166.5 221t56.5 257q0 95 -22.5 172.5t-64.5 147.5l81 58q51 -73 84 -171.5t33 -214.5q0 -152 -71.5 -291t-195.5 -239z" />
    <glyph glyph-name="asterisk" unicode="*" horiz-adv-x="449" 
d="M86 412l95 102l-2 8l-98 37l32 77l103 -39l7 2l21 117h84l-20 -117l6 -2l104 36l26 -78l-117 -43l-4 -7l57 -99l-77 -48l-57 101h-7l-90 -101z" />
    <glyph glyph-name="plus" unicode="+" horiz-adv-x="559" 
d="M208 224h-176l17 94h176l31 176h94l-31 -176h176l-16 -94h-176l-31 -176h-95z" />
    <glyph glyph-name="comma" unicode="," horiz-adv-x="250" 
d="M45 2q-41 22 -41 69q0 32 22.5 54t53.5 22q32 0 54.5 -22t22.5 -54q0 -17 -9.5 -33.5t-28.5 -39.5l-100 -120l-45 38z" />
    <glyph glyph-name="hyphen" unicode="-" horiz-adv-x="441" 
d="M384 357l-17 -94h-329l17 94h329z" />
    <glyph glyph-name="period" unicode="." horiz-adv-x="249" 
d="M20 16.5q-22 22.5 -22 54.5t22.5 54t53.5 22q32 0 54.5 -22t22.5 -54t-22.5 -54.5t-54.5 -22.5t-54 22.5z" />
    <glyph glyph-name="slash" unicode="/" horiz-adv-x="457" 
d="M385 716h108l-424 -716h-107z" />
    <glyph glyph-name="zero" unicode="0" horiz-adv-x="658" 
d="M152 20q-54 36 -83.5 103.5t-29.5 160.5q0 111 44 206.5t121.5 152.5t173.5 57q111 0 174.5 -78.5t63.5 -219.5q0 -114 -44.5 -210t-122 -152t-172.5 -56q-71 0 -125 36zM394 128.5q50 40.5 80 110.5t30 154q0 96 -35.5 149.5t-102.5 53.5q-56 0 -105.5 -43t-79 -113.5
t-29.5 -148.5q0 -96 36.5 -149.5t98.5 -53.5q57 0 107 40.5z" />
    <glyph glyph-name="one" unicode="1" horiz-adv-x="410" 
d="M240 530l-116 -75l-49 84l223 145h80l-120 -684h-110z" />
    <glyph glyph-name="two" unicode="2" horiz-adv-x="539" 
d="M4 104q37 32 147 127q109 94 147 128q52 45 74.5 75t22.5 70q0 42 -27.5 67t-73.5 25q-45 0 -76 -27.5t-45 -65.5l-98 43q25 65 83 109.5t150 44.5q58 0 104 -23t72 -63.5t26 -91.5q0 -68 -36.5 -119.5t-110.5 -116.5q-50 -43 -114 -98q-65 -55 -99 -84l1 -4h296
l-17 -100h-444z" />
    <glyph glyph-name="three" unicode="3" horiz-adv-x="552" 
d="M78 30q-62 46 -73 129l108 41q5 -52 37.5 -81t83.5 -29q57 0 96 32t39 86q0 47 -31.5 73t-83.5 26h-59l18 101h53q61 0 97 27.5t36 78.5q0 37 -27.5 60t-68.5 23q-44 0 -72.5 -24.5t-44.5 -61.5l-98 45q27 63 84 103.5t145 40.5q56 0 100.5 -22t70 -60.5t25.5 -85.5
q0 -61 -32 -103t-85 -64l-1 -6q37 -18 62 -55.5t25 -87.5q0 -70 -34.5 -122.5t-94 -81t-131.5 -28.5q-82 0 -144 46z" />
    <glyph glyph-name="four" unicode="4" horiz-adv-x="608" 
d="M324 136h-320l15 88l387 460h125l-78 -446h86l-18 -102h-87l-24 -136h-110zM343 238l49 283h-6l-233 -283h190z" />
    <glyph glyph-name="five" unicode="5" horiz-adv-x="573" 
d="M129 5q-47 21 -79.5 62.5t-38.5 101.5l105 39q5 -54 36 -87t82 -33q64 0 108.5 39t44.5 103q0 50 -30.5 82t-80.5 32q-32 0 -62 -14t-53 -39l-101 45l103 348h372l-18 -100h-280l-58 -180l6 -2q56 42 121 42q56 0 99.5 -24.5t68 -70.5t24.5 -108q0 -70 -34 -129
t-95.5 -93.5t-141.5 -34.5q-51 0 -98 21z" />
    <glyph glyph-name="six" unicode="6" horiz-adv-x="566" 
d="M124.5 11.5q-49.5 27.5 -78 76t-28.5 108.5q0 67 29 119.5t95 127.5l229 259l76 -60l-188 -215l3 -3q32 13 60 13q48 0 89.5 -26t66 -72.5t24.5 -105.5q0 -73 -35 -129.5t-95.5 -88t-135.5 -31.5q-62 0 -111.5 27.5zM350 125.5q41 38.5 41 99.5q0 51 -34 84t-86 33
q-63 0 -103 -41t-40 -102q0 -49 34.5 -80.5t84.5 -31.5q62 0 103 38.5z" />
    <glyph glyph-name="seven" unicode="7" horiz-adv-x="542" 
d="M22 45l390 532l-1 3h-327l19 104h452l-19 -110l-432 -590z" />
    <glyph glyph-name="eight" unicode="8" horiz-adv-x="567" 
d="M113 9q-49 25 -75.5 67t-26.5 92q0 65 38.5 115.5t103.5 75.5l1 5q-63 52 -63 125q0 58 33 106t89 76.5t123 28.5q86 0 139 -47t53 -123q0 -59 -32 -101t-81 -67l-1 -6q35 -19 58.5 -57t23.5 -86q0 -68 -36.5 -120t-98.5 -80.5t-135 -28.5q-64 0 -113 25zM384.5 437
q34.5 30 34.5 73q0 41 -26 64.5t-69 23.5q-53 0 -88.5 -28.5t-35.5 -76.5q0 -39 27.5 -62.5t70.5 -23.5q52 0 86.5 30zM308 103q34 15 55 43.5t21 66.5q0 42 -32 68.5t-81 26.5q-38 0 -71.5 -16t-54 -45t-20.5 -67q0 -42 31 -67t80 -25q38 0 72 15z" />
    <glyph glyph-name="nine" unicode="9" horiz-adv-x="566" 
d="M116 42l188 215l-3 3q-32 -13 -55 -13q-48 0 -90.5 26t-68 72.5t-25.5 105.5q0 73 34.5 129.5t95 88t135.5 31.5q62 0 112 -27.5t78.5 -76.5t28.5 -110q0 -66 -29 -118t-96 -127l-229 -259zM395 383q40 41 40 101q0 49 -34.5 81t-83.5 32q-62 0 -103.5 -38.5t-41.5 -99.5
q0 -51 34 -84t87 -33q62 0 102 41z" />
    <glyph glyph-name="colon" unicode=":" horiz-adv-x="249" 
d="M83.5 374.5q-22.5 22.5 -22.5 54.5t22.5 54t54.5 22t54 -22t22 -54t-22 -54.5t-54 -22.5t-54.5 22.5zM20 16.5q-22 22.5 -22 54.5t22.5 54t53.5 22q32 0 54.5 -22t22.5 -54t-22.5 -54.5t-54.5 -22.5t-54 22.5z" />
    <glyph glyph-name="semicolon" unicode=";" horiz-adv-x="250" 
d="M81.5 374.5q-22.5 22.5 -22.5 54.5t22.5 54t54.5 22t54 -22t22 -54t-22 -54.5t-54 -22.5t-54.5 22.5zM-26 -71l71 86q-16 9 -28.5 26t-12.5 43q0 32 22.5 54t53.5 22q32 0 54.5 -22t22.5 -54q0 -17 -9.5 -33.5t-28.5 -39.5l-100 -120z" />
    <glyph glyph-name="less" unicode="&#x3c;" horiz-adv-x="518" 
d="M33 230l15 85l435 186l-19 -109l-298 -121l-1 -6l254 -123l-17 -101z" />
    <glyph glyph-name="equal" unicode="=" horiz-adv-x="571" 
d="M74 464h459l-17 -95h-458zM40 269h459l-17 -95h-459z" />
    <glyph glyph-name="greater" unicode="&#x3e;" horiz-adv-x="518" 
d="M23 150l298 121l1 6l-255 123l18 101l368 -189l-14 -85l-435 -186z" />
    <glyph glyph-name="question" unicode="?" horiz-adv-x="503" 
d="M174 274q9 49 32.5 81.5t83.5 76.5q40 29 63.5 56t23.5 60q0 36 -25.5 58t-67.5 22q-45 0 -75 -25.5t-43 -64.5l-93 42q23 66 81.5 109t144.5 43q55 0 98 -22t67.5 -60t24.5 -85q0 -58 -32 -100.5t-94 -90.5q-38 -30 -55.5 -54.5t-23.5 -57.5l-6 -29h-111zM138.5 16.5
q-22.5 22.5 -22.5 54.5t22.5 54t54.5 22t54 -22t22 -54t-22 -54.5t-54 -22.5t-54.5 22.5z" />
    <glyph glyph-name="at" unicode="@" horiz-adv-x="872" 
d="M202 -35q-79 47 -123 126.5t-44 172.5q0 121 58.5 218.5t161 152.5t230.5 55q93 0 172.5 -40.5t127 -115t47.5 -171.5q0 -70 -23 -131.5t-65.5 -98.5t-99.5 -37q-40 0 -68 19t-39 54q-25 -35 -63.5 -54t-81.5 -19q-46 0 -85.5 22.5t-63.5 63.5t-24 93q0 56 26 109
t76.5 86.5t119.5 33.5q40 0 70 -15.5t46 -40.5h6l7 42h84l-45 -254q-2 -12 -2 -20q0 -19 11.5 -32t34.5 -13q28 0 50 27t34 70.5t12 88.5q0 74 -34 131t-97.5 89t-148.5 32q-99 0 -177.5 -44t-123 -122t-44.5 -175q0 -77 36 -138.5t96.5 -96t131.5 -34.5q77 0 137 30l27 -76
q-76 -35 -171 -35q-100 0 -179 47zM501 220.5q36 38.5 36 95.5q0 46 -27 74t-72 28q-58 0 -93 -40t-35 -98q0 -47 29 -72.5t73 -25.5q53 0 89 38.5z" />
    <glyph glyph-name="A" unicode="A" horiz-adv-x="694" 
d="M344 716h129l143 -716h-120l-33 183h-288l-98 -183h-127zM443 287l-39 213l-13 83h-6l-42 -83l-113 -213h213z" />
    <glyph glyph-name="B" unicode="B" horiz-adv-x="623" 
d="M141 716h250q62 0 107.5 -24t69 -64t23.5 -87q0 -64 -36 -107t-90 -60l-1 -6q95 -48 95 -148q0 -63 -34.5 -113.5t-95 -78.5t-134.5 -28h-281zM352 416q57 0 92 28t35 78q0 39 -25.5 65t-69.5 26h-150l-34 -197h152zM314 104q53 0 92 30.5t39 84.5q0 44 -28 70.5
t-78 26.5h-157l-37 -212h169z" />
    <glyph glyph-name="C" unicode="C" horiz-adv-x="743" 
d="M192 24q-73 40 -114.5 114t-41.5 172q0 111 56 208t155 155.5t221 58.5q84 0 149.5 -33t102.5 -88l-89 -74q-32 45 -74.5 66.5t-101.5 21.5q-83 0 -153 -42.5t-111.5 -114t-41.5 -152.5q0 -68 28.5 -119t78.5 -78.5t113 -27.5q66 0 118.5 25.5t104.5 76.5l71 -81
q-68 -67 -139.5 -97.5t-166.5 -30.5q-92 0 -165 40z" />
    <glyph glyph-name="D" unicode="D" horiz-adv-x="718" 
d="M141 716h223q100 0 171.5 -40t108 -110.5t36.5 -160.5q0 -108 -51.5 -201t-148 -148.5t-225.5 -55.5h-241zM261 107q87 0 156.5 37.5t109 103t39.5 146.5q0 104 -56 159.5t-161 55.5h-115l-89 -502h116z" />
    <glyph glyph-name="E" unicode="E" horiz-adv-x="570" 
d="M141 716h435l-19 -107h-323l-35 -198h291l-19 -106h-291l-35 -198h323l-19 -107h-435z" />
    <glyph glyph-name="F" unicode="F" horiz-adv-x="550" 
d="M141 716h435l-19 -107h-323l-36 -206h291l-19 -106h-291l-53 -297h-112z" />
    <glyph glyph-name="G" unicode="G" horiz-adv-x="817" 
d="M202 25.5q-76 41.5 -120.5 117.5t-44.5 175q0 111 55 206t154.5 151.5t226.5 56.5q82 0 150 -30.5t106 -82.5l-90 -76q-25 37 -73.5 59.5t-107.5 22.5q-85 0 -155 -39t-111 -108t-41 -155q0 -72 30.5 -124.5t83 -80t115.5 -27.5q116 0 191 73q49 46 72 124h-239l18 100
h348q1 -20 -2 -48q-16 -151 -116 -248q-110 -108 -282 -108q-92 0 -168 41.5z" />
    <glyph glyph-name="H" unicode="H" horiz-adv-x="713" 
d="M141 716h112l-53 -297h332l53 297h112l-127 -716h-112l56 313h-332l-56 -313h-112z" />
    <glyph glyph-name="I" unicode="I" horiz-adv-x="270" 
d="M141 716h112l-127 -716h-112z" />
    <glyph glyph-name="J" unicode="J" horiz-adv-x="548" 
d="M60.5 30.5q-57.5 46.5 -67.5 122.5l108 42q6 -53 36 -78.5t75 -25.5q52 0 88.5 36t46.5 93l87 496h112l-87 -492q-21 -121 -90 -180.5t-170 -59.5q-81 0 -138.5 46.5z" />
    <glyph glyph-name="K" unicode="K" horiz-adv-x="654" 
d="M141 716h112l-59 -337h6l346 337h143l-1 -6l-317 -303l213 -401l-1 -6h-132l-169 322l-119 -113l-37 -209h-112z" />
    <glyph glyph-name="L" unicode="L" horiz-adv-x="527" 
d="M141 716h112l-108 -609h307l-19 -107h-419z" />
    <glyph glyph-name="M" unicode="M" horiz-adv-x="880" 
d="M141 716h149l111 -543h6l301 543h156l-127 -716h-111l70 401l29 129h-5l-296 -530h-91l-113 530h-6l-18 -129l-70 -401h-112z" />
    <glyph glyph-name="N" unicode="N" horiz-adv-x="722" 
d="M141 716h126l235 -521h6l19 138l68 383h111l-127 -716h-109l-248 548h-5l-19 -138l-72 -410h-112z" />
    <glyph glyph-name="O" unicode="O" horiz-adv-x="828" 
d="M200 25.5q-76 41.5 -119.5 116t-43.5 170.5q0 111 53.5 207.5t150 154.5t219.5 58q94 0 169.5 -42t118.5 -116.5t43 -169.5q0 -111 -53.5 -207.5t-150 -154.5t-218.5 -58q-93 0 -169 41.5zM529.5 134q68.5 43 108 114t39.5 151q0 67 -30 118.5t-82.5 79.5t-116.5 28
q-81 0 -149.5 -42.5t-108.5 -113.5t-40 -151q0 -68 30 -119.5t82.5 -79.5t116.5 -28q82 0 150.5 43z" />
    <glyph glyph-name="P" unicode="P" horiz-adv-x="590" 
d="M141 716h239q60 0 107 -24.5t73.5 -69t26.5 -101.5q0 -76 -34.5 -131t-96 -83.5t-140.5 -28.5h-140l-50 -278h-112zM333 384q62 0 101 31.5t39 94.5q0 45 -27.5 72t-72.5 27h-139l-40 -225h139z" />
    <glyph glyph-name="Q" unicode="Q" horiz-adv-x="828" 
d="M524 13q-77 -29 -155 -29q-93 0 -169 41.5t-119.5 116t-43.5 170.5q0 111 53.5 207.5t150 154.5t219.5 58q94 0 169.5 -42t118.5 -116.5t43 -169.5q0 -100 -44.5 -189.5t-123.5 -148.5l35 -72l-99 -51zM476 109l-61 125l100 52l58 -118q48 44 76 105t28 126
q0 67 -30 118.5t-82.5 79.5t-116.5 28q-81 0 -149.5 -42.5t-108.5 -113.5t-40 -151q0 -68 30 -119.5t82.5 -79.5t116.5 -28q51 0 97 18z" />
    <glyph glyph-name="R" unicode="R" horiz-adv-x="608" 
d="M141 716h237q61 0 109 -25t74.5 -69.5t26.5 -100.5q0 -88 -55 -150t-143 -80l-3 -5l144 -280l-1 -6h-124l-141 280h-89l-50 -280h-112zM332 384q62 0 102 34t40 96q0 43 -28.5 70t-78.5 27h-133l-40 -227h138z" />
    <glyph glyph-name="S" unicode="S" horiz-adv-x="573" 
d="M80 36q-64 52 -79 146l108 43q5 -59 41 -96.5t97 -37.5q58 0 100 32t42 84q0 40 -28 67t-94 52l-40 15q-63 23 -103.5 68t-40.5 115q0 59 33 106.5t90 74.5t125 27q67 0 112.5 -23.5t69.5 -58t30 -68.5l-105 -40q-6 35 -35 60t-83 25q-51 0 -87 -26t-36 -70
q0 -36 25.5 -59.5t79.5 -43.5l42 -16q159 -59 159 -191q0 -70 -34.5 -124t-95.5 -83.5t-139 -29.5q-90 0 -154 52z" />
    <glyph glyph-name="T" unicode="T" horiz-adv-x="564" 
d="M269 609h-200l19 107h512l-19 -107h-200l-108 -609h-112z" />
    <glyph glyph-name="U" unicode="U" horiz-adv-x="672" 
d="M159.5 12q-52.5 28 -83 79t-30.5 118q0 40 9 91l74 416h111l-77 -439q-5 -30 -5 -54q0 -61 33.5 -96.5t100.5 -35.5q75 0 124.5 49t63.5 129l79 447h112l-80 -457q-24 -134 -105 -204.5t-210 -70.5q-64 0 -116.5 28z" />
    <glyph glyph-name="V" unicode="V" horiz-adv-x="657" 
d="M76 716h121l76 -473l11 -81h6l41 81l250 473h125l-386 -716h-118z" />
    <glyph glyph-name="W" unicode="W" horiz-adv-x="964" 
d="M80 716h122l30 -461l2 -62h6l27 62l222 461h113l55 -461l5 -61h6l23 61l193 461h126l-313 -716h-118l-57 472l-4 64h-6l-28 -64l-224 -472h-115z" />
    <glyph glyph-name="X" unicode="X" horiz-adv-x="662" 
d="M263 376l-168 340h136l116 -253h6l203 253h141l-290 -349l183 -367h-135l-132 273h-6l-224 -273h-139z" />
    <glyph glyph-name="Y" unicode="Y" horiz-adv-x="618" 
d="M250 333l-173 383h128l114 -266h6l204 266h137l-305 -383l-59 -333h-111z" />
    <glyph glyph-name="Z" unicode="Z" horiz-adv-x="589" 
d="M-6 115l455 494h-353l19 107h487l-20 -115l-455 -494h371l-19 -107h-506z" />
    <glyph glyph-name="bracketleft" unicode="[" horiz-adv-x="328" 
d="M152 792h224l-15 -91h-121l-129 -734h120l-16 -91h-223z" />
    <glyph glyph-name="backslash" unicode="\" horiz-adv-x="457" 
d="M92 716h102l170 -716h-102z" />
    <glyph glyph-name="bracketright" unicode="]" horiz-adv-x="328" 
d="M-33 -33h120l129 734h-120l16 91h224l-161 -916h-223z" />
    <glyph glyph-name="asciicircum" unicode="^" horiz-adv-x="491" 
d="M296 611h-6l-149 -201h-120l243 306h89l135 -306h-111z" />
    <glyph glyph-name="underscore" unicode="_" horiz-adv-x="489" 
d="M423 -121l-17 -95h-488l17 95h488z" />
    <glyph glyph-name="grave" unicode="`" horiz-adv-x="420" 
d="M161 720h121l24 -132h-89z" />
    <glyph glyph-name="a" unicode="a" horiz-adv-x="535" 
d="M97.5 3.5q-38.5 19.5 -60 55t-21.5 79.5q0 55 29 96.5t82 64t123 22.5q67 0 132 -28l4 21q3 9 3 20q0 37 -30.5 61t-77.5 24q-38 0 -69 -15t-56 -46l-79 57q36 47 92.5 72t123.5 25q96 0 149 -45t53 -123q0 -20 -5 -52l-52 -292h-108l11 61h-6q-25 -35 -64 -56t-88 -21
q-47 0 -85.5 19.5zM314.5 113.5q43.5 38.5 52.5 94.5q-50 29 -119 29q-51 0 -85 -23.5t-34 -66.5q0 -34 24.5 -53t60.5 -19q57 0 100.5 38.5z" />
    <glyph glyph-name="b" unicode="b" horiz-adv-x="603" 
d="M182.5 7q-41.5 23 -63.5 58h-5l-12 -65h-103l126 716h110l-38 -215l-19 -69h6q25 35 66 57.5t98 22.5q58 0 104.5 -28.5t73.5 -81t27 -121.5q0 -80 -37 -148.5t-101 -108.5t-141 -40q-50 0 -91.5 23zM356.5 109.5q39.5 24.5 62.5 66.5t23 94q0 64 -35 102.5t-94 38.5
q-49 0 -88 -26.5t-61 -70t-22 -93.5q0 -63 36.5 -99.5t91.5 -36.5q47 0 86.5 24.5z" />
    <glyph glyph-name="c" unicode="c" horiz-adv-x="547" 
d="M119.5 14q-51.5 30 -80 83t-28.5 118q0 82 38 150t106.5 107.5t154.5 39.5q82 0 135.5 -40.5t71.5 -101.5l-103 -40q-12 39 -42.5 60t-75.5 21q-49 0 -89 -24.5t-62.5 -67t-22.5 -94.5q0 -60 36 -100t94 -40q45 0 80.5 22.5t57.5 61.5l92 -43q-43 -73 -102.5 -107.5
t-143.5 -34.5q-65 0 -116.5 30z" />
    <glyph glyph-name="d" unicode="d" horiz-adv-x="604" 
d="M110.5 13q-46.5 29 -73 81.5t-26.5 120.5q0 79 36.5 147t101.5 109t146 41q49 0 90.5 -23t60.5 -57h6l6 69l38 215h110l-126 -716h-104l11 65h-6q-57 -81 -166 -81q-58 0 -104.5 29zM337.5 110.5q39.5 25.5 62.5 69.5t23 96q0 62 -36.5 98.5t-93.5 36.5q-48 0 -87 -25
t-61.5 -68t-22.5 -94q0 -64 35 -101.5t95 -37.5q46 0 85.5 25.5z" />
    <glyph glyph-name="e" unicode="e" horiz-adv-x="562" 
d="M118 15q-52 31 -79.5 83.5t-27.5 116.5q0 78 36 146t102 109.5t151 41.5q68 0 116 -28t73 -75t25 -105q0 -44 -11 -79h-382q-1 -8 -1 -21q1 -58 38 -89.5t89 -31.5q98 0 150 82l84 -46q-41 -66 -101.5 -100.5t-139.5 -34.5q-70 0 -122 31zM408 309v7q0 42 -31.5 72
t-86.5 30q-54 0 -95.5 -30.5t-57.5 -78.5h271z" />
    <glyph glyph-name="f" unicode="f" horiz-adv-x="390" 
d="M124 399h-91l17 97h91l9 54q14 83 69 128.5t136 45.5q43 0 76 -12l-19 -106q-28 15 -64 15q-32 0 -57 -21t-32 -58l-8 -46h126l-17 -97h-126l-71 -399h-110z" />
    <glyph glyph-name="g" unicode="g" horiz-adv-x="601" 
d="M104 -210.5q-45 21.5 -71.5 55t-35.5 69.5l107 41q8 -41 38.5 -64.5t76.5 -23.5q72 0 117 40.5t58 114.5l8 46h-6q-24 -37 -65.5 -57t-96.5 -20q-57 0 -103.5 28t-73.5 80t-27 120q0 74 34.5 141.5t98.5 109.5t147 42q52 0 91.5 -21.5t59.5 -55.5h6l11 61h105l-86 -487
q-21 -121 -96.5 -181t-192.5 -60q-59 0 -104 21.5zM352 116.5q40 25.5 63 69.5t23 96q0 60 -36 95t-88 35q-51 0 -90.5 -26t-61 -69.5t-21.5 -92.5q0 -63 35 -98t89 -35q47 0 87 25.5z" />
    <glyph glyph-name="h" unicode="h" horiz-adv-x="572" 
d="M125 716h110l-37 -208l-20 -78h6q27 38 70.5 60t95.5 22q77 0 118 -42.5t41 -108.5q0 -27 -7 -63l-53 -298h-110l52 292q4 24 4 36q0 38 -24 60.5t-66 22.5q-58 0 -98.5 -43t-52.5 -109l-45 -259h-110z" />
    <glyph glyph-name="i" unicode="i" horiz-adv-x="250" 
d="M122.5 601.5q-21.5 21.5 -21.5 52.5t21.5 52.5t52.5 21.5t52.5 -21.5t21.5 -52.5t-21.5 -52.5t-52.5 -21.5t-52.5 21.5zM92 496h110l-87 -496h-110z" />
    <glyph glyph-name="j" unicode="j" horiz-adv-x="250" 
d="M123.5 600.5q-21.5 21.5 -21.5 51.5q0 31 21.5 52.5t52.5 21.5t52.5 -21.5t21.5 -52.5q0 -30 -21.5 -51.5t-52.5 -21.5t-52.5 21.5zM-130 -218l18 103q16 -10 43 -10q29 0 43.5 16t19.5 47l99 558h110l-99 -563q-16 -90 -60 -124.5t-117 -34.5q-29 0 -57 8z" />
    <glyph glyph-name="k" unicode="k" horiz-adv-x="521" 
d="M125 716h110l-72 -411h3l221 191h146l-1 -6l-226 -189l149 -295l-1 -6h-127l-109 227l-81 -69l-28 -158h-110z" />
    <glyph glyph-name="l" unicode="l" horiz-adv-x="234" 
d="M125 716h110l-126 -716h-110z" />
    <glyph glyph-name="m" unicode="m" horiz-adv-x="882" 
d="M190 496l-12 -66h6q56 82 161 82q54 0 90 -24.5t50 -67.5q28 43 74 67.5t107 24.5q73 0 113.5 -40t40.5 -105q0 -24 -8 -67l-52 -300h-110l51 295q5 25 5 40q0 36 -21 56t-62 20q-54 0 -92.5 -43.5t-50.5 -108.5l-46 -259h-110l52 295q4 28 4 40q0 36 -22.5 56t-61.5 20
q-53 0 -91.5 -43.5t-50.5 -108.5l-45 -259h-110l87 496h104z" />
    <glyph glyph-name="n" unicode="n" horiz-adv-x="572" 
d="M184 430q26 38 68.5 60t95.5 22q74 0 117 -42.5t43 -110.5q0 -33 -7 -68l-51 -291h-110l52 292q3 20 3 38q0 38 -24.5 59.5t-66.5 21.5q-57 0 -97 -41.5t-52 -106.5l-46 -263h-110l87 496h104l-12 -66h6z" />
    <glyph glyph-name="o" unicode="o" horiz-adv-x="584" 
d="M123 15.5q-53 31.5 -82.5 85t-29.5 118.5q0 82 38 149t106 105.5t154 38.5q68 0 121 -31.5t82.5 -85t29.5 -117.5q0 -82 -38 -149.5t-106 -106t-153 -38.5q-69 0 -122 31.5zM346.5 110q39.5 25 62 67t22.5 91q0 62 -38.5 102.5t-95.5 40.5q-50 0 -90 -25t-62 -67t-22 -91
q0 -62 38 -102.5t95 -40.5q51 0 90.5 25z" />
    <glyph glyph-name="p" unicode="p" horiz-adv-x="600" 
d="M91 496h105l-12 -64h6q26 36 67.5 58t98.5 22q58 0 104.5 -29t73 -81.5t26.5 -120.5q0 -79 -36.5 -147t-101.5 -109t-146 -41q-50 0 -91 23t-60 58h-6l-6 -70l-37 -211h-110zM365 110q39 25 61.5 68t22.5 95q0 64 -35 101t-94 37q-46 0 -85.5 -25.5t-62.5 -69t-23 -96.5
q0 -62 36 -98.5t93 -36.5q48 0 87 25z" />
    <glyph glyph-name="q" unicode="q" horiz-adv-x="600" 
d="M369 -5l18 70h-6q-23 -36 -63.5 -58.5t-97.5 -22.5q-59 0 -106.5 28.5t-75 81t-27.5 121.5q0 80 37 148.5t101 108.5t142 40q51 0 92 -22.5t63 -57.5h6l11 64h103l-124 -712h-110zM340 111.5q39 26.5 61 70t22 93.5q0 63 -37 99.5t-92 36.5q-47 0 -86 -24.5t-62 -66.5
t-23 -94q0 -64 34.5 -102.5t94.5 -38.5q49 0 88 26.5z" />
    <glyph glyph-name="r" unicode="r" horiz-adv-x="394" 
d="M86 496h104l-12 -69h6q21 38 65 61t92 23q37 0 59 -10l-21 -116q-31 18 -72 18q-55 0 -99 -41.5t-54 -101.5l-45 -260h-110z" />
    <glyph glyph-name="s" unicode="s" horiz-adv-x="477" 
d="M59 23q-53 39 -71 101l104 42q9 -41 40 -62.5t74 -21.5q41 0 67 17t26 43q0 25 -17.5 40.5t-56.5 25.5l-54 14q-57 15 -92 48.5t-35 87.5q0 45 27 80t74 54.5t106 19.5q71 0 120.5 -31t70.5 -86l-103 -38q-10 28 -35.5 45t-60.5 17q-40 0 -63.5 -15t-23.5 -39
q0 -19 15.5 -33.5t46.5 -21.5l67 -18q61 -16 94 -52t33 -86q0 -78 -59.5 -124t-156.5 -46q-84 0 -137 39z" />
    <glyph glyph-name="t" unicode="t" horiz-adv-x="384" 
d="M111 25.5q-36 33.5 -36 91.5q0 26 5 51l40 231h-87l18 97h87l26 148h110l-26 -148h121l-17 -97h-122l-39 -221q-3 -22 -3 -33q0 -23 13 -36.5t39 -13.5q30 0 62 17l-19 -107q-19 -7 -36 -10t-41 -3q-59 0 -95 33.5z" />
    <glyph glyph-name="u" unicode="u" horiz-adv-x="572" 
d="M349 66q-26 -38 -68.5 -60t-95.5 -22q-74 0 -117 42.5t-43 110.5q0 31 6 68l52 291h110l-52 -291q-4 -26 -4 -38q0 -39 24.5 -60.5t66.5 -21.5q58 0 98 41.5t52 106.5l46 263h110l-87 -496h-104l12 66h-6z" />
    <glyph glyph-name="v" unicode="v" horiz-adv-x="534" 
d="M31 496h121l71 -354h5l200 354h124l-295 -496h-110z" />
    <glyph glyph-name="w" unicode="w" horiz-adv-x="789" 
d="M30 496h116l38 -348h3l174 348h114l51 -348h4l157 348h120l-246 -496h-117l-50 352h-3l-174 -352h-115z" />
    <glyph glyph-name="x" unicode="x" horiz-adv-x="502" 
d="M164 257l-126 239h127l77 -158h4l129 158h135l-215 -246l130 -250h-126l-80 167h-4l-135 -167h-134z" />
    <glyph glyph-name="y" unicode="y" horiz-adv-x="535" 
d="M166 30l-123 466h120l81 -333h4l194 333h124l-436 -712h-119z" />
    <glyph glyph-name="z" unicode="z" horiz-adv-x="482" 
d="M309 400h-259l17 96h398l-16 -92l-322 -308h271l-17 -96h-409l16 92z" />
    <glyph glyph-name="braceleft" unicode="{" horiz-adv-x="327" 
d="M80 -87.5q-41 36.5 -41 97.5q0 20 3 39l29 163q2 14 2 19q0 28 -15 42.5t-43 14.5l16 92q30 0 53 19t30 57l29 167q30 169 198 169h34l-16 -91h-20q-37 0 -60.5 -22.5t-31.5 -63.5l-29 -160q-9 -51 -30 -78.5t-60 -39.5l-2 -6q28 -9 41 -28t13 -51q0 -20 -4 -39l-29 -160
q-2 -20 -2 -24q0 -30 18 -46t47 -16h19l-15 -91h-28q-65 0 -106 36.5z" />
    <glyph glyph-name="bar" unicode="|" horiz-adv-x="245" 
d="M152 792h101l-161 -912h-100z" />
    <glyph glyph-name="braceright" unicode="}" horiz-adv-x="327" 
d="M-33 -33h19q37 0 61 22.5t32 63.5l29 160q9 51 30 78.5t60 39.5l1 6q-54 18 -54 79q0 16 5 39l28 160q3 15 3 24q0 30 -18 46t-47 16h-20l16 91h28q65 0 105.5 -36.5t40.5 -97.5q0 -19 -3 -39l-28 -163q-2 -14 -2 -19q0 -28 15.5 -42.5t42.5 -14.5l-17 -92q-30 0 -53 -19
t-29 -57l-30 -167q-14 -82 -63.5 -125.5t-134.5 -43.5h-33z" />
    <glyph glyph-name="asciitilde" unicode="~" horiz-adv-x="541" 
d="M300.5 237.5q-24.5 8.5 -62.5 25.5q-32 15 -50 21.5t-37 6.5q-23 0 -38 -13.5t-21 -33.5h-88q9 68 48 105.5t108 37.5q29 0 54 -8.5t61 -25.5q26 -14 46 -21t40 -7q23 0 38.5 13.5t21.5 33.5h88q-10 -68 -48.5 -105.5t-107.5 -37.5q-28 0 -52.5 8.5z" />
    <glyph glyph-name="uni00A0" unicode="&#xa0;" horiz-adv-x="220" 
d="M0 0z" />
    <glyph glyph-name="exclamdown" unicode="&#xa1;" horiz-adv-x="249" 
d="M96.5 381.5q-22.5 22.5 -22.5 53.5q0 32 22 54.5t54 22.5t54.5 -22.5t22.5 -54.5t-22.5 -54t-54.5 -22q-31 0 -53.5 22.5zM19 1l59 271h89l-36 -271l-39 -217h-111z" />
    <glyph glyph-name="cent" unicode="&#xa2;" horiz-adv-x="530" 
d="M192 87q-75 15 -122.5 76.5t-47.5 146.5q0 76 33.5 139t92.5 102.5t135 47.5l15 85h82l-16 -87q60 -11 99 -47.5t55 -86.5l-100 -40q-8 28 -25.5 48.5t-44.5 28.5l-57 -319q63 12 104 83l85 -40q-39 -65 -87.5 -99t-118.5 -41l-15 -84h-82zM265 502q-62 -13 -99.5 -63.5
t-37.5 -118.5q0 -49 21.5 -85t60.5 -51z" />
    <glyph glyph-name="sterling" unicode="&#xa3;" horiz-adv-x="528" 
d="M-13 92q49 21 83.5 61t37.5 88v3h-93l14 88h61l-8 24q-14 37 -21 65.5t-7 61.5q0 59 29 109t83.5 79t125.5 29q81 0 127.5 -41t61.5 -104l-105 -40q-19 84 -98 84q-50 0 -82.5 -34.5t-32.5 -85.5q0 -25 6.5 -48.5t19.5 -60.5l13 -38h137l-15 -88h-111q-4 -40 -25 -75
t-55 -62l4 -6h163q34 0 54.5 14.5t35.5 43.5l81 -38q-27 -61 -71 -91t-115 -30h-315z" />
    <glyph glyph-name="currency" unicode="&#xa4;" horiz-adv-x="603" 
d="M60 147l59 58q-35 54 -35 120t35 120l-59 59l58 58l59 -57q55 39 124 39q70 0 125 -39l59 57l58 -58l-58 -58q34 -54 34 -121t-34 -120l58 -58l-58 -59l-59 57q-57 -39 -125 -39q-67 0 -124 39l-59 -57zM388.5 234.5q35.5 37.5 35.5 90.5t-35.5 90.5t-87.5 37.5
q-51 0 -86.5 -37.5t-35.5 -90.5t35.5 -90.5t86.5 -37.5q52 0 87.5 37.5z" />
    <glyph glyph-name="yen" unicode="&#xa5;" horiz-adv-x="600" 
d="M209 151h-169l17 94h169l13 74h-169l17 95h107l-125 270h127l88 -205l22 -65h6l44 65l157 205h132l-218 -270h105l-17 -95h-164l-14 -74h165l-17 -94h-165l-26 -151h-112z" />
    <glyph glyph-name="brokenbar" unicode="&#xa6;" horiz-adv-x="245" 
d="M148 756h101l-67 -380h-101zM66 292h101l-73 -412h-100z" />
    <glyph glyph-name="section" unicode="&#xa7;" horiz-adv-x="546" 
d="M89 -208q-49 24 -79.5 68.5t-34.5 102.5l101 38q7 -58 40.5 -94t89.5 -36q52 0 87.5 26.5t35.5 72.5q0 43 -28.5 68t-94.5 46l-15 6q-67 22 -108 65.5t-41 101.5q0 51 31 93.5t80 67.5q-27 24 -42 55.5t-15 66.5q0 54 29.5 98t82.5 69t119 25q85 0 135 -42t66 -106
l-108 -41q-6 34 -32 60t-73 26q-42 0 -73.5 -21t-31.5 -56q0 -33 26 -56t86 -45l16 -5q76 -28 116.5 -72.5t40.5 -109.5q0 -54 -26 -95.5t-71 -68.5q43 -45 43 -116q0 -59 -32 -108.5t-88 -78.5t-125 -29q-58 0 -107 24zM364.5 192q17.5 24 17.5 52q0 79 -117 117l-22 7
q-37 -12 -63.5 -37.5t-26.5 -57.5q0 -33 25.5 -55.5t76.5 -39.5q37 -13 66 -26q26 16 43.5 40z" />
    <glyph glyph-name="dieresis" unicode="&#xa8;" horiz-adv-x="424" 
d="M129 614q-19 19 -19 45q0 27 19 45.5t45 18.5q27 0 45.5 -18.5t18.5 -45.5q0 -26 -18.5 -45t-45.5 -19q-26 0 -45 19zM308 614q-19 19 -19 45q0 27 18.5 45.5t44.5 18.5q28 0 46 -18.5t18 -45.5q0 -26 -18.5 -45t-45.5 -19q-25 0 -44 19z" />
    <glyph glyph-name="copyright" unicode="&#xa9;" horiz-adv-x="532" 
d="M151 303q-53 31 -84 84t-31 115t31 115t84 84t115 31t115 -31t84 -84t31 -115t-31 -115t-84 -84t-115 -31t-115 31zM357.5 344.5q41.5 24.5 66 66.5t24.5 91q0 50 -24.5 91.5t-66 66t-91.5 24.5q-49 0 -91 -24.5t-66.5 -66t-24.5 -91.5q0 -49 25 -90.5t66.5 -66.5
t90.5 -25q50 0 91.5 24.5zM185.5 418q-34.5 35 -34.5 84q0 50 34 84.5t85 34.5q28 0 48 -10t39 -29l-32 -29q-12 13 -23.5 18.5t-31.5 5.5q-29 0 -51 -21.5t-22 -53.5q0 -31 22 -53t51 -22q36 0 60 31l34 -27q-36 -48 -94 -48q-50 0 -84.5 35z" />
    <glyph glyph-name="ordfeminine" unicode="&#xaa;" horiz-adv-x="486" 
d="M89 308.5q-42 36.5 -42 95.5q0 49 28 86t75 56.5t103 19.5q66 0 124 -26l2 14q1 7 1 15q0 35 -25.5 56.5t-65.5 21.5q-73 0 -112 -52l-73 46q27 41 77.5 66t117.5 25q80 0 130.5 -41t50.5 -110q0 -16 -3 -36l-46 -259h-99l9 55h-6q-25 -31 -60.5 -50t-77.5 -19
q-66 0 -108 36.5zM315 387q40 32 49 78q-47 26 -104 26q-43 0 -75.5 -19t-32.5 -58q0 -29 22 -44t52 -15q49 0 89 32z" />
    <glyph glyph-name="guillemotleft" unicode="&#xab;" horiz-adv-x="581" 
d="M188 47l-167 224l246 224l56 -63l-184 -167l120 -162zM399 47l-167 224l246 224l56 -63l-184 -167l120 -162z" />
    <glyph glyph-name="logicalnot" unicode="&#xac;" horiz-adv-x="577" 
d="M392 300h-357l16 94h449l-51 -289h-92z" />
    <glyph glyph-name="uni00AD" unicode="&#xad;" horiz-adv-x="441" 
d="M384 357l-17 -94h-329l17 94h329z" />
    <glyph glyph-name="registered" unicode="&#xae;" horiz-adv-x="532" 
d="M151 303q-53 31 -84 84t-31 115t31 115t84 84t115 31t115 -31t84 -84t31 -115t-31 -115t-84 -84t-115 -31t-115 31zM357.5 344.5q41.5 24.5 66 66.5t24.5 91q0 50 -24.5 91.5t-66 66t-91.5 24.5q-49 0 -91 -24.5t-66.5 -66t-24.5 -91.5q0 -49 25 -90.5t66.5 -66.5
t90.5 -25q50 0 91.5 24.5zM189 615h96q29 0 51 -21t22 -51q0 -23 -14.5 -41.5t-35.5 -24.5l-2 -2l60 -84v-2h-52l-55 84h-24v-84h-46v226zM281 515q13 0 22 8t9 20q0 11 -8.5 19.5t-21.5 8.5h-47v-56h46z" />
    <glyph glyph-name="macron" unicode="&#xaf;" horiz-adv-x="407" 
d="M120 702h288l-15 -86h-288z" />
    <glyph glyph-name="degree" unicode="&#xb0;" horiz-adv-x="325" 
d="M102 474q-35 32 -35 82q0 63 41.5 103.5t104.5 40.5q49 0 84 -32t35 -82q0 -63 -41.5 -103.5t-104.5 -40.5q-49 0 -84 32zM238.5 531q18.5 19 18.5 46q0 23 -14 38t-37 15q-27 0 -45.5 -19t-18.5 -47q0 -23 14 -37.5t37 -14.5q27 0 45.5 19z" />
    <glyph glyph-name="plusminus" unicode="&#xb1;" horiz-adv-x="559" 
d="M223 305h-176l15 91h176l27 150h94l-26 -150h176l-16 -91h-176l-27 -149h-94zM9 95h447l-17 -95h-446z" />
    <glyph glyph-name="uni00B2" unicode="&#xb2;" horiz-adv-x="310" 
d="M35 412l153 131q23 19 37.5 36t14.5 35t-12.5 28.5t-31.5 10.5q-42 0 -60 -53l-68 28q13 45 50.5 70.5t87.5 25.5q52 0 84 -28t32 -71q0 -36 -18 -61.5t-58 -59.5l-75 -64q-10 -8 -15.5 -12.5t-7.5 -6.5h143l-13 -71h-255z" />
    <glyph glyph-name="uni00B3" unicode="&#xb3;" horiz-adv-x="328" 
d="M81.5 368q-35.5 26 -44.5 74l71 26q14 -56 63 -56q25 0 43.5 14.5t18.5 37.5q0 21 -15.5 32.5t-42.5 11.5h-33l12 64h35q25 0 42 12.5t17 33.5q0 16 -12 26t-29 10q-41 0 -60 -40l-65 28q15 37 51 59.5t84 22.5q49 0 80.5 -26.5t31.5 -65.5q0 -30 -18 -54t-45 -36
q21 -11 34 -30.5t13 -44.5q0 -54 -42.5 -89.5t-106.5 -35.5q-47 0 -82.5 26z" />
    <glyph glyph-name="acute" unicode="&#xb4;" horiz-adv-x="420" 
d="M260 720h126l-104 -132h-93z" />
    <glyph glyph-name="uni00B5" unicode="&#xb5;" horiz-adv-x="572" 
d="M83 496h110l-52 -294q-4 -16 -4 -35q0 -39 24.5 -60.5t66.5 -21.5q58 0 98 41.5t52 106.5l46 263h110l-87 -496h-104l12 66h-6q-27 -39 -66.5 -60.5t-91.5 -21.5q-24 0 -47 9t-36 24h-6l-4 -60l-31 -173h-109z" />
    <glyph glyph-name="paragraph" unicode="&#xb6;" horiz-adv-x="633" 
d="M283 296h-35q-60 0 -111.5 25.5t-82 73.5t-30.5 111t30.5 111t82 73.5t111.5 25.5h305v-932h-96v835h-78v-835h-96v512z" />
    <glyph glyph-name="periodcentered" unicode="&#xb7;" horiz-adv-x="193" 
d="M40.5 269.5q-22.5 22.5 -22.5 54.5t22.5 54.5t54.5 22.5t54.5 -22.5t22.5 -54.5t-22.5 -54.5t-54.5 -22.5t-54.5 22.5z" />
    <glyph glyph-name="cedilla" unicode="&#xb8;" horiz-adv-x="405" 
d="M28 -217.5q-27 19.5 -33 46.5l61 25q2 -13 12.5 -22t24.5 -9q17 0 29 11.5t12 30.5q0 14 -9 23.5t-24 9.5q-16 0 -31 -15l-49 24l52 93h61l-29 -48q12 2 19 2q35 0 56.5 -24t21.5 -63q0 -46 -31.5 -75t-81.5 -29q-34 0 -61 19.5z" />
    <glyph glyph-name="uni00B9" unicode="&#xb9;" horiz-adv-x="256" 
d="M161 612l-52 -38l-37 59l116 83h71l-65 -366h-79z" />
    <glyph glyph-name="ordmasculine" unicode="&#xba;" horiz-adv-x="525" 
d="M150.5 296.5q-45.5 24.5 -70.5 69.5t-25 104q0 67 33 127.5t93 97.5t137 37q90 0 144 -53.5t54 -144.5q0 -69 -35 -129.5t-95 -96.5t-132 -36q-58 0 -103.5 24.5zM336.5 386.5q34.5 20.5 55 57.5t20.5 83q0 49 -30.5 80t-75.5 31q-40 0 -74 -22t-53.5 -58.5t-19.5 -79.5
q0 -50 29.5 -81t73.5 -31q40 0 74.5 20.5z" />
    <glyph glyph-name="guillemotright" unicode="&#xbb;" horiz-adv-x="581" 
d="M148 495l167 -224l-246 -224l-56 63l184 167l-120 162zM359 495l167 -224l-246 -224l-56 63l184 167l-120 162z" />
    <glyph glyph-name="onequarter" unicode="&#xbc;" horiz-adv-x="730" 
d="M186 612l-52 -38l-37 59l116 83h71l-65 -366h-79zM647 727l61 -47l-588 -692l-63 48zM516 69h-172l10 55l215 242h77l-41 -231h48l-12 -66h-48l-12 -69h-78zM528 135l20 116h-6l-102 -116h88z" />
    <glyph glyph-name="onehalf" unicode="&#xbd;" horiz-adv-x="791" 
d="M186 612l-52 -38l-37 59l116 83h71l-65 -366h-79zM645 727l61 -47l-588 -692l-63 48zM447 62l154 131q23 19 37.5 36t14.5 35t-12.5 28.5t-31.5 10.5q-42 0 -61 -53l-67 28q13 45 50.5 70.5t87.5 25.5q52 0 84 -28t32 -71q0 -36 -18 -61.5t-58 -59.5l-98 -83h143l-13 -71
h-255z" />
    <glyph glyph-name="threequarters" unicode="&#xbe;" horiz-adv-x="834" 
d="M119.5 368q-35.5 26 -44.5 74l71 26q14 -56 63 -56q25 0 43.5 14.5t18.5 37.5q0 21 -15.5 32.5t-42.5 11.5h-33l12 64h35q25 0 42 12.5t17 33.5q0 16 -12 26t-29 10q-41 0 -60 -40l-65 28q15 37 51 59.5t84 22.5q49 0 80.5 -26.5t31.5 -65.5q0 -30 -18 -54t-45 -36
q21 -11 34 -30.5t13 -44.5q0 -54 -42.5 -89.5t-106.5 -35.5q-47 0 -82.5 26zM723 727l61 -47l-588 -692l-63 48zM614 69h-172l10 55l215 242h77l-41 -231h48l-12 -66h-48l-12 -69h-78zM626 135l20 116h-6l-102 -116h88z" />
    <glyph glyph-name="questiondown" unicode="&#xbf;" horiz-adv-x="492" 
d="M227.5 381.5q-22.5 22.5 -22.5 53.5q0 32 22 54.5t54 22.5t54.5 -22.5t22.5 -54.5t-22.5 -54t-54.5 -22q-31 0 -53.5 22.5zM76 -210q-43 22 -67.5 60t-24.5 85q0 58 32 100.5t94 90.5q38 30 55.5 54.5t23.5 57.5l7 34h111l-8 -46q-9 -48 -32.5 -81t-83.5 -77
q-40 -29 -63.5 -56t-23.5 -60q0 -36 25.5 -58t67.5 -22q45 0 75 25.5t43 64.5l93 -42q-23 -66 -81.5 -109t-144.5 -43q-55 0 -98 22z" />
    <glyph glyph-name="Agrave" unicode="&#xc0;" horiz-adv-x="694" 
d="M344 716h129l143 -716h-120l-33 183h-288l-98 -183h-127zM443 287l-39 213l-13 83h-6l-42 -83l-113 -213h213zM308 904h121l24 -132h-89z" />
    <glyph glyph-name="Aacute" unicode="&#xc1;" horiz-adv-x="694" 
d="M344 716h129l143 -716h-120l-33 183h-288l-98 -183h-127zM443 287l-39 213l-13 83h-6l-42 -83l-113 -213h213zM438 904h126l-104 -132h-93z" />
    <glyph glyph-name="Acircumflex" unicode="&#xc2;" horiz-adv-x="694" 
d="M344 716h129l143 -716h-120l-33 183h-288l-98 -183h-127zM443 287l-39 213l-13 83h-6l-42 -83l-113 -213h213zM256 785l127 121h98l87 -121l-2 -7h-100l-37 60h-9l-54 -60h-112z" />
    <glyph glyph-name="Atilde" unicode="&#xc3;" horiz-adv-x="694" 
d="M344 716h129l143 -716h-120l-33 183h-288l-98 -183h-127zM443 287l-39 213l-13 83h-6l-42 -83l-113 -213h213zM454 781q-15 6 -36 18q-18 10 -30 15t-25 5q-27 0 -36 -32h-83q8 60 40 91t80 31q18 0 32.5 -5.5t38.5 -18.5q33 -20 53 -20q29 0 36 32h84q-8 -60 -40 -91
t-81 -31q-18 0 -33 6z" />
    <glyph glyph-name="Adieresis" unicode="&#xc4;" horiz-adv-x="694" 
d="M344 716h129l143 -716h-120l-33 183h-288l-98 -183h-127zM443 287l-39 213l-13 83h-6l-42 -83l-113 -213h213zM291 798q-19 19 -19 45q0 27 19 45.5t45 18.5q27 0 45.5 -18.5t18.5 -45.5q0 -26 -18.5 -45t-45.5 -19q-26 0 -45 19zM470 798q-19 19 -19 45q0 27 18.5 45.5
t44.5 18.5q28 0 46 -18.5t18 -45.5q0 -26 -18.5 -45t-45.5 -19q-25 0 -44 19z" />
    <glyph glyph-name="Aring" unicode="&#xc5;" horiz-adv-x="694" 
d="M324 681q-28 33 -28 75q0 49 33.5 82.5t82.5 33.5q48 0 82 -33.5t34 -82.5q0 -27 -12 -51t-33 -41l133 -664h-120l-33 183h-288l-98 -183h-127zM440.5 728q11.5 12 11.5 28q0 17 -11.5 28.5t-28.5 11.5q-16 0 -28 -11.5t-12 -28.5q0 -16 12 -28t28 -12q17 0 28.5 12z
M443 287l-39 213l-13 83h-6l-42 -83l-113 -213h213z" />
    <glyph glyph-name="AE" unicode="&#xc6;" horiz-adv-x="987" 
d="M488 716h505l-19 -107h-323l-35 -198h291l-19 -106h-291l-35 -198h323l-19 -107h-435l33 184h-247l-138 -184h-138zM482 290l57 319h-7l-40 -59l-197 -260h187z" />
    <glyph glyph-name="Ccedilla" unicode="&#xc7;" horiz-adv-x="743" 
d="M523.5 14.5q-71.5 -30.5 -166.5 -30.5l-19 -32q12 2 19 2q35 0 56.5 -24t21.5 -63q0 -46 -31.5 -75t-81.5 -29q-34 0 -61 19.5t-33 46.5l61 25q2 -13 12.5 -22t24.5 -9q17 0 29 11.5t12 30.5q0 14 -9 23.5t-24 9.5q-16 0 -31 -15l-49 24l45 81q-78 12 -137.5 54.5
t-92.5 111t-33 156.5q0 111 56 208t155 155.5t221 58.5q84 0 149.5 -33t102.5 -88l-89 -74q-32 45 -74.5 66.5t-101.5 21.5q-83 0 -153 -42.5t-111.5 -114t-41.5 -152.5q0 -68 28.5 -119t78.5 -78.5t113 -27.5q66 0 118.5 25.5t104.5 76.5l71 -81q-68 -67 -139.5 -97.5z" />
    <glyph glyph-name="Egrave" unicode="&#xc8;" horiz-adv-x="570" 
d="M141 716h435l-19 -107h-323l-35 -198h291l-19 -106h-291l-35 -198h323l-19 -107h-435zM265 904h121l24 -132h-89z" />
    <glyph glyph-name="Eacute" unicode="&#xc9;" horiz-adv-x="570" 
d="M141 716h435l-19 -107h-323l-35 -198h291l-19 -106h-291l-35 -198h323l-19 -107h-435zM395 904h126l-104 -132h-93z" />
    <glyph glyph-name="Ecircumflex" unicode="&#xca;" horiz-adv-x="570" 
d="M141 716h435l-19 -107h-323l-35 -198h291l-19 -106h-291l-35 -198h323l-19 -107h-435zM213 785l127 121h98l87 -121l-2 -7h-100l-37 60h-9l-54 -60h-112z" />
    <glyph glyph-name="Edieresis" unicode="&#xcb;" horiz-adv-x="570" 
d="M141 716h435l-19 -107h-323l-35 -198h291l-19 -106h-291l-35 -198h323l-19 -107h-435zM248 798q-19 19 -19 45q0 27 19 45.5t45 18.5q27 0 45.5 -18.5t18.5 -45.5q0 -26 -18.5 -45t-45.5 -19q-26 0 -45 19zM427 798q-19 19 -19 45q0 27 18.5 45.5t44.5 18.5
q28 0 46 -18.5t18 -45.5q0 -26 -18.5 -45t-45.5 -19q-25 0 -44 19z" />
    <glyph glyph-name="Igrave" unicode="&#xcc;" horiz-adv-x="270" 
d="M141 716h112l-127 -716h-112zM102 904h121l24 -132h-89z" />
    <glyph glyph-name="Iacute" unicode="&#xcd;" horiz-adv-x="270" 
d="M141 716h112l-127 -716h-112zM232 904h126l-104 -132h-93z" />
    <glyph glyph-name="Icircumflex" unicode="&#xce;" horiz-adv-x="270" 
d="M141 716h112l-127 -716h-112zM50 785l127 121h98l87 -121l-2 -7h-100l-37 60h-9l-54 -60h-112z" />
    <glyph glyph-name="Idieresis" unicode="&#xcf;" horiz-adv-x="270" 
d="M96 800q-19 19 -19 44q0 26 18.5 44t44.5 18t44 -18t18 -44t-18 -44.5t-44 -18.5q-25 0 -44 19zM249 800q-19 19 -19 44q0 26 18.5 44t44.5 18t44 -18t18 -44t-18 -44.5t-44 -18.5q-25 0 -44 19zM141 716h112l-127 -716h-112z" />
    <glyph glyph-name="Eth" unicode="&#xd0;" horiz-adv-x="764" 
d="M122 311h-75l16 92h76l56 313h223q100 0 171 -40t107.5 -110.5t36.5 -160.5q0 -108 -51.5 -201t-148 -148.5t-225.5 -55.5h-240zM314 107q87 0 156.5 37.5t109 103t39.5 146.5q0 104 -56 159.5t-160 55.5h-116l-36 -206h193l-17 -92h-193l-35 -204h115z" />
    <glyph glyph-name="Ntilde" unicode="&#xd1;" horiz-adv-x="722" 
d="M141 716h126l235 -521h6l19 138l68 383h111l-127 -716h-109l-248 548h-5l-19 -138l-72 -410h-112zM463 781q-15 6 -36 18q-18 10 -30 15t-25 5q-27 0 -36 -32h-83q8 60 40 91t80 31q18 0 32.5 -5.5t38.5 -18.5q33 -20 53 -20q29 0 36 32h84q-8 -60 -40 -91t-81 -31
q-18 0 -33 6z" />
    <glyph glyph-name="Ograve" unicode="&#xd2;" horiz-adv-x="828" 
d="M200 25.5q-76 41.5 -119.5 116t-43.5 170.5q0 111 53.5 207.5t150 154.5t219.5 58q94 0 169.5 -42t118.5 -116.5t43 -169.5q0 -111 -53.5 -207.5t-150 -154.5t-218.5 -58q-93 0 -169 41.5zM529.5 134q68.5 43 108 114t39.5 151q0 67 -30 118.5t-82.5 79.5t-116.5 28
q-81 0 -149.5 -42.5t-108.5 -113.5t-40 -151q0 -68 30 -119.5t82.5 -79.5t116.5 -28q82 0 150.5 43zM367 904h121l24 -132h-89z" />
    <glyph glyph-name="Oacute" unicode="&#xd3;" horiz-adv-x="828" 
d="M200 25.5q-76 41.5 -119.5 116t-43.5 170.5q0 111 53.5 207.5t150 154.5t219.5 58q94 0 169.5 -42t118.5 -116.5t43 -169.5q0 -111 -53.5 -207.5t-150 -154.5t-218.5 -58q-93 0 -169 41.5zM529.5 134q68.5 43 108 114t39.5 151q0 67 -30 118.5t-82.5 79.5t-116.5 28
q-81 0 -149.5 -42.5t-108.5 -113.5t-40 -151q0 -68 30 -119.5t82.5 -79.5t116.5 -28q82 0 150.5 43zM497 904h126l-104 -132h-93z" />
    <glyph glyph-name="Ocircumflex" unicode="&#xd4;" horiz-adv-x="828" 
d="M200 25.5q-76 41.5 -119.5 116t-43.5 170.5q0 111 53.5 207.5t150 154.5t219.5 58q94 0 169.5 -42t118.5 -116.5t43 -169.5q0 -111 -53.5 -207.5t-150 -154.5t-218.5 -58q-93 0 -169 41.5zM529.5 134q68.5 43 108 114t39.5 151q0 67 -30 118.5t-82.5 79.5t-116.5 28
q-81 0 -149.5 -42.5t-108.5 -113.5t-40 -151q0 -68 30 -119.5t82.5 -79.5t116.5 -28q82 0 150.5 43zM315 785l127 121h98l87 -121l-2 -7h-100l-37 60h-9l-54 -60h-112z" />
    <glyph glyph-name="Otilde" unicode="&#xd5;" horiz-adv-x="828" 
d="M200 25.5q-76 41.5 -119.5 116t-43.5 170.5q0 111 53.5 207.5t150 154.5t219.5 58q94 0 169.5 -42t118.5 -116.5t43 -169.5q0 -111 -53.5 -207.5t-150 -154.5t-218.5 -58q-93 0 -169 41.5zM529.5 134q68.5 43 108 114t39.5 151q0 67 -30 118.5t-82.5 79.5t-116.5 28
q-81 0 -149.5 -42.5t-108.5 -113.5t-40 -151q0 -68 30 -119.5t82.5 -79.5t116.5 -28q82 0 150.5 43zM513 781q-15 6 -36 18q-18 10 -30 15t-25 5q-27 0 -36 -32h-83q8 60 40 91t80 31q18 0 32.5 -5.5t38.5 -18.5q33 -20 53 -20q29 0 36 32h84q-8 -60 -40 -91t-81 -31
q-18 0 -33 6z" />
    <glyph glyph-name="Odieresis" unicode="&#xd6;" horiz-adv-x="828" 
d="M200 25.5q-76 41.5 -119.5 116t-43.5 170.5q0 111 53.5 207.5t150 154.5t219.5 58q94 0 169.5 -42t118.5 -116.5t43 -169.5q0 -111 -53.5 -207.5t-150 -154.5t-218.5 -58q-93 0 -169 41.5zM529.5 134q68.5 43 108 114t39.5 151q0 67 -30 118.5t-82.5 79.5t-116.5 28
q-81 0 -149.5 -42.5t-108.5 -113.5t-40 -151q0 -68 30 -119.5t82.5 -79.5t116.5 -28q82 0 150.5 43zM350 798q-19 19 -19 45q0 27 19 45.5t45 18.5q27 0 45.5 -18.5t18.5 -45.5q0 -26 -18.5 -45t-45.5 -19q-26 0 -45 19zM529 798q-19 19 -19 45q0 27 18.5 45.5t44.5 18.5
q28 0 46 -18.5t18 -45.5q0 -26 -18.5 -45t-45.5 -19q-25 0 -44 19z" />
    <glyph glyph-name="multiply" unicode="&#xd7;" horiz-adv-x="574" 
d="M15 118l190 156l-132 154l73 62l133 -155l190 158l58 -70l-189 -156l132 -153l-73 -62l-133 154l-191 -158z" />
    <glyph glyph-name="Oslash" unicode="&#xd8;" horiz-adv-x="828" 
d="M76 10l53 67q-44 44 -68 104t-24 131q0 111 53.5 207.5t150 154.5t219.5 58q89 0 162 -39l55 69l73 -57l-53 -66q45 -44 69.5 -104t24.5 -131q0 -111 -53.5 -207.5t-150 -154.5t-218.5 -58q-89 0 -164 39l-55 -69zM550 603q-47 22 -102 22q-81 0 -149.5 -42.5
t-108.5 -113.5t-40 -151q0 -90 52 -150zM529.5 134q68.5 43 108 114t39.5 151q0 89 -52 149l-348 -436q48 -21 102 -21q82 0 150.5 43z" />
    <glyph glyph-name="Ugrave" unicode="&#xd9;" horiz-adv-x="672" 
d="M159.5 12q-52.5 28 -83 79t-30.5 118q0 40 9 91l74 416h111l-77 -439q-5 -30 -5 -54q0 -61 33.5 -96.5t100.5 -35.5q75 0 124.5 49t63.5 129l79 447h112l-80 -457q-24 -134 -105 -204.5t-210 -70.5q-64 0 -116.5 28zM298 904h121l24 -132h-89z" />
    <glyph glyph-name="Uacute" unicode="&#xda;" horiz-adv-x="672" 
d="M159.5 12q-52.5 28 -83 79t-30.5 118q0 40 9 91l74 416h111l-77 -439q-5 -30 -5 -54q0 -61 33.5 -96.5t100.5 -35.5q75 0 124.5 49t63.5 129l79 447h112l-80 -457q-24 -134 -105 -204.5t-210 -70.5q-64 0 -116.5 28zM428 904h126l-104 -132h-93z" />
    <glyph glyph-name="Ucircumflex" unicode="&#xdb;" horiz-adv-x="672" 
d="M159.5 12q-52.5 28 -83 79t-30.5 118q0 40 9 91l74 416h111l-77 -439q-5 -30 -5 -54q0 -61 33.5 -96.5t100.5 -35.5q75 0 124.5 49t63.5 129l79 447h112l-80 -457q-24 -134 -105 -204.5t-210 -70.5q-64 0 -116.5 28zM246 785l127 121h98l87 -121l-2 -7h-100l-37 60h-9
l-54 -60h-112z" />
    <glyph glyph-name="Udieresis" unicode="&#xdc;" horiz-adv-x="672" 
d="M159.5 12q-52.5 28 -83 79t-30.5 118q0 40 9 91l74 416h111l-77 -439q-5 -30 -5 -54q0 -61 33.5 -96.5t100.5 -35.5q75 0 124.5 49t63.5 129l79 447h112l-80 -457q-24 -134 -105 -204.5t-210 -70.5q-64 0 -116.5 28zM281 798q-19 19 -19 45q0 27 19 45.5t45 18.5
q27 0 45.5 -18.5t18.5 -45.5q0 -26 -18.5 -45t-45.5 -19q-26 0 -45 19zM460 798q-19 19 -19 45q0 27 18.5 45.5t44.5 18.5q28 0 46 -18.5t18 -45.5q0 -26 -18.5 -45t-45.5 -19q-25 0 -44 19z" />
    <glyph glyph-name="Yacute" unicode="&#xdd;" horiz-adv-x="618" 
d="M250 333l-173 383h128l114 -266h6l204 266h137l-305 -383l-59 -333h-111zM393 904h126l-104 -132h-93z" />
    <glyph glyph-name="Thorn" unicode="&#xde;" horiz-adv-x="577" 
d="M134 716h112l-21 -116h128q60 0 107 -24.5t73.5 -69t26.5 -101.5q0 -76 -34.5 -131t-96 -83.5t-140.5 -28.5h-141l-29 -162h-112zM306 268q62 0 101 32t39 94q0 45 -27.5 72.5t-72.5 27.5h-139l-40 -226h139z" />
    <glyph glyph-name="germandbls" unicode="&#xdf;" horiz-adv-x="573" 
d="M491.5 324.5q24.5 -39.5 24.5 -94.5q0 -70 -34.5 -124t-94 -84t-134.5 -30q-39 0 -64 4l18 103q30 -5 52 -5q62 0 103.5 35t41.5 96q0 49 -30 78.5t-87 29.5h-29l18 99h22q54 0 93 29.5t39 80.5q0 40 -26.5 63.5t-70.5 23.5q-49 0 -82 -32.5t-42 -85.5l-90 -511h-112
l90 512q18 100 80.5 160t168.5 60q58 0 102.5 -23.5t68.5 -63.5t24 -88q0 -62 -31 -104t-82 -63l-1 -6q40 -20 64.5 -59.5z" />
    <glyph glyph-name="agrave" unicode="&#xe0;" horiz-adv-x="535" 
d="M97.5 3.5q-38.5 19.5 -60 55t-21.5 79.5q0 55 29 96.5t82 64t123 22.5q67 0 132 -28l4 21q3 9 3 20q0 37 -30.5 61t-77.5 24q-38 0 -69 -15t-56 -46l-79 57q36 47 92.5 72t123.5 25q96 0 149 -45t53 -123q0 -20 -5 -52l-52 -292h-108l11 61h-6q-25 -35 -64 -56t-88 -21
q-47 0 -85.5 19.5zM314.5 113.5q43.5 38.5 52.5 94.5q-50 29 -119 29q-51 0 -85 -23.5t-34 -66.5q0 -34 24.5 -53t60.5 -19q57 0 100.5 38.5zM212 726h121l24 -132h-89z" />
    <glyph glyph-name="aacute" unicode="&#xe1;" horiz-adv-x="535" 
d="M97.5 3.5q-38.5 19.5 -60 55t-21.5 79.5q0 55 29 96.5t82 64t123 22.5q67 0 132 -28l4 21q3 9 3 20q0 37 -30.5 61t-77.5 24q-38 0 -69 -15t-56 -46l-79 57q36 47 92.5 72t123.5 25q96 0 149 -45t53 -123q0 -20 -5 -52l-52 -292h-108l11 61h-6q-25 -35 -64 -56t-88 -21
q-47 0 -85.5 19.5zM314.5 113.5q43.5 38.5 52.5 94.5q-50 29 -119 29q-51 0 -85 -23.5t-34 -66.5q0 -34 24.5 -53t60.5 -19q57 0 100.5 38.5zM334 726h126l-104 -132h-93z" />
    <glyph glyph-name="acircumflex" unicode="&#xe2;" horiz-adv-x="535" 
d="M97.5 3.5q-38.5 19.5 -60 55t-21.5 79.5q0 55 29 96.5t82 64t123 22.5q67 0 132 -28l4 21q3 9 3 20q0 37 -30.5 61t-77.5 24q-38 0 -69 -15t-56 -46l-79 57q36 47 92.5 72t123.5 25q96 0 149 -45t53 -123q0 -20 -5 -52l-52 -292h-108l11 61h-6q-25 -35 -64 -56t-88 -21
q-47 0 -85.5 19.5zM314.5 113.5q43.5 38.5 52.5 94.5q-50 29 -119 29q-51 0 -85 -23.5t-34 -66.5q0 -34 24.5 -53t60.5 -19q57 0 100.5 38.5zM153 601l128 121h97l87 -121l-1 -6h-101l-36 59h-10l-54 -59h-112z" />
    <glyph glyph-name="atilde" unicode="&#xe3;" horiz-adv-x="535" 
d="M97.5 3.5q-38.5 19.5 -60 55t-21.5 79.5q0 55 29 96.5t82 64t123 22.5q67 0 132 -28l4 21q3 9 3 20q0 37 -30.5 61t-77.5 24q-38 0 -69 -15t-56 -46l-79 57q36 47 92.5 72t123.5 25q96 0 149 -45t53 -123q0 -20 -5 -52l-52 -292h-108l11 61h-6q-25 -35 -64 -56t-88 -21
q-47 0 -85.5 19.5zM314.5 113.5q43.5 38.5 52.5 94.5q-50 29 -119 29q-51 0 -85 -23.5t-34 -66.5q0 -34 24.5 -53t60.5 -19q57 0 100.5 38.5zM351 603q-15 6 -36 18q-18 10 -30 15t-25 5q-27 0 -36 -32h-83q8 60 40 91t80 31q18 0 32.5 -5.5t38.5 -18.5q33 -20 53 -20
q29 0 36 32h84q-8 -60 -40 -91t-80 -31q-19 0 -34 6z" />
    <glyph glyph-name="adieresis" unicode="&#xe4;" horiz-adv-x="535" 
d="M97.5 3.5q-38.5 19.5 -60 55t-21.5 79.5q0 55 29 96.5t82 64t123 22.5q67 0 132 -28l4 21q3 9 3 20q0 37 -30.5 61t-77.5 24q-38 0 -69 -15t-56 -46l-79 57q36 47 92.5 72t123.5 25q96 0 149 -45t53 -123q0 -20 -5 -52l-52 -292h-108l11 61h-6q-25 -35 -64 -56t-88 -21
q-47 0 -85.5 19.5zM314.5 113.5q43.5 38.5 52.5 94.5q-50 29 -119 29q-51 0 -85 -23.5t-34 -66.5q0 -34 24.5 -53t60.5 -19q57 0 100.5 38.5zM189 620.5q-19 19.5 -19 44.5q0 27 19 45.5t45 18.5q27 0 45.5 -18t18.5 -46q0 -26 -18.5 -45t-45.5 -19q-26 0 -45 19.5zM368 620
q-19 19 -19 45q0 27 18.5 45.5t44.5 18.5q28 0 46 -18t18 -46q0 -26 -18.5 -45t-45.5 -19q-25 0 -44 19z" />
    <glyph glyph-name="aring" unicode="&#xe5;" horiz-adv-x="535" 
d="M97.5 3.5q-38.5 19.5 -60 55t-21.5 79.5q0 55 29 96.5t82 64t123 22.5q67 0 132 -28l4 21q3 9 3 20q0 37 -30.5 61t-77.5 24q-38 0 -69 -15t-56 -46l-79 57q36 47 92.5 72t123.5 25q96 0 149 -45t53 -123q0 -20 -5 -52l-52 -292h-108l11 61h-6q-25 -35 -64 -56t-88 -21
q-47 0 -85.5 19.5zM314.5 113.5q43.5 38.5 52.5 94.5q-50 29 -119 29q-51 0 -85 -23.5t-34 -66.5q0 -34 24.5 -53t60.5 -19q57 0 100.5 38.5zM250 603q-31 31 -31 75t31 75t75 31t75 -31t31 -75q0 -43 -31.5 -74.5t-74.5 -31.5q-44 0 -75 31zM352.5 650q11.5 12 11.5 28
t-11.5 28t-27.5 12q-17 0 -28.5 -11.5t-11.5 -28.5q0 -16 12 -28t28 -12t27.5 12z" />
    <glyph glyph-name="ae" unicode="&#xe6;" horiz-adv-x="921" 
d="M98.5 3.5q-38.5 19.5 -60.5 55t-22 79.5q0 85 66 134t170 49q69 0 131 -27l4 21q2 10 2 18q0 39 -29.5 62.5t-75.5 23.5q-39 0 -72 -16t-50 -45l-86 45q71 109 220 109q59 0 102 -23.5t66 -64.5q38 42 89 65t110 23q66 0 113.5 -27.5t72.5 -75t25 -105.5q0 -41 -11 -79
h-382q-2 -10 -2 -21q1 -58 38 -89.5t88 -31.5q98 0 150 81l85 -45q-84 -135 -243 -135q-68 0 -116 29.5t-76 80.5q-41 -54 -97 -82t-123 -28q-48 0 -86.5 19.5zM767 309v7q0 41 -29.5 71.5t-88.5 30.5q-53 0 -94 -31t-57 -78h269zM314.5 113.5q43.5 38.5 52.5 94.5
q-58 29 -119 29q-51 0 -85 -23.5t-34 -66.5q0 -34 24.5 -53t60.5 -19q57 0 100.5 38.5z" />
    <glyph glyph-name="ccedilla" unicode="&#xe7;" horiz-adv-x="547" 
d="M332.5 107.5q35.5 22.5 57.5 61.5l92 -43q-43 -73 -102 -107.5t-143 -34.5l-19 -32q12 2 19 2q35 0 56.5 -24t21.5 -63q0 -46 -31.5 -75t-81.5 -29q-34 0 -61 19.5t-33 46.5l61 25q2 -13 12.5 -22t24.5 -9q17 0 29 11.5t12 30.5q0 14 -9 23.5t-24 9.5q-16 0 -31 -15
l-49 24l47 83q-77 18 -123.5 79.5t-46.5 145.5q0 82 38 150t106.5 107.5t154.5 39.5q82 0 135.5 -40.5t71.5 -101.5l-103 -40q-12 39 -42.5 60t-75.5 21q-49 0 -89 -24.5t-62.5 -67t-22.5 -94.5q0 -60 36 -100t94 -40q45 0 80.5 22.5z" />
    <glyph glyph-name="egrave" unicode="&#xe8;" horiz-adv-x="562" 
d="M118 15q-52 31 -79.5 83.5t-27.5 116.5q0 78 36 146t102 109.5t151 41.5q68 0 116 -28t73 -75t25 -105q0 -44 -11 -79h-382q-1 -8 -1 -21q1 -58 38 -89.5t89 -31.5q98 0 150 82l84 -46q-41 -66 -101.5 -100.5t-139.5 -34.5q-70 0 -122 31zM408 309v7q0 42 -31.5 72
t-86.5 30q-54 0 -95.5 -30.5t-57.5 -78.5h271zM217 726h121l24 -132h-89z" />
    <glyph glyph-name="eacute" unicode="&#xe9;" horiz-adv-x="562" 
d="M118 15q-52 31 -79.5 83.5t-27.5 116.5q0 78 36 146t102 109.5t151 41.5q68 0 116 -28t73 -75t25 -105q0 -44 -11 -79h-382q-1 -8 -1 -21q1 -58 38 -89.5t89 -31.5q98 0 150 82l84 -46q-41 -66 -101.5 -100.5t-139.5 -34.5q-70 0 -122 31zM408 309v7q0 42 -31.5 72
t-86.5 30q-54 0 -95.5 -30.5t-57.5 -78.5h271zM339 726h126l-104 -132h-93z" />
    <glyph glyph-name="ecircumflex" unicode="&#xea;" horiz-adv-x="562" 
d="M118 15q-52 31 -79.5 83.5t-27.5 116.5q0 78 36 146t102 109.5t151 41.5q68 0 116 -28t73 -75t25 -105q0 -44 -11 -79h-382q-1 -8 -1 -21q1 -58 38 -89.5t89 -31.5q98 0 150 82l84 -46q-41 -66 -101.5 -100.5t-139.5 -34.5q-70 0 -122 31zM408 309v7q0 42 -31.5 72
t-86.5 30q-54 0 -95.5 -30.5t-57.5 -78.5h271zM158 601l128 121h97l87 -121l-1 -6h-101l-36 59h-10l-54 -59h-112z" />
    <glyph glyph-name="edieresis" unicode="&#xeb;" horiz-adv-x="562" 
d="M118 15q-52 31 -79.5 83.5t-27.5 116.5q0 78 36 146t102 109.5t151 41.5q68 0 116 -28t73 -75t25 -105q0 -44 -11 -79h-382q-1 -8 -1 -21q1 -58 38 -89.5t89 -31.5q98 0 150 82l84 -46q-41 -66 -101.5 -100.5t-139.5 -34.5q-70 0 -122 31zM408 309v7q0 42 -31.5 72
t-86.5 30q-54 0 -95.5 -30.5t-57.5 -78.5h271zM194 620.5q-19 19.5 -19 44.5q0 27 19 45.5t45 18.5q27 0 45.5 -18t18.5 -46q0 -26 -18.5 -45t-45.5 -19q-26 0 -45 19.5zM373 620q-19 19 -19 45q0 27 18.5 45.5t44.5 18.5q28 0 46 -18t18 -46q0 -26 -18.5 -45t-45.5 -19
q-25 0 -44 19z" />
    <glyph glyph-name="igrave" unicode="&#xec;" horiz-adv-x="250" 
d="M92 496h110l-86 -496h-110zM66 726h121l24 -132h-89z" />
    <glyph glyph-name="iacute" unicode="&#xed;" horiz-adv-x="250" 
d="M92 496h110l-86 -496h-110zM188 726h126l-104 -132h-93z" />
    <glyph glyph-name="icircumflex" unicode="&#xee;" horiz-adv-x="250" 
d="M92 496h110l-86 -496h-110zM6 601l128 121h97l87 -121l-1 -6h-101l-36 59h-10l-54 -59h-112z" />
    <glyph glyph-name="idieresis" unicode="&#xef;" horiz-adv-x="250" 
d="M58 621.5q-19 18.5 -19 43.5q0 27 18.5 45t44.5 18t44 -18t18 -45q0 -25 -18 -43.5t-44 -18.5q-25 0 -44 18.5zM209 621.5q-19 18.5 -19 43.5q0 27 18.5 45t44.5 18t44 -18t18 -45q0 -25 -18 -43.5t-44 -18.5q-25 0 -44 18.5zM92 496h110l-86 -496h-110z" />
    <glyph glyph-name="eth" unicode="&#xf0;" horiz-adv-x="577" 
d="M126 12.5q-52 28.5 -82 78.5t-30 112q0 75 34.5 138.5t97 100.5t141.5 37q39 0 70 -12t51 -32l7 4q-19 64 -72 116l-127 -52l-28 68l84 34q-41 21 -92 34l33 87q97 -24 167 -77l114 48l27 -68l-83 -35q44 -54 67 -124t23 -152q0 -90 -32.5 -166t-97.5 -122t-158 -46
q-62 0 -114 28.5zM329.5 108q35.5 22 56.5 59.5t21 81.5q0 58 -32.5 94.5t-90.5 36.5q-46 0 -82.5 -23t-57 -62t-20.5 -84q0 -56 37 -90.5t92 -34.5q41 0 76.5 22z" />
    <glyph glyph-name="ntilde" unicode="&#xf1;" horiz-adv-x="572" 
d="M184 430q26 38 68.5 60t95.5 22q74 0 117 -42.5t43 -110.5q0 -33 -7 -68l-51 -291h-110l52 292q3 20 3 38q0 38 -24.5 59.5t-66.5 21.5q-57 0 -97 -41.5t-52 -106.5l-46 -263h-110l87 496h104l-12 -66h6zM385 603q-15 6 -36 18q-18 10 -30 15t-25 5q-27 0 -36 -32h-83
q8 60 40 91t80 31q18 0 32.5 -5.5t38.5 -18.5q33 -20 53 -20q29 0 36 32h84q-8 -60 -40 -91t-80 -31q-19 0 -34 6z" />
    <glyph glyph-name="ograve" unicode="&#xf2;" horiz-adv-x="584" 
d="M123 15.5q-53 31.5 -82.5 85t-29.5 118.5q0 82 38 149t106 105.5t154 38.5q68 0 121 -31.5t82.5 -85t29.5 -117.5q0 -82 -38 -149.5t-106 -106t-153 -38.5q-69 0 -122 31.5zM346.5 110q39.5 25 62 67t22.5 91q0 62 -38.5 102.5t-95.5 40.5q-50 0 -90 -25t-62 -67t-22 -91
q0 -62 38 -102.5t95 -40.5q51 0 90.5 25zM229 726h121l24 -132h-89z" />
    <glyph glyph-name="oacute" unicode="&#xf3;" horiz-adv-x="584" 
d="M123 15.5q-53 31.5 -82.5 85t-29.5 118.5q0 82 38 149t106 105.5t154 38.5q68 0 121 -31.5t82.5 -85t29.5 -117.5q0 -82 -38 -149.5t-106 -106t-153 -38.5q-69 0 -122 31.5zM346.5 110q39.5 25 62 67t22.5 91q0 62 -38.5 102.5t-95.5 40.5q-50 0 -90 -25t-62 -67t-22 -91
q0 -62 38 -102.5t95 -40.5q51 0 90.5 25zM351 726h126l-104 -132h-93z" />
    <glyph glyph-name="ocircumflex" unicode="&#xf4;" horiz-adv-x="584" 
d="M123 15.5q-53 31.5 -82.5 85t-29.5 118.5q0 82 38 149t106 105.5t154 38.5q68 0 121 -31.5t82.5 -85t29.5 -117.5q0 -82 -38 -149.5t-106 -106t-153 -38.5q-69 0 -122 31.5zM346.5 110q39.5 25 62 67t22.5 91q0 62 -38.5 102.5t-95.5 40.5q-50 0 -90 -25t-62 -67t-22 -91
q0 -62 38 -102.5t95 -40.5q51 0 90.5 25zM170 601l128 121h97l87 -121l-1 -6h-101l-36 59h-10l-54 -59h-112z" />
    <glyph glyph-name="otilde" unicode="&#xf5;" horiz-adv-x="584" 
d="M123 15.5q-53 31.5 -82.5 85t-29.5 118.5q0 82 38 149t106 105.5t154 38.5q68 0 121 -31.5t82.5 -85t29.5 -117.5q0 -82 -38 -149.5t-106 -106t-153 -38.5q-69 0 -122 31.5zM346.5 110q39.5 25 62 67t22.5 91q0 62 -38.5 102.5t-95.5 40.5q-50 0 -90 -25t-62 -67t-22 -91
q0 -62 38 -102.5t95 -40.5q51 0 90.5 25zM368 603q-15 6 -36 18q-18 10 -30 15t-25 5q-27 0 -36 -32h-83q8 60 40 91t80 31q18 0 32.5 -5.5t38.5 -18.5q33 -20 53 -20q29 0 36 32h84q-8 -60 -40 -91t-80 -31q-19 0 -34 6z" />
    <glyph glyph-name="odieresis" unicode="&#xf6;" horiz-adv-x="584" 
d="M123 15.5q-53 31.5 -82.5 85t-29.5 118.5q0 82 38 149t106 105.5t154 38.5q68 0 121 -31.5t82.5 -85t29.5 -117.5q0 -82 -38 -149.5t-106 -106t-153 -38.5q-69 0 -122 31.5zM346.5 110q39.5 25 62 67t22.5 91q0 62 -38.5 102.5t-95.5 40.5q-50 0 -90 -25t-62 -67t-22 -91
q0 -62 38 -102.5t95 -40.5q51 0 90.5 25zM206 620.5q-19 19.5 -19 44.5q0 27 19 45.5t45 18.5q27 0 45.5 -18t18.5 -46q0 -26 -18.5 -45t-45.5 -19q-26 0 -45 19.5zM385 620q-19 19 -19 45q0 27 18.5 45.5t44.5 18.5q28 0 46 -18t18 -46q0 -26 -18.5 -45t-45.5 -19
q-25 0 -44 19z" />
    <glyph glyph-name="divide" unicode="&#xf7;" horiz-adv-x="559" 
d="M244.5 408q-21.5 22 -21.5 53t21.5 52.5t52.5 21.5t53 -21.5t22 -52.5t-21.5 -53t-53.5 -22q-31 0 -52.5 22zM49 316h447l-17 -90h-447zM178 28.5q-22 21.5 -22 52.5q0 32 22 53.5t53 21.5t52.5 -22t21.5 -53t-21.5 -52.5t-52.5 -21.5t-53 21.5z" />
    <glyph glyph-name="oslash" unicode="&#xf8;" horiz-adv-x="584" 
d="M36 9l37 46q-30 32 -46 74.5t-16 89.5q0 82 38 149t106 105.5t154 38.5q58 0 108 -24l42 51l64 -52l-40 -50q29 -32 44 -72.5t15 -86.5q0 -82 -38 -149.5t-106 -106t-153 -38.5q-55 0 -104 23l-38 -48zM350 403q-27 12 -53 12q-50 0 -90.5 -26t-63 -69t-22.5 -92t23 -84z
M347.5 106.5q40.5 25.5 63 68.5t22.5 93q0 45 -22 78l-203 -255q21 -10 48 -10q51 0 91.5 25.5z" />
    <glyph glyph-name="ugrave" unicode="&#xf9;" horiz-adv-x="572" 
d="M349 66q-26 -38 -68.5 -60t-95.5 -22q-74 0 -117 42.5t-43 110.5q0 31 6 68l52 291h110l-52 -291q-4 -26 -4 -38q0 -39 24.5 -60.5t66.5 -21.5q58 0 98 41.5t52 106.5l46 263h110l-87 -496h-104l12 66h-6zM227 726h121l24 -132h-89z" />
    <glyph glyph-name="uacute" unicode="&#xfa;" horiz-adv-x="572" 
d="M349 66q-26 -38 -68.5 -60t-95.5 -22q-74 0 -117 42.5t-43 110.5q0 31 6 68l52 291h110l-52 -291q-4 -26 -4 -38q0 -39 24.5 -60.5t66.5 -21.5q58 0 98 41.5t52 106.5l46 263h110l-87 -496h-104l12 66h-6zM349 726h126l-104 -132h-93z" />
    <glyph glyph-name="ucircumflex" unicode="&#xfb;" horiz-adv-x="572" 
d="M349 66q-26 -38 -68.5 -60t-95.5 -22q-74 0 -117 42.5t-43 110.5q0 31 6 68l52 291h110l-52 -291q-4 -26 -4 -38q0 -39 24.5 -60.5t66.5 -21.5q58 0 98 41.5t52 106.5l46 263h110l-87 -496h-104l12 66h-6zM168 601l128 121h97l87 -121l-1 -6h-101l-36 59h-10l-54 -59
h-112z" />
    <glyph glyph-name="udieresis" unicode="&#xfc;" horiz-adv-x="572" 
d="M349 66q-26 -38 -68.5 -60t-95.5 -22q-74 0 -117 42.5t-43 110.5q0 31 6 68l52 291h110l-52 -291q-4 -26 -4 -38q0 -39 24.5 -60.5t66.5 -21.5q58 0 98 41.5t52 106.5l46 263h110l-87 -496h-104l12 66h-6zM204 620.5q-19 19.5 -19 44.5q0 27 19 45.5t45 18.5
q27 0 45.5 -18t18.5 -46q0 -26 -18.5 -45t-45.5 -19q-26 0 -45 19.5zM383 620q-19 19 -19 45q0 27 18.5 45.5t44.5 18.5q28 0 46 -18t18 -46q0 -26 -18.5 -45t-45.5 -19q-25 0 -44 19z" />
    <glyph glyph-name="yacute" unicode="&#xfd;" horiz-adv-x="535" 
d="M166 30l-123 466h120l81 -333h4l194 333h124l-436 -712h-119zM337 726h126l-104 -132h-93z" />
    <glyph glyph-name="thorn" unicode="&#xfe;" horiz-adv-x="592" 
d="M136 716h110l-38 -215l-17 -69h5q26 36 67.5 58t99.5 22t104.5 -29t73 -81.5t26.5 -120.5q0 -79 -36.5 -147t-101.5 -109t-146 -41q-50 0 -91.5 23t-60.5 58h-6l-6 -70l-37 -211h-110zM372 110q39 25 61 68t22 95q0 64 -35 101t-94 37q-46 0 -85.5 -25.5t-62.5 -69
t-23 -96.5q0 -62 36.5 -98.5t92.5 -36.5q49 0 88 25z" />
    <glyph glyph-name="ydieresis" unicode="&#xff;" horiz-adv-x="535" 
d="M166 30l-123 466h120l81 -333h4l194 333h124l-436 -712h-119zM192 620.5q-19 19.5 -19 44.5q0 27 19 45.5t45 18.5q27 0 45.5 -18t18.5 -46q0 -26 -18.5 -45t-45.5 -19q-26 0 -45 19.5zM371 620q-19 19 -19 45q0 27 18.5 45.5t44.5 18.5q28 0 46 -18t18 -46
q0 -26 -18.5 -45t-45.5 -19q-25 0 -44 19z" />
    <glyph glyph-name="Amacron" unicode="&#x100;" horiz-adv-x="694" 
d="M344 716h129l143 -716h-120l-33 183h-288l-98 -183h-127zM443 287l-39 213l-13 83h-6l-42 -83l-113 -213h213zM289 886h288l-15 -86h-288z" />
    <glyph glyph-name="amacron" unicode="&#x101;" horiz-adv-x="535" 
d="M97.5 3.5q-38.5 19.5 -60 55t-21.5 79.5q0 55 29 96.5t82 64t123 22.5q67 0 132 -28l4 21q3 9 3 20q0 37 -30.5 61t-77.5 24q-38 0 -69 -15t-56 -46l-79 57q36 47 92.5 72t123.5 25q96 0 149 -45t53 -123q0 -20 -5 -52l-52 -292h-108l11 61h-6q-25 -35 -64 -56t-88 -21
q-47 0 -85.5 19.5zM314.5 113.5q43.5 38.5 52.5 94.5q-50 29 -119 29q-51 0 -85 -23.5t-34 -66.5q0 -34 24.5 -53t60.5 -19q57 0 100.5 38.5zM186 708h288l-15 -85h-288z" />
    <glyph glyph-name="Abreve" unicode="&#x102;" horiz-adv-x="694" 
d="M344 716h129l143 -716h-120l-33 183h-288l-98 -183h-127zM443 287l-39 213l-13 83h-6l-42 -83l-113 -213h213zM333.5 797.5q-33.5 30.5 -33.5 77.5q0 6 2 22h83q-1 -4 -1 -10q0 -17 11 -29t31 -12q22 0 37.5 14t20.5 37h82q-10 -64 -49.5 -97t-100.5 -33
q-49 0 -82.5 30.5z" />
    <glyph glyph-name="abreve" unicode="&#x103;" horiz-adv-x="535" 
d="M97.5 3.5q-38.5 19.5 -60 55t-21.5 79.5q0 55 29 96.5t82 64t123 22.5q67 0 132 -28l4 21q3 9 3 20q0 37 -30.5 61t-77.5 24q-38 0 -69 -15t-56 -46l-79 57q36 47 92.5 72t123.5 25q96 0 149 -45t53 -123q0 -20 -5 -52l-52 -292h-108l11 61h-6q-25 -35 -64 -56t-88 -21
q-47 0 -85.5 19.5zM314.5 113.5q43.5 38.5 52.5 94.5q-50 29 -119 29q-51 0 -85 -23.5t-34 -66.5q0 -34 24.5 -53t60.5 -19q57 0 100.5 38.5zM228.5 619.5q-33.5 30.5 -33.5 77.5q0 6 2 22h83q-1 -4 -1 -10q0 -17 11 -29t31 -12q22 0 37.5 14t20.5 37h82q-10 -64 -49.5 -97
t-100.5 -33q-49 0 -82.5 30.5z" />
    <glyph glyph-name="Aogonek" unicode="&#x104;" horiz-adv-x="694" 
d="M458.5 -197.5q-29.5 26.5 -29.5 67.5q0 73 75 128l-1 2h-7l-33 183h-288l-98 -183h-127l394 716h129l143 -716q-34 -19 -61 -48t-27 -57q0 -16 10 -25t25 -9q19 0 42 10l-15 -86q-13 -5 -24 -7t-29 -2q-49 0 -78.5 26.5zM443 287l-39 213l-13 83h-6l-42 -83l-113 -213
h213z" />
    <glyph glyph-name="aogonek" unicode="&#x105;" horiz-adv-x="535" 
d="M280.5 -197.5q-29.5 26.5 -29.5 67.5q0 78 82 127l-3 3l11 61h-6q-25 -35 -64 -56t-88 -21q-47 0 -85.5 19.5t-60 55t-21.5 79.5q0 55 29 96.5t82 64t123 22.5q67 0 132 -28l4 21q3 9 3 20q0 37 -30.5 61t-77.5 24q-38 0 -69 -15t-56 -46l-79 57q36 47 92.5 72t123.5 25
q96 0 149 -45t53 -123q0 -20 -5 -52l-52 -292q-34 -19 -61 -48t-27 -57q0 -16 10 -25t25 -9q11 0 19.5 2t22.5 8l-15 -86q-13 -5 -24 -7t-29 -2q-49 0 -78.5 26.5zM314.5 113.5q43.5 38.5 52.5 94.5q-50 29 -119 29q-51 0 -85 -23.5t-34 -66.5q0 -34 24.5 -53t60.5 -19
q57 0 100.5 38.5z" />
    <glyph glyph-name="Cacute" unicode="&#x106;" horiz-adv-x="743" 
d="M192 24q-73 40 -114.5 114t-41.5 172q0 111 56 208t155 155.5t221 58.5q84 0 149.5 -33t102.5 -88l-89 -74q-32 45 -74.5 66.5t-101.5 21.5q-83 0 -153 -42.5t-111.5 -114t-41.5 -152.5q0 -68 28.5 -119t78.5 -78.5t113 -27.5q66 0 118.5 25.5t104.5 76.5l71 -81
q-68 -67 -139.5 -97.5t-166.5 -30.5q-92 0 -165 40zM491 904h126l-104 -132h-93z" />
    <glyph glyph-name="cacute" unicode="&#x107;" horiz-adv-x="547" 
d="M119.5 14q-51.5 30 -80 83t-28.5 118q0 82 38 150t106.5 107.5t154.5 39.5q82 0 135.5 -40.5t71.5 -101.5l-103 -40q-12 39 -42.5 60t-75.5 21q-49 0 -89 -24.5t-62.5 -67t-22.5 -94.5q0 -60 36 -100t94 -40q45 0 80.5 22.5t57.5 61.5l92 -43q-43 -73 -102.5 -107.5
t-143.5 -34.5q-65 0 -116.5 30zM343 726h126l-104 -132h-93z" />
    <glyph glyph-name="Ccircumflex" unicode="&#x108;" horiz-adv-x="743" 
d="M192 24q-73 40 -114.5 114t-41.5 172q0 111 56 208t155 155.5t221 58.5q84 0 149.5 -33t102.5 -88l-89 -74q-32 45 -74.5 66.5t-101.5 21.5q-83 0 -153 -42.5t-111.5 -114t-41.5 -152.5q0 -68 28.5 -119t78.5 -78.5t113 -27.5q66 0 118.5 25.5t104.5 76.5l71 -81
q-68 -67 -139.5 -97.5t-166.5 -30.5q-92 0 -165 40zM309 785l127 121h98l87 -121l-2 -7h-100l-37 60h-9l-54 -60h-112z" />
    <glyph glyph-name="ccircumflex" unicode="&#x109;" horiz-adv-x="547" 
d="M119.5 14q-51.5 30 -80 83t-28.5 118q0 82 38 150t106.5 107.5t154.5 39.5q82 0 135.5 -40.5t71.5 -101.5l-103 -40q-12 39 -42.5 60t-75.5 21q-49 0 -89 -24.5t-62.5 -67t-22.5 -94.5q0 -60 36 -100t94 -40q45 0 80.5 22.5t57.5 61.5l92 -43q-43 -73 -102.5 -107.5
t-143.5 -34.5q-65 0 -116.5 30zM162 601l128 121h97l87 -121l-1 -6h-101l-36 59h-10l-54 -59h-112z" />
    <glyph glyph-name="Cdotaccent" unicode="&#x10a;" horiz-adv-x="743" 
d="M192 24q-73 40 -114.5 114t-41.5 172q0 111 56 208t155 155.5t221 58.5q84 0 149.5 -33t102.5 -88l-89 -74q-32 45 -74.5 66.5t-101.5 21.5q-83 0 -153 -42.5t-111.5 -114t-41.5 -152.5q0 -68 28.5 -119t78.5 -78.5t113 -27.5q66 0 118.5 25.5t104.5 76.5l71 -81
q-68 -67 -139.5 -97.5t-166.5 -30.5q-92 0 -165 40zM438.5 813.5q-18.5 18.5 -18.5 42.5q0 25 18.5 43t42.5 18q25 0 43 -17.5t18 -43.5q0 -24 -18 -42.5t-43 -18.5q-24 0 -42.5 18.5z" />
    <glyph glyph-name="cdotaccent" unicode="&#x10b;" horiz-adv-x="547" 
d="M119.5 14q-51.5 30 -80 83t-28.5 118q0 82 38 150t106.5 107.5t154.5 39.5q82 0 135.5 -40.5t71.5 -101.5l-103 -40q-12 39 -42.5 60t-75.5 21q-49 0 -89 -24.5t-62.5 -67t-22.5 -94.5q0 -60 36 -100t94 -40q45 0 80.5 22.5t57.5 61.5l92 -43q-43 -73 -102.5 -107.5
t-143.5 -34.5q-65 0 -116.5 30zM285.5 615.5q-19.5 19.5 -19.5 45.5q0 28 19.5 47t46.5 19q28 0 46.5 -19t18.5 -47q0 -27 -19 -46t-46 -19t-46.5 19.5z" />
    <glyph glyph-name="Ccaron" unicode="&#x10c;" horiz-adv-x="743" 
d="M192 24q-73 40 -114.5 114t-41.5 172q0 111 56 208t155 155.5t221 58.5q84 0 149.5 -33t102.5 -88l-89 -74q-32 45 -74.5 66.5t-101.5 21.5q-83 0 -153 -42.5t-111.5 -114t-41.5 -152.5q0 -68 28.5 -119t78.5 -78.5t113 -27.5q66 0 118.5 25.5t104.5 76.5l71 -81
q-68 -67 -139.5 -97.5t-166.5 -30.5q-92 0 -165 40zM336 899l2 7h100l37 -59h10l54 59h111l-2 -7l-127 -121h-98z" />
    <glyph glyph-name="ccaron" unicode="&#x10d;" horiz-adv-x="547" 
d="M119.5 14q-51.5 30 -80 83t-28.5 118q0 82 38 150t106.5 107.5t154.5 39.5q82 0 135.5 -40.5t71.5 -101.5l-103 -40q-12 39 -42.5 60t-75.5 21q-49 0 -89 -24.5t-62.5 -67t-22.5 -94.5q0 -60 36 -100t94 -40q45 0 80.5 22.5t57.5 61.5l92 -43q-43 -73 -102.5 -107.5
t-143.5 -34.5q-65 0 -116.5 30zM188 716l2 6h100l37 -59h10l54 59h111l-1 -6l-128 -121h-98z" />
    <glyph glyph-name="Dcaron" unicode="&#x10e;" horiz-adv-x="718" 
d="M141 716h223q100 0 171.5 -40t108 -110.5t36.5 -160.5q0 -108 -51.5 -201t-148 -148.5t-225.5 -55.5h-241zM261 107q87 0 156.5 37.5t109 103t39.5 146.5q0 104 -56 159.5t-161 55.5h-115l-89 -502h116zM238 893l2 7h100l37 -59h10l54 59h111l-2 -7l-127 -121h-98z" />
    <glyph glyph-name="dcaron" unicode="&#x10f;" horiz-adv-x="702" 
d="M110.5 13q-46.5 29 -73 81.5t-26.5 120.5q0 79 36.5 147t101.5 109t146 41q49 0 90.5 -23t60.5 -57h6l6 69l38 215h110l-126 -716h-104l11 65h-6q-57 -81 -166 -81q-58 0 -104.5 29zM337.5 110.5q39.5 25.5 62.5 69.5t23 96q0 62 -36.5 98.5t-93.5 36.5q-48 0 -87 -25
t-61.5 -68t-22.5 -94q0 -64 35 -101.5t95 -37.5q46 0 85.5 25.5zM664 716h118l-76 -209h-79z" />
    <glyph glyph-name="Dcroat" unicode="&#x110;" horiz-adv-x="713" 
d="M-7 327l14 90h77l53 299h223q100 0 171.5 -40t108 -110.5t36.5 -160.5q0 -108 -51.5 -201t-148 -148.5t-225.5 -55.5h-241l58 327h-75zM413.5 144.5q69.5 37.5 109 103t39.5 146.5q0 104 -56 159.5t-161 55.5h-115l-34 -192h181l-15 -90h-182l-39 -220h115
q88 0 157.5 37.5z" />
    <glyph glyph-name="dcroat" unicode="&#x111;" horiz-adv-x="602" 
d="M110.5 13q-46.5 29 -73 81.5t-26.5 120.5q0 79 36.5 147t101.5 109t146 41q49 0 90.5 -23t60.5 -57h6l6 69l12 69h-142l15 81h141l12 65h110l-12 -65h61l-14 -81h-60l-101 -570h-104l11 65h-6q-57 -81 -166 -81q-58 0 -104.5 29zM337.5 110.5q39.5 25.5 62.5 69.5t23 96
q0 62 -36.5 98.5t-93.5 36.5q-48 0 -87 -25t-61.5 -68t-22.5 -94q0 -64 35 -101.5t95 -37.5q46 0 85.5 25.5z" />
    <glyph glyph-name="Emacron" unicode="&#x112;" horiz-adv-x="570" 
d="M141 716h435l-19 -107h-323l-35 -198h291l-19 -106h-291l-35 -198h323l-19 -107h-435zM246 886h288l-15 -86h-288z" />
    <glyph glyph-name="emacron" unicode="&#x113;" horiz-adv-x="562" 
d="M118 15q-52 31 -79.5 83.5t-27.5 116.5q0 78 36 146t102 109.5t151 41.5q68 0 116 -28t73 -75t25 -105q0 -44 -11 -79h-382q-1 -8 -1 -21q1 -58 38 -89.5t89 -31.5q98 0 150 82l84 -46q-41 -66 -101.5 -100.5t-139.5 -34.5q-70 0 -122 31zM408 309v7q0 42 -31.5 72
t-86.5 30q-54 0 -95.5 -30.5t-57.5 -78.5h271zM191 708h288l-15 -85h-288z" />
    <glyph glyph-name="Ebreve" unicode="&#x114;" horiz-adv-x="570" 
d="M141 716h435l-19 -107h-323l-35 -198h291l-19 -106h-291l-35 -198h323l-19 -107h-435zM290.5 797.5q-33.5 30.5 -33.5 77.5q0 6 2 22h83q-1 -4 -1 -10q0 -17 11 -29t31 -12q22 0 37.5 14t20.5 37h82q-10 -64 -49.5 -97t-100.5 -33q-49 0 -82.5 30.5z" />
    <glyph glyph-name="ebreve" unicode="&#x115;" horiz-adv-x="562" 
d="M118 15q-52 31 -79.5 83.5t-27.5 116.5q0 78 36 146t102 109.5t151 41.5q68 0 116 -28t73 -75t25 -105q0 -44 -11 -79h-382q-1 -8 -1 -21q1 -58 38 -89.5t89 -31.5q98 0 150 82l84 -46q-41 -66 -101.5 -100.5t-139.5 -34.5q-70 0 -122 31zM408 309v7q0 42 -31.5 72
t-86.5 30q-54 0 -95.5 -30.5t-57.5 -78.5h271zM233.5 619.5q-33.5 30.5 -33.5 77.5q0 6 2 22h83q-1 -4 -1 -10q0 -17 11 -29t31 -12q22 0 37.5 14t20.5 37h82q-10 -64 -49.5 -97t-100.5 -33q-49 0 -82.5 30.5z" />
    <glyph glyph-name="Edotaccent" unicode="&#x116;" horiz-adv-x="570" 
d="M141 716h435l-19 -107h-323l-35 -198h291l-19 -106h-291l-35 -198h323l-19 -107h-435zM342.5 813.5q-18.5 18.5 -18.5 42.5q0 25 18.5 43t42.5 18q25 0 43 -17.5t18 -43.5q0 -24 -18 -42.5t-43 -18.5q-24 0 -42.5 18.5z" />
    <glyph glyph-name="edotaccent" unicode="&#x117;" horiz-adv-x="562" 
d="M118 15q-52 31 -79.5 83.5t-27.5 116.5q0 78 36 146t102 109.5t151 41.5q68 0 116 -28t73 -75t25 -105q0 -44 -11 -79h-382q-1 -8 -1 -21q1 -58 38 -89.5t89 -31.5q98 0 150 82l84 -46q-41 -66 -101.5 -100.5t-139.5 -34.5q-70 0 -122 31zM408 309v7q0 42 -31.5 72
t-86.5 30q-54 0 -95.5 -30.5t-57.5 -78.5h271zM281.5 615.5q-19.5 19.5 -19.5 45.5q0 28 19.5 47t46.5 19q28 0 46.5 -19t18.5 -47q0 -27 -19 -46t-46 -19t-46.5 19.5z" />
    <glyph glyph-name="Eogonek" unicode="&#x118;" horiz-adv-x="570" 
d="M141 716h435l-19 -107h-323l-35 -198h291l-19 -106h-291l-35 -198h323l-19 -107h-435zM291.5 -197.5q-29.5 26.5 -29.5 67.5q0 40 22 73t61 57h104q-33 -19 -60.5 -48t-27.5 -57q0 -16 10 -25t25 -9q19 0 42 10l-15 -86q-13 -5 -24 -7t-29 -2q-49 0 -78.5 26.5z" />
    <glyph glyph-name="eogonek" unicode="&#x119;" horiz-adv-x="562" 
d="M184 -197.5q-30 26.5 -30 67.5q0 67 62 115q-63 5 -109.5 37t-71 82.5t-24.5 110.5q0 78 36 146t102 109.5t151 41.5q68 0 116 -28t73 -75t25 -105q0 -44 -11 -79h-382q-1 -8 -1 -21q1 -58 38 -89.5t89 -31.5q98 0 150 82l84 -46q-47 -76 -126 -114q-43 -19 -72.5 -49.5
t-29.5 -60.5q0 -16 10 -25t25 -9q17 0 36 8l-2 -83q-24 -10 -59 -10q-49 0 -79 26.5zM408 309v7q0 42 -31.5 72t-86.5 30q-54 0 -95.5 -30.5t-57.5 -78.5h271z" />
    <glyph glyph-name="Ecaron" unicode="&#x11a;" horiz-adv-x="570" 
d="M141 716h435l-19 -107h-323l-35 -198h291l-19 -106h-291l-35 -198h323l-19 -107h-435zM240 899l2 7h100l37 -59h10l54 59h111l-2 -7l-127 -121h-98z" />
    <glyph glyph-name="ecaron" unicode="&#x11b;" horiz-adv-x="562" 
d="M118 15q-52 31 -79.5 83.5t-27.5 116.5q0 78 36 146t102 109.5t151 41.5q68 0 116 -28t73 -75t25 -105q0 -44 -11 -79h-382q-1 -8 -1 -21q1 -58 38 -89.5t89 -31.5q98 0 150 82l84 -46q-41 -66 -101.5 -100.5t-139.5 -34.5q-70 0 -122 31zM408 309v7q0 42 -31.5 72
t-86.5 30q-54 0 -95.5 -30.5t-57.5 -78.5h271zM184 716l2 6h100l37 -59h10l54 59h111l-1 -6l-128 -121h-98z" />
    <glyph glyph-name="Gcircumflex" unicode="&#x11c;" horiz-adv-x="817" 
d="M202 25.5q-76 41.5 -120.5 117.5t-44.5 175q0 111 55 206t154.5 151.5t226.5 56.5q82 0 150 -30.5t106 -82.5l-90 -76q-25 37 -73.5 59.5t-107.5 22.5q-85 0 -155 -39t-111 -108t-41 -155q0 -72 30.5 -124.5t83 -80t115.5 -27.5q116 0 191 73q49 46 72 124h-239l18 100
h348q1 -20 -2 -48q-16 -151 -116 -248q-110 -108 -282 -108q-92 0 -168 41.5zM317 785l127 121h98l87 -121l-2 -7h-100l-37 60h-9l-54 -60h-112z" />
    <glyph glyph-name="gcircumflex" unicode="&#x11d;" horiz-adv-x="601" 
d="M104 -210.5q-45 21.5 -71.5 55t-35.5 69.5l107 41q8 -41 38.5 -64.5t76.5 -23.5q72 0 117 40.5t58 114.5l8 46h-6q-24 -37 -65.5 -57t-96.5 -20q-57 0 -103.5 28t-73.5 80t-27 120q0 74 34.5 141.5t98.5 109.5t147 42q52 0 91.5 -21.5t59.5 -55.5h6l11 61h105l-86 -487
q-21 -121 -96.5 -181t-192.5 -60q-59 0 -104 21.5zM352 116.5q40 25.5 63 69.5t23 96q0 60 -36 95t-88 35q-51 0 -90.5 -26t-61 -69.5t-21.5 -92.5q0 -63 35 -98t89 -35q47 0 87 25.5zM176 601l128 121h97l87 -121l-1 -6h-101l-36 59h-10l-54 -59h-112z" />
    <glyph glyph-name="Gbreve" unicode="&#x11e;" horiz-adv-x="817" 
d="M202 25.5q-76 41.5 -120.5 117.5t-44.5 175q0 111 55 206t154.5 151.5t226.5 56.5q82 0 150 -30.5t106 -82.5l-90 -76q-25 37 -73.5 59.5t-107.5 22.5q-85 0 -155 -39t-111 -108t-41 -155q0 -72 30.5 -124.5t83 -80t115.5 -27.5q116 0 191 73q49 46 72 124h-239l18 100
h348q1 -20 -2 -48q-16 -151 -116 -248q-110 -108 -282 -108q-92 0 -168 41.5zM394.5 797.5q-33.5 30.5 -33.5 77.5q0 6 2 22h83q-1 -4 -1 -10q0 -17 11 -29t31 -12q22 0 37.5 14t20.5 37h82q-10 -64 -49.5 -97t-100.5 -33q-49 0 -82.5 30.5z" />
    <glyph glyph-name="gbreve" unicode="&#x11f;" horiz-adv-x="601" 
d="M104 -210.5q-45 21.5 -71.5 55t-35.5 69.5l107 41q8 -41 38.5 -64.5t76.5 -23.5q72 0 117 40.5t58 114.5l8 46h-6q-24 -37 -65.5 -57t-96.5 -20q-57 0 -103.5 28t-73.5 80t-27 120q0 74 34.5 141.5t98.5 109.5t147 42q52 0 91.5 -21.5t59.5 -55.5h6l11 61h105l-86 -487
q-21 -121 -96.5 -181t-192.5 -60q-59 0 -104 21.5zM352 116.5q40 25.5 63 69.5t23 96q0 60 -36 95t-88 35q-51 0 -90.5 -26t-61 -69.5t-21.5 -92.5q0 -63 35 -98t89 -35q47 0 87 25.5zM251.5 619.5q-33.5 30.5 -33.5 77.5q0 6 2 22h83q-1 -4 -1 -10q0 -17 11 -29t31 -12
q22 0 37.5 14t20.5 37h82q-10 -64 -49.5 -97t-100.5 -33q-49 0 -82.5 30.5z" />
    <glyph glyph-name="Gdotaccent" unicode="&#x120;" horiz-adv-x="817" 
d="M202 25.5q-76 41.5 -120.5 117.5t-44.5 175q0 111 55 206t154.5 151.5t226.5 56.5q82 0 150 -30.5t106 -82.5l-90 -76q-25 37 -73.5 59.5t-107.5 22.5q-85 0 -155 -39t-111 -108t-41 -155q0 -72 30.5 -124.5t83 -80t115.5 -27.5q116 0 191 73q49 46 72 124h-239l18 100
h348q1 -20 -2 -48q-16 -151 -116 -248q-110 -108 -282 -108q-92 0 -168 41.5zM446.5 813.5q-18.5 18.5 -18.5 42.5q0 25 18.5 43t42.5 18q25 0 43 -17.5t18 -43.5q0 -24 -18 -42.5t-43 -18.5q-24 0 -42.5 18.5z" />
    <glyph glyph-name="gdotaccent" unicode="&#x121;" horiz-adv-x="601" 
d="M104 -210.5q-45 21.5 -71.5 55t-35.5 69.5l107 41q8 -41 38.5 -64.5t76.5 -23.5q72 0 117 40.5t58 114.5l8 46h-6q-24 -37 -65.5 -57t-96.5 -20q-57 0 -103.5 28t-73.5 80t-27 120q0 74 34.5 141.5t98.5 109.5t147 42q52 0 91.5 -21.5t59.5 -55.5h6l11 61h105l-86 -487
q-21 -121 -96.5 -181t-192.5 -60q-59 0 -104 21.5zM352 116.5q40 25.5 63 69.5t23 96q0 60 -36 95t-88 35q-51 0 -90.5 -26t-61 -69.5t-21.5 -92.5q0 -63 35 -98t89 -35q47 0 87 25.5zM299.5 615.5q-19.5 19.5 -19.5 45.5q0 28 19.5 47t46.5 19q28 0 46.5 -19t18.5 -47
q0 -27 -19 -46t-46 -19t-46.5 19.5z" />
    <glyph glyph-name="Gcommaaccent" unicode="&#x122;" horiz-adv-x="817" 
d="M202 25.5q-76 41.5 -120.5 117.5t-44.5 175q0 111 55 206t154.5 151.5t226.5 56.5q82 0 150 -30.5t106 -82.5l-90 -76q-25 37 -73.5 59.5t-107.5 22.5q-85 0 -155 -39t-111 -108t-41 -155q0 -72 30.5 -124.5t83 -80t115.5 -27.5q116 0 191 73q49 46 72 124h-239l18 100
h348q1 -20 -2 -48q-16 -151 -116 -248q-110 -108 -282 -108q-92 0 -168 41.5zM330 -171q-20 5 -31.5 21.5t-11.5 37.5q0 26 18.5 45t46.5 19t46 -19t18 -47q0 -32 -18 -53l-81 -98l-40 34z" />
    <glyph glyph-name="gcommaaccent" unicode="&#x123;" horiz-adv-x="601" 
d="M104 -210.5q-45 21.5 -71.5 55t-35.5 69.5l107 41q8 -41 38.5 -64.5t76.5 -23.5q72 0 117 40.5t58 114.5l8 46h-6q-24 -37 -65.5 -57t-96.5 -20q-57 0 -103.5 28t-73.5 80t-27 120q0 74 34.5 141.5t98.5 109.5t147 42q52 0 91.5 -21.5t59.5 -55.5h6l11 61h105l-86 -487
q-21 -121 -96.5 -181t-192.5 -60q-59 0 -104 21.5zM352 116.5q40 25.5 63 69.5t23 96q0 60 -36 95t-88 35q-51 0 -90.5 -26t-61 -69.5t-21.5 -92.5q0 -63 35 -98t89 -35q47 0 87 25.5zM367 701q20 -5 31.5 -21.5t11.5 -37.5q0 -26 -18.5 -45t-46.5 -19t-46 19t-18 47
q0 32 18 53l81 98l40 -34z" />
    <glyph glyph-name="Hcircumflex" unicode="&#x124;" horiz-adv-x="713" 
d="M141 716h112l-53 -297h332l53 297h112l-127 -716h-112l56 313h-332l-56 -313h-112zM272 785l127 121h98l87 -121l-2 -7h-100l-37 60h-9l-54 -60h-112z" />
    <glyph glyph-name="hcircumflex" unicode="&#x125;" horiz-adv-x="572" 
d="M125 716h110l-37 -208l-20 -78h6q27 38 70.5 60t95.5 22q77 0 118 -42.5t41 -108.5q0 -27 -7 -63l-53 -298h-110l52 292q4 24 4 36q0 38 -24 60.5t-66 22.5q-58 0 -98.5 -43t-52.5 -109l-45 -259h-110zM205 779l128 121h97l87 -121l-1 -6h-101l-36 59h-10l-54 -59h-112z
" />
    <glyph glyph-name="Hbar" unicode="&#x126;" horiz-adv-x="713" 
d="M40 500l14 84h64l23 132h112l-24 -132h332l24 132h112l-24 -132h64l-15 -84h-63l-89 -500h-112l56 313h-332l-56 -313h-112l89 500h-63zM546 500h-332l-14 -81h332z" />
    <glyph glyph-name="hbar" unicode="&#x127;" horiz-adv-x="571" 
d="M98 570h-61l14 81h61l12 65h110l-12 -65h140l-14 -81h-140l-11 -62l-19 -78h6q27 38 70.5 60t95.5 22q77 0 117.5 -42.5t40.5 -108.5q0 -32 -6 -63l-53 -298h-110l52 292q3 18 3 36q0 38 -24 60.5t-65 22.5q-58 0 -98.5 -43t-52.5 -109l-46 -259h-110z" />
    <glyph glyph-name="Itilde" unicode="&#x128;" horiz-adv-x="270" 
d="M141 716h112l-127 -716h-112zM248 781q-15 6 -36 18q-18 10 -30 15t-25 5q-27 0 -36 -32h-83q8 60 40 91t80 31q18 0 32.5 -5.5t38.5 -18.5q33 -20 53 -20q29 0 36 32h84q-8 -60 -40 -91t-81 -31q-18 0 -33 6z" />
    <glyph glyph-name="itilde" unicode="&#x129;" horiz-adv-x="250" 
d="M92 496h110l-86 -496h-110zM205 603q-15 6 -36 18q-18 10 -30 15t-25 5q-27 0 -36 -32h-83q8 60 40 91t80 31q18 0 32.5 -5.5t38.5 -18.5q33 -20 53 -20q29 0 36 32h84q-8 -60 -40 -91t-80 -31q-19 0 -34 6z" />
    <glyph glyph-name="Imacron" unicode="&#x12a;" horiz-adv-x="270" 
d="M94 886h261l-15 -86h-261zM141 716h112l-127 -716h-112z" />
    <glyph glyph-name="imacron" unicode="&#x12b;" horiz-adv-x="250" 
d="M92 496h110l-86 -496h-110zM40 708h288l-15 -85h-288z" />
    <glyph glyph-name="Ibreve" unicode="&#x12c;" horiz-adv-x="270" 
d="M141 716h112l-127 -716h-112zM127.5 797.5q-33.5 30.5 -33.5 77.5q0 6 2 22h83q-1 -4 -1 -10q0 -17 11 -29t31 -12q22 0 37.5 14t20.5 37h82q-10 -64 -49.5 -97t-100.5 -33q-49 0 -82.5 30.5z" />
    <glyph glyph-name="ibreve" unicode="&#x12d;" horiz-adv-x="250" 
d="M92 496h110l-86 -496h-110zM82.5 619.5q-33.5 30.5 -33.5 77.5q0 6 2 22h83q-1 -4 -1 -10q0 -17 11 -29t31 -12q22 0 37.5 14t20.5 37h82q-10 -64 -49.5 -97t-100.5 -33q-49 0 -82.5 30.5z" />
    <glyph glyph-name="Iogonek" unicode="&#x12e;" horiz-adv-x="270" 
d="M-31.5 -197.5q-29.5 26.5 -29.5 67.5q0 76 80 128v2h-5l127 716h112l-127 -716q-33 -19 -60.5 -48t-27.5 -57q0 -16 10 -25t25 -9q19 0 42 10l-15 -86q-13 -5 -24 -7t-29 -2q-49 0 -78.5 26.5z" />
    <glyph glyph-name="iogonek" unicode="&#x12f;" horiz-adv-x="250" 
d="M128 609q-20 20 -20 48t20 47.5t48 19.5q29 0 48 -19t19 -48q0 -28 -19.5 -48t-47.5 -20t-48 20zM-42 -197.5q-30 26.5 -30 67.5q0 75 79 127l-1 3l86 496h110l-86 -496q-34 -19 -61 -48t-27 -57q0 -16 10 -25t25 -9q18 0 41 10l-14 -86q-13 -5 -24 -7t-29 -2
q-49 0 -79 26.5z" />
    <glyph glyph-name="Idotaccent" unicode="&#x130;" horiz-adv-x="270" 
d="M141 716h112l-127 -716h-112zM179.5 813.5q-18.5 18.5 -18.5 42.5q0 25 18.5 43t42.5 18q25 0 43 -17.5t18 -43.5q0 -24 -18 -42.5t-43 -18.5q-24 0 -42.5 18.5z" />
    <glyph glyph-name="dotlessi" unicode="&#x131;" horiz-adv-x="250" 
d="M92 496h110l-86 -496h-110z" />
    <glyph glyph-name="Jcircumflex" unicode="&#x134;" horiz-adv-x="548" 
d="M60.5 30.5q-57.5 46.5 -67.5 122.5l108 42q6 -53 36 -78.5t75 -25.5q52 0 88.5 36t46.5 93l87 496h112l-87 -492q-21 -121 -90 -180.5t-170 -59.5q-81 0 -138.5 46.5zM343 785l127 121h98l87 -121l-2 -7h-100l-37 60h-9l-54 -60h-112z" />
    <glyph glyph-name="jcircumflex" unicode="&#x135;" horiz-adv-x="250" 
d="M-130 -218l18 103q16 -10 43 -10q29 0 43.5 16t19.5 47l99 558h110l-99 -563q-16 -90 -60 -124.5t-117 -34.5q-29 0 -57 8zM7 601l128 121h97l87 -121l-1 -6h-101l-36 59h-10l-54 -59h-112z" />
    <glyph glyph-name="Kcommaaccent" unicode="&#x136;" horiz-adv-x="654" 
d="M141 716h112l-59 -337h6l346 337h143l-1 -6l-317 -303l213 -401l-1 -6h-132l-169 322l-119 -113l-37 -209h-112zM249 -171q-20 5 -31.5 21.5t-11.5 37.5q0 26 18.5 45t46.5 19t46 -19t18 -47q0 -32 -18 -53l-81 -98l-40 34z" />
    <glyph glyph-name="kcommaaccent" unicode="&#x137;" horiz-adv-x="521" 
d="M125 716h110l-72 -411h3l221 191h146l-1 -6l-226 -189l149 -295l-1 -6h-127l-109 227l-81 -69l-28 -158h-110zM183 -171q-20 5 -31.5 21.5t-11.5 37.5q0 26 18.5 45t46.5 19t46 -19t18 -47q0 -32 -18 -53l-81 -98l-40 34z" />
    <glyph glyph-name="kgreenlandic" unicode="&#x138;" horiz-adv-x="508" 
d="M86 496h110l-39 -218h6l219 218h137l-2 -6l-241 -234l165 -250l-1 -6h-127l-156 244h-6l-43 -244h-109z" />
    <glyph glyph-name="Lacute" unicode="&#x139;" horiz-adv-x="527" 
d="M141 716h112l-108 -609h307l-19 -107h-419zM232 904h126l-104 -132h-93z" />
    <glyph glyph-name="lacute" unicode="&#x13a;" horiz-adv-x="234" 
d="M125 716h110l-126 -716h-110zM213 904h126l-104 -132h-93z" />
    <glyph glyph-name="Lcommaaccent" unicode="&#x13b;" horiz-adv-x="527" 
d="M141 716h112l-108 -609h307l-19 -107h-419zM207 -171q-20 5 -31.5 21.5t-11.5 37.5q0 26 18.5 45t46.5 19t46 -19t18 -47q0 -32 -18 -53l-81 -98l-40 34z" />
    <glyph glyph-name="lcommaaccent" unicode="&#x13c;" horiz-adv-x="234" 
d="M125 716h110l-126 -716h-110zM13 -171q-20 5 -31.5 21.5t-11.5 37.5q0 26 18.5 45t46.5 19t46 -19t18 -47q0 -32 -18 -53l-81 -98l-40 34z" />
    <glyph glyph-name="Lcaron" unicode="&#x13d;" horiz-adv-x="527" 
d="M141 716h112l-108 -609h307l-19 -107h-419zM392 716h118l-76 -209h-79z" />
    <glyph glyph-name="lcaron" unicode="&#x13e;" horiz-adv-x="355" 
d="M125 716h110l-126 -716h-110zM318 716h118l-76 -209h-79z" />
    <glyph glyph-name="Ldot" unicode="&#x13f;" horiz-adv-x="527" 
d="M141 716h112l-108 -609h307l-19 -107h-419zM317.5 289.5q-22.5 22.5 -22.5 54.5t22.5 54.5t54.5 22.5t54.5 -22.5t22.5 -54.5t-22.5 -54.5t-54.5 -22.5t-54.5 22.5z" />
    <glyph glyph-name="Lslash" unicode="&#x141;" horiz-adv-x="594" 
d="M69 227l-43 78l127 71l60 340h112l-47 -265l128 72l42 -78l-190 -106l-41 -232h307l-19 -107h-419l47 262z" />
    <glyph glyph-name="lslash" unicode="&#x142;" horiz-adv-x="390" 
d="M121 277l-56 -35l-47 75l124 80l57 319h110l-43 -243l72 48l47 -77l-141 -91l-62 -353h-109z" />
    <glyph glyph-name="Nacute" unicode="&#x143;" horiz-adv-x="722" 
d="M141 716h126l235 -521h6l19 138l68 383h111l-127 -716h-109l-248 548h-5l-19 -138l-72 -410h-112zM447 904h126l-104 -132h-93z" />
    <glyph glyph-name="nacute" unicode="&#x144;" horiz-adv-x="572" 
d="M184 430q26 38 68.5 60t95.5 22q74 0 117 -42.5t43 -110.5q0 -33 -7 -68l-51 -291h-110l52 292q3 20 3 38q0 38 -24.5 59.5t-66.5 21.5q-57 0 -97 -41.5t-52 -106.5l-46 -263h-110l87 496h104l-12 -66h6zM368 726h126l-104 -132h-93z" />
    <glyph glyph-name="Ncommaaccent" unicode="&#x145;" horiz-adv-x="722" 
d="M141 716h126l235 -521h6l19 138l68 383h111l-127 -716h-109l-248 548h-5l-19 -138l-72 -410h-112zM268 -171q-20 5 -31.5 21.5t-11.5 37.5q0 26 18.5 45t46.5 19t46 -19t18 -47q0 -32 -18 -53l-81 -98l-40 34z" />
    <glyph glyph-name="ncommaaccent" unicode="&#x146;" horiz-adv-x="572" 
d="M184 430q26 38 68.5 60t95.5 22q74 0 117 -42.5t43 -110.5q0 -33 -7 -68l-51 -291h-110l52 292q3 20 3 38q0 38 -24.5 59.5t-66.5 21.5q-57 0 -97 -41.5t-52 -106.5l-46 -263h-110l87 496h104l-12 -66h6zM188 -171q-20 5 -31.5 21.5t-11.5 37.5q0 26 18.5 45t46.5 19
t46 -19t18 -47q0 -32 -18 -53l-81 -98l-40 34z" />
    <glyph glyph-name="Ncaron" unicode="&#x147;" horiz-adv-x="722" 
d="M141 716h126l235 -521h6l19 138l68 383h111l-127 -716h-109l-248 548h-5l-19 -138l-72 -410h-112zM292 899l2 7h100l37 -59h10l54 59h111l-2 -7l-127 -121h-98z" />
    <glyph glyph-name="ncaron" unicode="&#x148;" horiz-adv-x="572" 
d="M184 430q26 38 68.5 60t95.5 22q74 0 117 -42.5t43 -110.5q0 -33 -7 -68l-51 -291h-110l52 292q3 20 3 38q0 38 -24.5 59.5t-66.5 21.5q-57 0 -97 -41.5t-52 -106.5l-46 -263h-110l87 496h104l-12 -66h6zM213 716l2 6h100l37 -59h10l54 59h111l-1 -6l-128 -121h-98z" />
    <glyph glyph-name="Eng" unicode="&#x14a;" horiz-adv-x="722" 
d="M332 -219l19 105q19 -11 43 -11q27 0 42 16.5t21 51.5l12 60l-247 545h-5l-19 -138l-72 -410h-112l127 716h127l235 -517h6l19 138l67 379h111l-138 -775q-15 -85 -64 -126t-118 -41q-33 0 -54 7z" />
    <glyph glyph-name="eng" unicode="&#x14b;" horiz-adv-x="572" 
d="M204 -218l18 103q16 -10 43 -10q29 0 43 16t20 47l64 354q3 20 3 38q0 38 -24.5 59.5t-66.5 21.5q-58 0 -97.5 -41.5t-51.5 -106.5l-46 -263h-110l87 496h104l-12 -66h6q26 38 68.5 60t95.5 22q74 0 117 -42.5t43 -110.5q0 -33 -7 -68l-63 -358q-15 -90 -59 -124.5
t-117 -34.5q-30 0 -58 8z" />
    <glyph glyph-name="Omacron" unicode="&#x14c;" horiz-adv-x="828" 
d="M200 25.5q-76 41.5 -119.5 116t-43.5 170.5q0 111 53.5 207.5t150 154.5t219.5 58q94 0 169.5 -42t118.5 -116.5t43 -169.5q0 -111 -53.5 -207.5t-150 -154.5t-218.5 -58q-93 0 -169 41.5zM529.5 134q68.5 43 108 114t39.5 151q0 67 -30 118.5t-82.5 79.5t-116.5 28
q-81 0 -149.5 -42.5t-108.5 -113.5t-40 -151q0 -68 30 -119.5t82.5 -79.5t116.5 -28q82 0 150.5 43zM348 886h288l-15 -86h-288z" />
    <glyph glyph-name="omacron" unicode="&#x14d;" horiz-adv-x="584" 
d="M123 15.5q-53 31.5 -82.5 85t-29.5 118.5q0 82 38 149t106 105.5t154 38.5q68 0 121 -31.5t82.5 -85t29.5 -117.5q0 -82 -38 -149.5t-106 -106t-153 -38.5q-69 0 -122 31.5zM346.5 110q39.5 25 62 67t22.5 91q0 62 -38.5 102.5t-95.5 40.5q-50 0 -90 -25t-62 -67t-22 -91
q0 -62 38 -102.5t95 -40.5q51 0 90.5 25zM203 708h288l-15 -85h-288z" />
    <glyph glyph-name="Obreve" unicode="&#x14e;" horiz-adv-x="828" 
d="M200 25.5q-76 41.5 -119.5 116t-43.5 170.5q0 111 53.5 207.5t150 154.5t219.5 58q94 0 169.5 -42t118.5 -116.5t43 -169.5q0 -111 -53.5 -207.5t-150 -154.5t-218.5 -58q-93 0 -169 41.5zM529.5 134q68.5 43 108 114t39.5 151q0 67 -30 118.5t-82.5 79.5t-116.5 28
q-81 0 -149.5 -42.5t-108.5 -113.5t-40 -151q0 -68 30 -119.5t82.5 -79.5t116.5 -28q82 0 150.5 43zM392.5 797.5q-33.5 30.5 -33.5 77.5q0 6 2 22h83q-1 -4 -1 -10q0 -17 11 -29t31 -12q22 0 37.5 14t20.5 37h82q-10 -64 -49.5 -97t-100.5 -33q-49 0 -82.5 30.5z" />
    <glyph glyph-name="obreve" unicode="&#x14f;" horiz-adv-x="584" 
d="M123 15.5q-53 31.5 -82.5 85t-29.5 118.5q0 82 38 149t106 105.5t154 38.5q68 0 121 -31.5t82.5 -85t29.5 -117.5q0 -82 -38 -149.5t-106 -106t-153 -38.5q-69 0 -122 31.5zM346.5 110q39.5 25 62 67t22.5 91q0 62 -38.5 102.5t-95.5 40.5q-50 0 -90 -25t-62 -67t-22 -91
q0 -62 38 -102.5t95 -40.5q51 0 90.5 25zM245.5 619.5q-33.5 30.5 -33.5 77.5q0 6 2 22h83q-1 -4 -1 -10q0 -17 11 -29t31 -12q22 0 37.5 14t20.5 37h82q-10 -64 -49.5 -97t-100.5 -33q-49 0 -82.5 30.5z" />
    <glyph glyph-name="Ohungarumlaut" unicode="&#x150;" horiz-adv-x="828" 
d="M200 25.5q-76 41.5 -119.5 116t-43.5 170.5q0 111 53.5 207.5t150 154.5t219.5 58q94 0 169.5 -42t118.5 -116.5t43 -169.5q0 -111 -53.5 -207.5t-150 -154.5t-218.5 -58q-93 0 -169 41.5zM529.5 134q68.5 43 108 114t39.5 151q0 67 -30 118.5t-82.5 79.5t-116.5 28
q-81 0 -149.5 -42.5t-108.5 -113.5t-40 -151q0 -68 30 -119.5t82.5 -79.5t116.5 -28q82 0 150.5 43zM406 904h126l-104 -132h-93zM586 904h126l-104 -132h-93z" />
    <glyph glyph-name="ohungarumlaut" unicode="&#x151;" horiz-adv-x="584" 
d="M123 15.5q-53 31.5 -82.5 85t-29.5 118.5q0 82 38 149t106 105.5t154 38.5q68 0 121 -31.5t82.5 -85t29.5 -117.5q0 -82 -38 -149.5t-106 -106t-153 -38.5q-69 0 -122 31.5zM346.5 110q39.5 25 62 67t22.5 91q0 62 -38.5 102.5t-95.5 40.5q-50 0 -90 -25t-62 -67t-22 -91
q0 -62 38 -102.5t95 -40.5q51 0 90.5 25zM261 726h126l-104 -132h-93zM442 726h126l-104 -132h-93z" />
    <glyph glyph-name="OE" unicode="&#x152;" horiz-adv-x="1159" 
d="M197.5 25.5q-74.5 41.5 -117.5 116t-43 170.5q0 111 53.5 207.5t150 154.5t218.5 58q81 0 146 -31t105 -87h3l19 102h434l-19 -107h-323l-35 -198h291l-18 -106h-291l-35 -198h322l-19 -107h-434l14 81h-3q-49 -46 -113 -71.5t-139 -25.5q-92 0 -166.5 41.5zM528 133.5
q68 42.5 107 112.5t39 149q0 69 -29.5 121.5t-81 80.5t-116.5 28q-82 0 -150 -42.5t-107.5 -113.5t-39.5 -152q0 -67 30.5 -118.5t82.5 -79.5t115 -28q82 0 150 42.5z" />
    <glyph glyph-name="oe" unicode="&#x153;" horiz-adv-x="974" 
d="M123 15.5q-53 31.5 -82.5 85t-29.5 118.5q0 82 38 149t106 105.5t154 38.5q62 0 111 -27.5t78 -74.5q38 48 93.5 75t122.5 27t115 -27.5t73 -75t25 -105.5q0 -41 -11 -79h-382q-2 -10 -2 -21q1 -57 38 -89t88 -32q98 0 150 81l85 -45q-84 -135 -243 -135q-62 0 -109 26
t-75 71q-39 -46 -96 -71.5t-125 -25.5q-69 0 -122 31.5zM821 309v7q0 40 -30 71t-89 31q-53 0 -94 -31t-57 -78h270zM346.5 110q39.5 25 62 67t22.5 91q0 62 -38.5 102.5t-95.5 40.5q-50 0 -90 -25t-62 -67t-22 -91q0 -62 38 -102.5t95 -40.5q51 0 90.5 25z" />
    <glyph glyph-name="Racute" unicode="&#x154;" horiz-adv-x="608" 
d="M141 716h237q61 0 109 -25t74.5 -69.5t26.5 -100.5q0 -88 -55 -150t-143 -80l-3 -5l144 -280l-1 -6h-124l-141 280h-89l-50 -280h-112zM332 384q62 0 102 34t40 96q0 43 -28.5 70t-78.5 27h-133l-40 -227h138zM374 904h126l-104 -132h-93z" />
    <glyph glyph-name="racute" unicode="&#x155;" horiz-adv-x="394" 
d="M86 496h104l-12 -69h6q21 38 65 61t92 23q37 0 59 -10l-21 -116q-31 18 -72 18q-55 0 -99 -41.5t-54 -101.5l-45 -260h-110zM282 726h126l-104 -132h-93z" />
    <glyph glyph-name="Rcommaaccent" unicode="&#x156;" horiz-adv-x="608" 
d="M141 716h237q61 0 109 -25t74.5 -69.5t26.5 -100.5q0 -88 -55 -150t-143 -80l-3 -5l144 -280l-1 -6h-124l-141 280h-89l-50 -280h-112zM332 384q62 0 102 34t40 96q0 43 -28.5 70t-78.5 27h-133l-40 -227h138zM224 -171q-20 5 -31.5 21.5t-11.5 37.5q0 26 18.5 45
t46.5 19t46 -19t18 -47q0 -32 -18 -53l-81 -98l-40 34z" />
    <glyph glyph-name="rcommaaccent" unicode="&#x157;" horiz-adv-x="394" 
d="M86 496h104l-12 -69h6q21 38 65 61t92 23q37 0 59 -10l-21 -116q-31 18 -72 18q-55 0 -99 -41.5t-54 -101.5l-45 -260h-110zM14 -171q-20 5 -31.5 21.5t-11.5 37.5q0 26 18.5 45t46.5 19t46 -19t18 -47q0 -32 -18 -53l-81 -98l-40 34z" />
    <glyph glyph-name="Rcaron" unicode="&#x158;" horiz-adv-x="608" 
d="M141 716h237q61 0 109 -25t74.5 -69.5t26.5 -100.5q0 -88 -55 -150t-143 -80l-3 -5l144 -280l-1 -6h-124l-141 280h-89l-50 -280h-112zM332 384q62 0 102 34t40 96q0 43 -28.5 70t-78.5 27h-133l-40 -227h138zM219 899l2 7h100l37 -59h10l54 59h111l-2 -7l-127 -121h-98z
" />
    <glyph glyph-name="rcaron" unicode="&#x159;" horiz-adv-x="394" 
d="M86 496h104l-12 -69h6q21 38 65 61t92 23q37 0 59 -10l-21 -116q-31 18 -72 18q-55 0 -99 -41.5t-54 -101.5l-45 -260h-110zM127 716l2 6h100l37 -59h10l54 59h111l-1 -6l-128 -121h-98z" />
    <glyph glyph-name="Sacute" unicode="&#x15a;" horiz-adv-x="573" 
d="M80 36q-64 52 -79 146l108 43q5 -59 41 -96.5t97 -37.5q58 0 100 32t42 84q0 40 -28 67t-94 52l-40 15q-63 23 -103.5 68t-40.5 115q0 59 33 106.5t90 74.5t125 27q67 0 112.5 -23.5t69.5 -58t30 -68.5l-105 -40q-6 35 -35 60t-83 25q-51 0 -87 -26t-36 -70
q0 -36 25.5 -59.5t79.5 -43.5l42 -16q159 -59 159 -191q0 -70 -34.5 -124t-95.5 -83.5t-139 -29.5q-90 0 -154 52zM366 904h126l-104 -132h-93z" />
    <glyph glyph-name="sacute" unicode="&#x15b;" horiz-adv-x="477" 
d="M59 23q-53 39 -71 101l104 42q9 -41 40 -62.5t74 -21.5q41 0 67 17t26 43q0 25 -17.5 40.5t-56.5 25.5l-54 14q-57 15 -92 48.5t-35 87.5q0 45 27 80t74 54.5t106 19.5q71 0 120.5 -31t70.5 -86l-103 -38q-10 28 -35.5 45t-60.5 17q-40 0 -63.5 -15t-23.5 -39
q0 -19 15.5 -33.5t46.5 -21.5l67 -18q61 -16 94 -52t33 -86q0 -78 -59.5 -124t-156.5 -46q-84 0 -137 39zM295 726h126l-104 -132h-93z" />
    <glyph glyph-name="Scircumflex" unicode="&#x15c;" horiz-adv-x="573" 
d="M80 36q-64 52 -79 146l108 43q5 -59 41 -96.5t97 -37.5q58 0 100 32t42 84q0 40 -28 67t-94 52l-40 15q-63 23 -103.5 68t-40.5 115q0 59 33 106.5t90 74.5t125 27q67 0 112.5 -23.5t69.5 -58t30 -68.5l-105 -40q-6 35 -35 60t-83 25q-51 0 -87 -26t-36 -70
q0 -36 25.5 -59.5t79.5 -43.5l42 -16q159 -59 159 -191q0 -70 -34.5 -124t-95.5 -83.5t-139 -29.5q-90 0 -154 52zM184 785l127 121h98l87 -121l-2 -7h-100l-37 60h-9l-54 -60h-112z" />
    <glyph glyph-name="scircumflex" unicode="&#x15d;" horiz-adv-x="477" 
d="M59 23q-53 39 -71 101l104 42q9 -41 40 -62.5t74 -21.5q41 0 67 17t26 43q0 25 -17.5 40.5t-56.5 25.5l-54 14q-57 15 -92 48.5t-35 87.5q0 45 27 80t74 54.5t106 19.5q71 0 120.5 -31t70.5 -86l-103 -38q-10 28 -35.5 45t-60.5 17q-40 0 -63.5 -15t-23.5 -39
q0 -19 15.5 -33.5t46.5 -21.5l67 -18q61 -16 94 -52t33 -86q0 -78 -59.5 -124t-156.5 -46q-84 0 -137 39zM114 601l128 121h97l87 -121l-1 -6h-101l-36 59h-10l-54 -59h-112z" />
    <glyph glyph-name="Scedilla" unicode="&#x15e;" horiz-adv-x="573" 
d="M503 221q0 -70 -34.5 -124t-95.5 -83.5t-139 -29.5h-1l-19 -32q12 2 19 2q35 0 56.5 -24t21.5 -63q0 -46 -31.5 -75t-81.5 -29q-34 0 -61 19.5t-33 46.5l61 25q2 -13 12.5 -22t24.5 -9q17 0 29 11.5t12 30.5q0 14 -9 23.5t-24 9.5q-16 0 -31 -15l-49 24l46 83
q-69 15 -116 64.5t-59 127.5l108 43q5 -59 41 -96.5t97 -37.5q58 0 100 32t42 84q0 40 -28 67t-94 52l-40 15q-63 23 -103.5 68t-40.5 115q0 59 33 106.5t90 74.5t125 27q67 0 112.5 -23.5t69.5 -58t30 -68.5l-105 -40q-6 35 -35 60t-83 25q-51 0 -87 -26t-36 -70
q0 -36 25.5 -59.5t79.5 -43.5l42 -16q159 -59 159 -191z" />
    <glyph glyph-name="scedilla" unicode="&#x15f;" horiz-adv-x="477" 
d="M379 240q33 -36 33 -86q0 -77 -58 -123t-154 -47l-19 -32q12 2 19 2q35 0 56.5 -24t21.5 -63q0 -46 -31.5 -75t-81.5 -29q-34 0 -61 19.5t-33 46.5l61 25q2 -13 12.5 -22t24.5 -9q17 0 29 11.5t12 30.5q0 14 -9 23.5t-24 9.5q-16 0 -31 -15l-49 24l46 82
q-61 12 -100.5 48t-54.5 87l104 42q9 -41 40 -62.5t74 -21.5q41 0 67 17t26 43q0 25 -17.5 40.5t-56.5 25.5l-54 14q-57 15 -92 48.5t-35 87.5q0 45 27 80t74 54.5t106 19.5q71 0 120.5 -31t70.5 -86l-103 -38q-10 28 -35.5 45t-60.5 17q-40 0 -63.5 -15t-23.5 -39
q0 -19 15.5 -33.5t46.5 -21.5l67 -18q61 -16 94 -52z" />
    <glyph glyph-name="Scaron" unicode="&#x160;" horiz-adv-x="573" 
d="M80 36q-64 52 -79 146l108 43q5 -59 41 -96.5t97 -37.5q58 0 100 32t42 84q0 40 -28 67t-94 52l-40 15q-63 23 -103.5 68t-40.5 115q0 59 33 106.5t90 74.5t125 27q67 0 112.5 -23.5t69.5 -58t30 -68.5l-105 -40q-6 35 -35 60t-83 25q-51 0 -87 -26t-36 -70
q0 -36 25.5 -59.5t79.5 -43.5l42 -16q159 -59 159 -191q0 -70 -34.5 -124t-95.5 -83.5t-139 -29.5q-90 0 -154 52zM211 899l2 7h100l37 -59h10l54 59h111l-2 -7l-127 -121h-98z" />
    <glyph glyph-name="scaron" unicode="&#x161;" horiz-adv-x="477" 
d="M59 23q-53 39 -71 101l104 42q9 -41 40 -62.5t74 -21.5q41 0 67 17t26 43q0 25 -17.5 40.5t-56.5 25.5l-54 14q-57 15 -92 48.5t-35 87.5q0 45 27 80t74 54.5t106 19.5q71 0 120.5 -31t70.5 -86l-103 -38q-10 28 -35.5 45t-60.5 17q-40 0 -63.5 -15t-23.5 -39
q0 -19 15.5 -33.5t46.5 -21.5l67 -18q61 -16 94 -52t33 -86q0 -78 -59.5 -124t-156.5 -46q-84 0 -137 39zM140 716l2 6h100l37 -59h10l54 59h111l-1 -6l-128 -121h-98z" />
    <glyph glyph-name="uni0162" unicode="&#x162;" horiz-adv-x="564" 
d="M142.5 -217.5q-27.5 19.5 -33.5 46.5l62 25q2 -13 12 -22t24 -9q17 0 29.5 11.5t12.5 30.5q0 14 -9.5 23.5t-24.5 9.5q-17 0 -30 -15l-49 24l51 93h-26l108 609h-200l19 107h512l-19 -107h-200l-108 -609h-24l-29 -48q10 2 19 2q34 0 55.5 -24.5t21.5 -62.5
q0 -46 -31.5 -75t-81.5 -29q-33 0 -60.5 19.5z" />
    <glyph glyph-name="uni0163" unicode="&#x163;" horiz-adv-x="384" 
d="M83 -217.5q-27 19.5 -33 46.5l62 25q2 -13 12 -22t24 -9q17 0 29 11.5t12 30.5q0 14 -9 23.5t-24 9.5q-16 0 -31 -15l-49 24l56 103q-27 15 -42 42.5t-15 64.5q0 21 5 51l40 231h-87l18 97h87l26 148h110l-26 -148h121l-17 -97h-122l-39 -221q-3 -19 -3 -31
q0 -22 12.5 -37t36.5 -15q15 0 24.5 3t22.5 9l17 -98q-37 -17 -94 -17l-22 1l-25 -41q12 2 19 2q35 0 56.5 -24t21.5 -63q0 -46 -31.5 -75t-81.5 -29q-34 0 -61 19.5z" />
    <glyph glyph-name="Tcaron" unicode="&#x164;" horiz-adv-x="564" 
d="M269 609h-200l19 107h512l-19 -107h-200l-108 -609h-112zM213 899l2 7h100l37 -59h10l54 59h111l-2 -7l-127 -121h-98z" />
    <glyph glyph-name="tcaron" unicode="&#x165;" horiz-adv-x="382" 
d="M346 716h104l-56 -160h-76zM111 25.5q-36 33.5 -36 91.5q0 26 5 51l40 231h-87l18 97h87l26 148h110l-26 -148h121l-17 -97h-122l-39 -221q-3 -22 -3 -33q0 -23 13 -36.5t39 -13.5q30 0 62 17l-19 -107q-19 -7 -36 -10t-41 -3q-59 0 -95 33.5z" />
    <glyph glyph-name="Tbar" unicode="&#x166;" horiz-adv-x="564" 
d="M219 330h-127l16 88h127l34 191h-200l19 107h512l-19 -107h-200l-34 -191h128l-16 -88h-128l-58 -330h-112z" />
    <glyph glyph-name="tbar" unicode="&#x167;" horiz-adv-x="384" 
d="M111 25.5q-36 33.5 -36 91.5q0 26 5 51l9 53h-85l16 91h85l15 87h-87l18 97h87l26 148h110l-26 -148h121l-17 -97h-122l-15 -87h115l-16 -91h-115l-8 -43q-3 -22 -3 -33q0 -23 13 -36.5t39 -13.5q30 0 62 17l-19 -107q-19 -7 -36 -10t-41 -3q-59 0 -95 33.5z" />
    <glyph glyph-name="Utilde" unicode="&#x168;" horiz-adv-x="672" 
d="M159.5 12q-52.5 28 -83 79t-30.5 118q0 40 9 91l74 416h111l-77 -439q-5 -30 -5 -54q0 -61 33.5 -96.5t100.5 -35.5q75 0 124.5 49t63.5 129l79 447h112l-80 -457q-24 -134 -105 -204.5t-210 -70.5q-64 0 -116.5 28zM444 781q-15 6 -36 18q-18 10 -30 15t-25 5
q-27 0 -36 -32h-83q8 60 40 91t80 31q18 0 32.5 -5.5t38.5 -18.5q33 -20 53 -20q29 0 36 32h84q-8 -60 -40 -91t-81 -31q-18 0 -33 6z" />
    <glyph glyph-name="utilde" unicode="&#x169;" horiz-adv-x="572" 
d="M349 66q-26 -38 -68.5 -60t-95.5 -22q-74 0 -117 42.5t-43 110.5q0 31 6 68l52 291h110l-52 -291q-4 -26 -4 -38q0 -39 24.5 -60.5t66.5 -21.5q58 0 98 41.5t52 106.5l46 263h110l-87 -496h-104l12 66h-6zM366 603q-15 6 -36 18q-18 10 -30 15t-25 5q-27 0 -36 -32h-83
q8 60 40 91t80 31q18 0 32.5 -5.5t38.5 -18.5q33 -20 53 -20q29 0 36 32h84q-8 -60 -40 -91t-80 -31q-19 0 -34 6z" />
    <glyph glyph-name="Umacron" unicode="&#x16a;" horiz-adv-x="672" 
d="M159.5 12q-52.5 28 -83 79t-30.5 118q0 40 9 91l74 416h111l-77 -439q-5 -30 -5 -54q0 -61 33.5 -96.5t100.5 -35.5q75 0 124.5 49t63.5 129l79 447h112l-80 -457q-24 -134 -105 -204.5t-210 -70.5q-64 0 -116.5 28zM279 886h288l-15 -86h-288z" />
    <glyph glyph-name="umacron" unicode="&#x16b;" horiz-adv-x="572" 
d="M349 66q-26 -38 -68.5 -60t-95.5 -22q-74 0 -117 42.5t-43 110.5q0 31 6 68l52 291h110l-52 -291q-4 -26 -4 -38q0 -39 24.5 -60.5t66.5 -21.5q58 0 98 41.5t52 106.5l46 263h110l-87 -496h-104l12 66h-6zM201 708h288l-15 -85h-288z" />
    <glyph glyph-name="Ubreve" unicode="&#x16c;" horiz-adv-x="672" 
d="M159.5 12q-52.5 28 -83 79t-30.5 118q0 40 9 91l74 416h111l-77 -439q-5 -30 -5 -54q0 -61 33.5 -96.5t100.5 -35.5q75 0 124.5 49t63.5 129l79 447h112l-80 -457q-24 -134 -105 -204.5t-210 -70.5q-64 0 -116.5 28zM323.5 797.5q-33.5 30.5 -33.5 77.5q0 6 2 22h83
q-1 -4 -1 -10q0 -17 11 -29t31 -12q22 0 37.5 14t20.5 37h82q-10 -64 -49.5 -97t-100.5 -33q-49 0 -82.5 30.5z" />
    <glyph glyph-name="ubreve" unicode="&#x16d;" horiz-adv-x="572" 
d="M349 66q-26 -38 -68.5 -60t-95.5 -22q-74 0 -117 42.5t-43 110.5q0 31 6 68l52 291h110l-52 -291q-4 -26 -4 -38q0 -39 24.5 -60.5t66.5 -21.5q58 0 98 41.5t52 106.5l46 263h110l-87 -496h-104l12 66h-6zM243.5 619.5q-33.5 30.5 -33.5 77.5q0 6 2 22h83q-1 -4 -1 -10
q0 -17 11 -29t31 -12q22 0 37.5 14t20.5 37h82q-10 -64 -49.5 -97t-100.5 -33q-49 0 -82.5 30.5z" />
    <glyph glyph-name="Uring" unicode="&#x16e;" horiz-adv-x="672" 
d="M159.5 12q-52.5 28 -83 79t-30.5 118q0 40 9 91l74 416h111l-77 -439q-5 -30 -5 -54q0 -61 33.5 -96.5t100.5 -35.5q75 0 124.5 49t63.5 129l79 447h112l-80 -457q-24 -134 -105 -204.5t-210 -70.5q-64 0 -116.5 28zM343 781q-31 31 -31 75t31 75t75 31t74.5 -31
t30.5 -75t-31 -75t-74 -31q-44 0 -75 31zM445.5 828q11.5 12 11.5 28t-11.5 28t-27.5 12q-17 0 -28.5 -11.5t-11.5 -28.5q0 -16 11.5 -28t28.5 -12q16 0 27.5 12z" />
    <glyph glyph-name="uring" unicode="&#x16f;" horiz-adv-x="572" 
d="M349 66q-26 -38 -68.5 -60t-95.5 -22q-74 0 -117 42.5t-43 110.5q0 31 6 68l52 291h110l-52 -291q-4 -26 -4 -38q0 -39 24.5 -60.5t66.5 -21.5q58 0 98 41.5t52 106.5l46 263h110l-87 -496h-104l12 66h-6zM265 603q-31 31 -31 75t31 75t75 31t75 -31t31 -75
q0 -43 -31.5 -74.5t-74.5 -31.5q-44 0 -75 31zM367.5 650q11.5 12 11.5 28t-11.5 28t-27.5 12q-17 0 -28.5 -11.5t-11.5 -28.5q0 -16 12 -28t28 -12t27.5 12z" />
    <glyph glyph-name="Uhungarumlaut" unicode="&#x170;" horiz-adv-x="672" 
d="M159.5 12q-52.5 28 -83 79t-30.5 118q0 40 9 91l74 416h111l-77 -439q-5 -30 -5 -54q0 -61 33.5 -96.5t100.5 -35.5q75 0 124.5 49t63.5 129l79 447h112l-80 -457q-24 -134 -105 -204.5t-210 -70.5q-64 0 -116.5 28zM337 904h126l-104 -132h-93zM517 904h126l-104 -132
h-93z" />
    <glyph glyph-name="uhungarumlaut" unicode="&#x171;" horiz-adv-x="572" 
d="M349 66q-26 -38 -68.5 -60t-95.5 -22q-74 0 -117 42.5t-43 110.5q0 31 6 68l52 291h110l-52 -291q-4 -26 -4 -38q0 -39 24.5 -60.5t66.5 -21.5q58 0 98 41.5t52 106.5l46 263h110l-87 -496h-104l12 66h-6zM259 726h126l-104 -132h-93zM440 726h126l-104 -132h-93z" />
    <glyph glyph-name="Uogonek" unicode="&#x172;" horiz-adv-x="672" 
d="M229.5 -197.5q-29.5 26.5 -29.5 67.5q0 67 61 115q-60 3 -109 31.5t-77.5 78.5t-28.5 114q0 40 9 91l74 416h111l-77 -439q-5 -31 -5 -54q0 -61 33.5 -96.5t100.5 -35.5q75 0 124.5 49t63.5 129l79 447h112l-80 -457q-18 -99 -66.5 -162.5t-115.5 -87.5q-52 -19 -81 -50
t-29 -64q0 -16 10 -25t25 -9q19 0 42 10l-15 -86q-13 -5 -24 -7t-29 -2q-49 0 -78.5 26.5z" />
    <glyph glyph-name="uogonek" unicode="&#x173;" horiz-adv-x="572" 
d="M289.5 -197.5q-29.5 26.5 -29.5 67.5q0 79 84 127l-1 3l12 66h-6q-26 -38 -68.5 -60t-95.5 -22q-74 0 -117 42.5t-43 110.5q0 31 6 68l52 291h110l-52 -291q-4 -26 -4 -38q0 -39 24.5 -60.5t66.5 -21.5q58 0 97.5 41.5t52.5 106.5l46 263h110l-87 -496q-33 -19 -60.5 -48
t-27.5 -57q0 -16 10 -25t25 -9q19 0 42 10l-15 -86q-13 -5 -24 -7t-29 -2q-49 0 -78.5 26.5z" />
    <glyph glyph-name="Wcircumflex" unicode="&#x174;" horiz-adv-x="964" 
d="M80 716h122l30 -461l2 -62h6l27 62l222 461h113l55 -461l5 -61h6l23 61l193 461h126l-313 -716h-118l-57 472l-4 64h-6l-28 -64l-224 -472h-115zM395 785l127 121h98l87 -121l-2 -7h-100l-37 60h-9l-54 -60h-112z" />
    <glyph glyph-name="wcircumflex" unicode="&#x175;" horiz-adv-x="789" 
d="M30 496h116l38 -348h3l174 348h114l51 -348h4l157 348h120l-246 -496h-117l-50 352h-3l-174 -352h-115zM275 601l128 121h97l87 -121l-1 -6h-101l-36 59h-10l-54 -59h-112z" />
    <glyph glyph-name="Ycircumflex" unicode="&#x176;" horiz-adv-x="618" 
d="M250 333l-173 383h128l114 -266h6l204 266h137l-305 -383l-59 -333h-111zM211 785l127 121h98l87 -121l-2 -7h-100l-37 60h-9l-54 -60h-112z" />
    <glyph glyph-name="ycircumflex" unicode="&#x177;" horiz-adv-x="535" 
d="M166 30l-123 466h120l81 -333h4l194 333h124l-436 -712h-119zM156 601l128 121h97l87 -121l-1 -6h-101l-36 59h-10l-54 -59h-112z" />
    <glyph glyph-name="Ydieresis" unicode="&#x178;" horiz-adv-x="618" 
d="M250 333l-173 383h128l114 -266h6l204 266h137l-305 -383l-59 -333h-111zM246 798q-19 19 -19 45q0 27 19 45.5t45 18.5q27 0 45.5 -18.5t18.5 -45.5q0 -26 -18.5 -45t-45.5 -19q-26 0 -45 19zM425 798q-19 19 -19 45q0 27 18.5 45.5t44.5 18.5q28 0 46 -18.5t18 -45.5
q0 -26 -18.5 -45t-45.5 -19q-25 0 -44 19z" />
    <glyph glyph-name="Zacute" unicode="&#x179;" horiz-adv-x="589" 
d="M-6 115l455 494h-353l19 107h487l-20 -115l-455 -494h371l-19 -107h-506zM380 904h126l-104 -132h-93z" />
    <glyph glyph-name="zacute" unicode="&#x17a;" horiz-adv-x="482" 
d="M309 400h-259l17 96h398l-16 -92l-322 -308h271l-17 -96h-409l16 92zM297 726h126l-104 -132h-93z" />
    <glyph glyph-name="Zdotaccent" unicode="&#x17b;" horiz-adv-x="589" 
d="M-6 115l455 494h-353l19 107h487l-20 -115l-455 -494h371l-19 -107h-506zM327.5 813.5q-18.5 18.5 -18.5 42.5q0 25 18.5 43t42.5 18q25 0 43 -17.5t18 -43.5q0 -24 -18 -42.5t-43 -18.5q-24 0 -42.5 18.5z" />
    <glyph glyph-name="zdotaccent" unicode="&#x17c;" horiz-adv-x="482" 
d="M309 400h-259l17 96h398l-16 -92l-322 -308h271l-17 -96h-409l16 92zM239.5 615.5q-19.5 19.5 -19.5 45.5q0 28 19.5 47t46.5 19q28 0 46.5 -19t18.5 -47q0 -27 -19 -46t-46 -19t-46.5 19.5z" />
    <glyph glyph-name="Zcaron" unicode="&#x17d;" horiz-adv-x="589" 
d="M-6 115l455 494h-353l19 107h487l-20 -115l-455 -494h371l-19 -107h-506zM225 899l2 7h100l37 -59h10l54 59h111l-2 -7l-127 -121h-98z" />
    <glyph glyph-name="zcaron" unicode="&#x17e;" horiz-adv-x="482" 
d="M309 400h-259l17 96h398l-16 -92l-322 -308h271l-17 -96h-409l16 92zM142 716l2 6h100l37 -59h10l54 59h111l-1 -6l-128 -121h-98z" />
    <glyph glyph-name="florin" unicode="&#x192;" horiz-adv-x="587" 
d="M446 601q-22 -17 -28 -49l-28 -139h120v-98h-139l-77 -388q-13 -65 -57.5 -106t-112.5 -41q-38 0 -70 11v106q33 -15 63 -15q28 0 47.5 18t26.5 51l72 364h-99v98h118l29 148q14 74 64 116.5t124 42.5q22 0 34.5 -2t26.5 -7v-108q-27 15 -61 15q-31 0 -53 -17z" />
    <glyph glyph-name="Aringacute" unicode="&#x1fa;" horiz-adv-x="694" 
d="M324 681q-28 33 -28 75q0 46 30.5 79t75.5 36l42 71h104l-68 -93q22 -15 35 -40t13 -53q0 -27 -12 -51t-33 -41l133 -664h-120l-33 183h-288l-98 -183h-127zM440.5 728q11.5 12 11.5 28q0 17 -11.5 28.5t-28.5 11.5q-16 0 -28 -11.5t-12 -28.5q0 -16 12 -28t28 -12
q17 0 28.5 12zM443 287l-39 213l-13 83h-6l-42 -83l-113 -213h213z" />
    <glyph glyph-name="aringacute" unicode="&#x1fb;" horiz-adv-x="535" 
d="M342 915h119l-84 -110h-90zM244 602q-31 31 -31 75t31 75t75 31t74.5 -31t30.5 -75t-31 -75t-74 -31q-44 0 -75 31zM346.5 649q11.5 12 11.5 28t-11.5 28t-27.5 12t-28 -11.5t-12 -28.5q0 -16 12 -28t28 -12t27.5 12zM97.5 3.5q-38.5 19.5 -60 55t-21.5 79.5
q0 55 29 96.5t82 64t123 22.5q67 0 132 -28l4 21q3 9 3 20q0 37 -30.5 61t-77.5 24q-38 0 -69 -15t-56 -46l-79 57q36 47 92.5 72t123.5 25q96 0 149 -45t53 -123q0 -20 -5 -52l-52 -292h-108l11 61h-6q-25 -35 -64 -56t-88 -21q-47 0 -85.5 19.5zM314.5 113.5
q43.5 38.5 52.5 94.5q-50 29 -119 29q-51 0 -85 -23.5t-34 -66.5q0 -34 24.5 -53t60.5 -19q57 0 100.5 38.5z" />
    <glyph glyph-name="AEacute" unicode="&#x1fc;" horiz-adv-x="987" 
d="M488 716h505l-19 -107h-323l-35 -198h291l-19 -106h-291l-35 -198h323l-19 -107h-435l33 184h-247l-138 -184h-138zM482 290l57 319h-7l-40 -59l-197 -260h187zM775 904h126l-104 -132h-93z" />
    <glyph glyph-name="aeacute" unicode="&#x1fd;" horiz-adv-x="921" 
d="M98.5 3.5q-38.5 19.5 -60.5 55t-22 79.5q0 85 66 134t170 49q69 0 131 -27l4 21q2 10 2 18q0 39 -29.5 62.5t-75.5 23.5q-39 0 -72 -16t-50 -45l-86 45q71 109 220 109q59 0 102 -23.5t66 -64.5q38 42 89 65t110 23q66 0 113.5 -27.5t72.5 -75t25 -105.5q0 -41 -11 -79
h-382q-2 -10 -2 -21q1 -58 38 -89.5t88 -31.5q98 0 150 81l85 -45q-84 -135 -243 -135q-68 0 -116 29.5t-76 80.5q-41 -54 -97 -82t-123 -28q-48 0 -86.5 19.5zM767 309v7q0 41 -29.5 71.5t-88.5 30.5q-53 0 -94 -31t-57 -78h269zM314.5 113.5q43.5 38.5 52.5 94.5
q-58 29 -119 29q-51 0 -85 -23.5t-34 -66.5q0 -34 24.5 -53t60.5 -19q57 0 100.5 38.5zM510 726h126l-104 -132h-93z" />
    <glyph glyph-name="Oslashacute" unicode="&#x1fe;" horiz-adv-x="828" 
d="M76 10l53 67q-44 44 -68 104t-24 131q0 111 53.5 207.5t150 154.5t219.5 58q89 0 162 -39l55 69l73 -57l-53 -66q45 -44 69.5 -104t24.5 -131q0 -111 -53.5 -207.5t-150 -154.5t-218.5 -58q-89 0 -164 39l-55 -69zM550 603q-47 22 -102 22q-81 0 -149.5 -42.5
t-108.5 -113.5t-40 -151q0 -90 52 -150zM529.5 134q68.5 43 108 114t39.5 151q0 89 -52 149l-348 -436q48 -21 102 -21q82 0 150.5 43zM497 904h126l-104 -132h-93z" />
    <glyph glyph-name="oslashacute" unicode="&#x1ff;" horiz-adv-x="584" 
d="M36 9l37 46q-30 32 -46 74.5t-16 89.5q0 82 38 149t106 105.5t154 38.5q58 0 108 -24l42 51l64 -52l-40 -50q29 -32 44 -72.5t15 -86.5q0 -82 -38 -149.5t-106 -106t-153 -38.5q-55 0 -104 23l-38 -48zM350 403q-27 12 -53 12q-50 0 -90.5 -26t-63 -69t-22.5 -92t23 -84z
M347.5 106.5q40.5 25.5 63 68.5t22.5 93q0 45 -22 78l-203 -255q21 -10 48 -10q51 0 91.5 25.5zM351 726h126l-104 -132h-93z" />
    <glyph glyph-name="Scommaaccent" unicode="&#x218;" horiz-adv-x="573" 
d="M80 36q-64 52 -79 146l108 43q5 -59 41 -96.5t97 -37.5q58 0 100 32t42 84q0 40 -28 67t-94 52l-40 15q-63 23 -103.5 68t-40.5 115q0 59 33 106.5t90 74.5t125 27q67 0 112.5 -23.5t69.5 -58t30 -68.5l-105 -40q-6 35 -35 60t-83 25q-51 0 -87 -26t-36 -70
q0 -36 25.5 -59.5t79.5 -43.5l42 -16q159 -59 159 -191q0 -70 -34.5 -124t-95.5 -83.5t-139 -29.5q-90 0 -154 52zM172 -171q-20 5 -31.5 21.5t-11.5 37.5q0 26 18.5 45t46.5 19t46 -19t18 -47q0 -32 -18 -53l-81 -98l-40 34z" />
    <glyph glyph-name="scommaaccent" unicode="&#x219;" horiz-adv-x="477" 
d="M59 23q-53 39 -71 101l104 42q9 -41 40 -62.5t74 -21.5q41 0 67 17t26 43q0 25 -17.5 40.5t-56.5 25.5l-54 14q-57 15 -92 48.5t-35 87.5q0 45 27 80t74 54.5t106 19.5q71 0 120.5 -31t70.5 -86l-103 -38q-10 28 -35.5 45t-60.5 17q-40 0 -63.5 -15t-23.5 -39
q0 -19 15.5 -33.5t46.5 -21.5l67 -18q61 -16 94 -52t33 -86q0 -78 -59.5 -124t-156.5 -46q-84 0 -137 39zM139 -171q-20 5 -31.5 21.5t-11.5 37.5q0 26 18.5 45t46.5 19t46 -19t18 -47q0 -32 -18 -53l-81 -98l-40 34z" />
    <glyph glyph-name="uni021A" unicode="&#x21a;" horiz-adv-x="564" 
d="M269 609h-200l19 107h512l-19 -107h-200l-108 -609h-112zM175 -171q-20 5 -31.5 21.5t-11.5 37.5q0 26 18.5 45t46.5 19t46 -19t18 -47q0 -32 -18 -53l-81 -98l-40 34z" />
    <glyph glyph-name="uni021B" unicode="&#x21b;" horiz-adv-x="384" 
d="M111 25.5q-36 33.5 -36 91.5q0 26 5 51l40 231h-87l18 97h87l26 148h110l-26 -148h121l-17 -97h-122l-39 -221q-3 -22 -3 -33q0 -23 13 -36.5t39 -13.5q30 0 62 17l-19 -107q-19 -7 -36 -10t-41 -3q-59 0 -95 33.5zM147 -171q-20 5 -31.5 21.5t-11.5 37.5q0 26 18.5 45
t46.5 19t46 -19t18 -47q0 -32 -18 -53l-81 -98l-40 34z" />
    <glyph glyph-name="uni0237" unicode="&#x237;" horiz-adv-x="250" 
d="M-130 -218l18 103q16 -10 43 -10q29 0 43.5 16t19.5 47l99 558h110l-99 -563q-16 -90 -60 -124.5t-117 -34.5q-29 0 -57 8z" />
    <glyph glyph-name="uni0259" unicode="&#x259;" horiz-adv-x="550" 
d="M108 11.5q-48 27.5 -73 75t-25 105.5q0 42 11 80h382q2 10 2 20q-1 57 -38 89t-88 32q-98 0 -150 -81l-85 45q84 135 243 135q69 0 120.5 -31t79 -83.5t27.5 -116.5q0 -77 -37.5 -145.5t-104 -110t-149.5 -41.5q-67 0 -115 27.5zM329 109.5q41 30.5 57 77.5h-269v-7
q0 -40 29.5 -70.5t88.5 -30.5q53 0 94 30.5z" />
    <glyph glyph-name="circumflex" unicode="&#x2c6;" horiz-adv-x="426" 
d="M98 595l127 121h98l87 -121l-2 -7h-100l-37 60h-9l-54 -60h-112z" />
    <glyph glyph-name="caron" unicode="&#x2c7;" horiz-adv-x="426" 
d="M118 709l2 7h100l37 -59h10l54 59h111l-2 -7l-127 -121h-98z" />
    <glyph glyph-name="breve" unicode="&#x2d8;" horiz-adv-x="407" 
d="M165.5 613.5q-33.5 30.5 -33.5 77.5q0 6 2 22h83q-1 -4 -1 -10q0 -17 11 -29t31 -12q22 0 37.5 14t20.5 37h82q-10 -64 -49.5 -97t-100.5 -33q-49 0 -82.5 30.5z" />
    <glyph glyph-name="dotaccent" unicode="&#x2d9;" horiz-adv-x="249" 
d="M130.5 609.5q-19.5 19.5 -19.5 45.5q0 28 19 47t46 19q29 0 47.5 -18.5t18.5 -47.5q0 -27 -19 -46t-47 -19q-26 0 -45.5 19.5z" />
    <glyph glyph-name="ring" unicode="&#x2da;" horiz-adv-x="404" 
d="M177 597q-31 31 -31 75t31 75t75 31t74.5 -31t30.5 -75t-31 -75t-74 -31q-44 0 -75 31zM279.5 644q11.5 12 11.5 28t-11.5 28t-27.5 12t-28 -11.5t-12 -28.5q0 -16 12 -28t28 -12t27.5 12z" />
    <glyph glyph-name="ogonek" unicode="&#x2db;" horiz-adv-x="412" 
d="M52.5 -197.5q-29.5 26.5 -29.5 67.5q0 40 22 73t61 57h104q-33 -19 -60.5 -48t-27.5 -57q0 -16 10 -25t25 -9q19 0 42 10l-15 -86q-13 -5 -24 -7t-29 -2q-49 0 -78.5 26.5z" />
    <glyph glyph-name="tilde" unicode="&#x2dc;" horiz-adv-x="409" 
d="M284 597q-15 6 -36 18q-18 10 -30 15t-25 5q-27 0 -36 -32h-83q8 60 40 91t80 31q18 0 32.5 -5.5t38.5 -18.5q33 -20 53 -20q29 0 36 32h84q-8 -60 -40 -91t-81 -31q-18 0 -33 6z" />
    <glyph glyph-name="hungarumlaut" unicode="&#x2dd;" horiz-adv-x="435" 
d="M180 720h126l-104 -132h-93zM361 720h126l-104 -132h-93z" />
    <glyph glyph-name="gravecomb" unicode="&#x300;" horiz-adv-x="0" 
d="M-258 726h121l24 -132h-89z" />
    <glyph glyph-name="acutecomb" unicode="&#x301;" horiz-adv-x="0" 
d="M-159 726h126l-104 -132h-93z" />
    <glyph glyph-name="uni0302" unicode="&#x302;" horiz-adv-x="0" 
d="M-327 601l128 121h97l87 -121l-1 -6h-101l-36 59h-10l-54 -59h-112z" />
    <glyph glyph-name="tildecomb" unicode="&#x303;" horiz-adv-x="0" 
d="M-124 603q-15 6 -36 18q-18 10 -30 15t-25 5q-27 0 -36 -32h-83q8 60 40 91t80 31q18 0 32.5 -5.5t38.5 -18.5q33 -20 53 -20q29 0 36 32h84q-8 -60 -40 -91t-80 -31q-19 0 -34 6z" />
    <glyph glyph-name="uni0304" unicode="&#x304;" horiz-adv-x="0" 
d="M-286 708h288l-15 -85h-288z" />
    <glyph glyph-name="uni0306" unicode="&#x306;" horiz-adv-x="0" 
d="M-240.5 619.5q-33.5 30.5 -33.5 77.5q0 6 2 22h83q-1 -4 -1 -10q0 -17 11 -29t31 -12q22 0 37.5 14t20.5 37h82q-10 -64 -49.5 -97t-100.5 -33q-49 0 -82.5 30.5z" />
    <glyph glyph-name="uni0307" unicode="&#x307;" horiz-adv-x="0" 
d="M-117.5 615.5q-19.5 19.5 -19.5 45.5q0 28 19.5 47t46.5 19q28 0 46.5 -19t18.5 -47q0 -27 -19 -46t-46 -19t-46.5 19.5z" />
    <glyph glyph-name="uni0308" unicode="&#x308;" horiz-adv-x="0" 
d="M-294 620.5q-19 19.5 -19 44.5q0 27 19 45.5t45 18.5q27 0 45.5 -18t18.5 -46q0 -26 -18.5 -45t-45.5 -19q-26 0 -45 19.5zM-115 620q-19 19 -19 45q0 27 18.5 45.5t44.5 18.5q28 0 46 -18t18 -46q0 -26 -18.5 -45t-45.5 -19q-25 0 -44 19z" />
    <glyph glyph-name="uni030A" unicode="&#x30a;" horiz-adv-x="0" 
d="M-226 603q-31 31 -31 75t31 75t75 31t75 -31t31 -75q0 -43 -31.5 -74.5t-74.5 -31.5q-44 0 -75 31zM-123.5 650q11.5 12 11.5 28t-11.5 28t-27.5 12q-17 0 -28.5 -11.5t-11.5 -28.5q0 -16 12 -28t28 -12t27.5 12z" />
    <glyph glyph-name="uni030B" unicode="&#x30b;" horiz-adv-x="0" 
d="M-254 726h126l-104 -132h-93zM-73 726h126l-104 -132h-93z" />
    <glyph glyph-name="uni030C" unicode="&#x30c;" horiz-adv-x="0" 
d="M-307 716l2 6h100l37 -59h10l54 59h111l-1 -6l-128 -121h-98z" />
    <glyph glyph-name="uni0312" unicode="&#x312;" horiz-adv-x="0" 
d="M-120 701q20 -5 31.5 -21.5t11.5 -37.5q0 -26 -18.5 -45t-46.5 -19t-46 19t-18 47q0 32 18 53l81 98l40 -34z" />
    <glyph glyph-name="uni0326" unicode="&#x326;" horiz-adv-x="0" 
d="M-289 -171q-20 5 -31.5 21.5t-11.5 37.5q0 26 18.5 45t46.5 19t46 -19t18 -47q0 -32 -18 -53l-81 -98l-40 34z" />
    <glyph glyph-name="uni0327" unicode="&#x327;" horiz-adv-x="0" 
d="M-377 -217.5q-27 19.5 -33 46.5l61 25q2 -13 12.5 -22t24.5 -9q17 0 29 11.5t12 30.5q0 14 -9 23.5t-24 9.5q-16 0 -31 -15l-49 24l52 93h61l-29 -48q12 2 19 2q35 0 56.5 -24t21.5 -63q0 -46 -31.5 -75t-81.5 -29q-34 0 -61 19.5z" />
    <glyph glyph-name="uni0328" unicode="&#x328;" horiz-adv-x="0" 
d="M-359.5 -197.5q-29.5 26.5 -29.5 67.5q0 40 22 73t61 57h104q-33 -19 -60.5 -48t-27.5 -57q0 -16 10 -25t25 -9q19 0 42 10l-15 -86q-13 -5 -24 -7t-29 -2q-49 0 -78.5 26.5z" />
    <glyph glyph-name="uni0374" unicode="&#x374;" horiz-adv-x="294" 
d="M317 716l-161 -215h-92l116 215h137z" />
    <glyph glyph-name="uni0375" unicode="&#x375;" horiz-adv-x="294" 
d="M18 -93l133 215h93l-92 -215h-134z" />
    <glyph glyph-name="uni037E" unicode="&#x37e;" horiz-adv-x="250" 
d="M81.5 374.5q-22.5 22.5 -22.5 54.5t22.5 54t54.5 22t54 -22t22 -54t-22 -54.5t-54 -22.5t-54.5 22.5zM-26 -71l71 86q-16 9 -28.5 26t-12.5 43q0 32 22.5 54t53.5 22q32 0 54.5 -22t22.5 -54q0 -17 -9.5 -33.5t-28.5 -39.5l-100 -120z" />
    <glyph glyph-name="tonos" unicode="&#x384;" horiz-adv-x="420" 
d="M239 722h126l-102 -132h-94z" />
    <glyph glyph-name="dieresistonos" unicode="&#x385;" horiz-adv-x="430" 
d="M244 732h69l-25 -144h-69zM100.5 618q-17.5 18 -17.5 41q0 25 17.5 42t41.5 17q25 0 41.5 -17t16.5 -42q0 -24 -17 -41.5t-41 -17.5t-41.5 18zM349.5 618q-17.5 18 -17.5 41q0 25 17.5 42t40.5 17q25 0 42 -17t17 -42q0 -24 -17.5 -41.5t-41.5 -17.5q-23 0 -40.5 18z" />
    <glyph glyph-name="Alphatonos" unicode="&#x386;" horiz-adv-x="694" 
d="M344 716h129l143 -716h-120l-33 183h-288l-98 -183h-127zM443 287l-39 213l-13 83h-6l-42 -83l-113 -213h213zM147 720h126l-104 -132h-93z" />
    <glyph glyph-name="anoteleia" unicode="&#x387;" horiz-adv-x="193" 
d="M40.5 269.5q-22.5 22.5 -22.5 54.5t22.5 54.5t54.5 22.5t54.5 -22.5t22.5 -54.5t-22.5 -54.5t-54.5 -22.5t-54.5 22.5z" />
    <glyph glyph-name="Epsilontonos" unicode="&#x388;" horiz-adv-x="628" 
d="M200 716h435l-19 -107h-323l-35 -198h291l-19 -106h-291l-35 -198h323l-19 -107h-435zM36 720h126l-104 -132h-93z" />
    <glyph glyph-name="Etatonos" unicode="&#x389;" horiz-adv-x="771" 
d="M199 716h112l-53 -297h332l53 297h112l-127 -716h-112l56 313h-332l-56 -313h-112zM27 720h126l-104 -132h-93z" />
    <glyph glyph-name="Iotatonos" unicode="&#x38a;" horiz-adv-x="327" 
d="M199 716h112l-127 -716h-112zM27 720h126l-104 -132h-93z" />
    <glyph glyph-name="Omicrontonos" unicode="&#x38c;" horiz-adv-x="828" 
d="M200 25.5q-76 41.5 -119.5 116t-43.5 170.5q0 111 53.5 207.5t150 154.5t219.5 58q94 0 169.5 -42t118.5 -116.5t43 -169.5q0 -111 -53.5 -207.5t-150 -154.5t-218.5 -58q-93 0 -169 41.5zM529.5 134q68.5 43 108 114t39.5 151q0 67 -30 118.5t-82.5 79.5t-116.5 28
q-81 0 -149.5 -42.5t-108.5 -113.5t-40 -151q0 -68 30 -119.5t82.5 -79.5t116.5 -28q82 0 150.5 43zM23 720h126l-104 -132h-93z" />
    <glyph glyph-name="Upsilontonos" unicode="&#x38e;" horiz-adv-x="710" 
d="M342 333l-173 383h128l114 -266h6l204 266h137l-305 -383l-59 -333h-111zM28 720h126l-104 -132h-93z" />
    <glyph glyph-name="Omegatonos" unicode="&#x38f;" horiz-adv-x="765" 
d="M23 720h126l-104 -132h-93zM-16 102h152l1 6q-52 41 -86.5 101.5t-34.5 142.5q0 101 51.5 188.5t144 139.5t209.5 52q96 0 167 -40t109 -108t38 -150q0 -106 -56.5 -188t-158.5 -138l-1 -6h146l-18 -102h-287l26 145q65 15 118.5 55.5t84.5 97.5t31 120t-27 109.5t-75 72
t-111 25.5q-78 0 -141.5 -36t-100 -97t-36.5 -133q0 -82 42.5 -136.5t108.5 -77.5l-26 -145h-286z" />
    <glyph glyph-name="iotadieresistonos" unicode="&#x390;" horiz-adv-x="250" 
d="M92 496h110l-86 -496h-110zM154 732h69l-25 -144h-69zM10.5 618q-17.5 18 -17.5 41q0 25 17.5 42t41.5 17q25 0 41.5 -17t16.5 -42q0 -24 -17 -41.5t-41 -17.5t-41.5 18zM259.5 618q-17.5 18 -17.5 41q0 25 17.5 42t40.5 17q25 0 42 -17t17 -42q0 -24 -17.5 -41.5
t-41.5 -17.5q-23 0 -40.5 18z" />
    <glyph glyph-name="Alpha" unicode="&#x391;" horiz-adv-x="694" 
d="M344 716h129l143 -716h-120l-33 183h-288l-98 -183h-127zM443 287l-39 213l-13 83h-6l-42 -83l-113 -213h213z" />
    <glyph glyph-name="Beta" unicode="&#x392;" horiz-adv-x="623" 
d="M141 716h250q62 0 107.5 -24t69 -64t23.5 -87q0 -64 -36 -107t-90 -60l-1 -6q95 -48 95 -148q0 -63 -34.5 -113.5t-95 -78.5t-134.5 -28h-281zM352 416q57 0 92 28t35 78q0 39 -25.5 65t-69.5 26h-150l-34 -197h152zM314 104q53 0 92 30.5t39 84.5q0 44 -28 70.5
t-78 26.5h-157l-37 -212h169z" />
    <glyph glyph-name="Gamma" unicode="&#x393;" horiz-adv-x="524" 
d="M141 716h419l-19 -107h-307l-108 -609h-112z" />
    <glyph glyph-name="uni0394" unicode="&#x394;" horiz-adv-x="686" 
d="M342 716h127l139 -716h-658zM470 105l-83 473h-6l-248 -473h337z" />
    <glyph glyph-name="Epsilon" unicode="&#x395;" horiz-adv-x="570" 
d="M141 716h435l-19 -107h-323l-35 -198h291l-19 -106h-291l-35 -198h323l-19 -107h-435z" />
    <glyph glyph-name="Zeta" unicode="&#x396;" horiz-adv-x="589" 
d="M-6 115l455 494h-353l19 107h487l-20 -115l-455 -494h371l-19 -107h-506z" />
    <glyph glyph-name="Eta" unicode="&#x397;" horiz-adv-x="713" 
d="M141 716h112l-53 -297h332l53 297h112l-127 -716h-112l56 313h-332l-56 -313h-112z" />
    <glyph glyph-name="Theta" unicode="&#x398;" horiz-adv-x="842" 
d="M200 25.5q-76 41.5 -119.5 116t-43.5 170.5q0 111 53.5 207.5t150 154.5t219.5 58q94 0 169.5 -42t118.5 -116.5t43 -169.5q0 -111 -53.5 -207.5t-150 -154.5t-218.5 -58q-93 0 -169 41.5zM529.5 134q68.5 43 108 114t39.5 151q0 67 -30 118.5t-82.5 79.5t-116.5 28
q-81 0 -149.5 -42.5t-108.5 -113.5t-40 -151q0 -68 30 -119.5t82.5 -79.5t116.5 -28q82 0 150.5 43zM269 409h316l-17 -102h-316z" />
    <glyph glyph-name="Iota" unicode="&#x399;" horiz-adv-x="270" 
d="M141 716h112l-127 -716h-112z" />
    <glyph glyph-name="Kappa" unicode="&#x39a;" horiz-adv-x="643" 
d="M141 716h112l-61 -347h6l339 347h146l-1 -6l-363 -363l251 -341l-1 -6h-139l-240 328h-5l-59 -328h-112z" />
    <glyph glyph-name="Lambda" unicode="&#x39b;" horiz-adv-x="678" 
d="M337 716h129l134 -716h-121l-83 504l-11 79h-6l-39 -79l-262 -504h-128z" />
    <glyph glyph-name="Mu" unicode="&#x39c;" horiz-adv-x="880" 
d="M141 716h149l111 -543h6l301 543h156l-127 -716h-111l70 401l29 129h-5l-296 -530h-91l-113 530h-6l-18 -129l-70 -401h-112z" />
    <glyph glyph-name="Nu" unicode="&#x39d;" horiz-adv-x="722" 
d="M141 716h126l235 -521h6l19 138l68 383h111l-127 -716h-109l-248 548h-5l-19 -138l-72 -410h-112z" />
    <glyph glyph-name="Xi" unicode="&#x39e;" horiz-adv-x="523" 
d="M94 716h459l-19 -107h-459zM72 411h395l-18 -106h-395zM-13 107h458l-19 -107h-458z" />
    <glyph glyph-name="Omicron" unicode="&#x39f;" horiz-adv-x="828" 
d="M200 25.5q-76 41.5 -119.5 116t-43.5 170.5q0 111 53.5 207.5t150 154.5t219.5 58q94 0 169.5 -42t118.5 -116.5t43 -169.5q0 -111 -53.5 -207.5t-150 -154.5t-218.5 -58q-93 0 -169 41.5zM529.5 134q68.5 43 108 114t39.5 151q0 67 -30 118.5t-82.5 79.5t-116.5 28
q-81 0 -149.5 -42.5t-108.5 -113.5t-40 -151q0 -68 30 -119.5t82.5 -79.5t116.5 -28q82 0 150.5 43z" />
    <glyph glyph-name="Pi" unicode="&#x3a0;" horiz-adv-x="691" 
d="M141 716h533l-127 -716h-112l108 609h-309l-108 -609h-112z" />
    <glyph glyph-name="Rho" unicode="&#x3a1;" horiz-adv-x="590" 
d="M141 716h239q60 0 107 -24.5t73.5 -69t26.5 -101.5q0 -76 -34.5 -131t-96 -83.5t-140.5 -28.5h-140l-50 -278h-112zM333 384q62 0 101 31.5t39 94.5q0 45 -27.5 72t-72.5 27h-139l-40 -225h139z" />
    <glyph glyph-name="Sigma" unicode="&#x3a3;" horiz-adv-x="523" 
d="M384 366l-249 -261h312l-19 -105h-444l19 113l247 256l-161 234l21 113h445l-19 -105h-318z" />
    <glyph glyph-name="Tau" unicode="&#x3a4;" horiz-adv-x="564" 
d="M269 609h-200l19 107h512l-19 -107h-200l-108 -609h-112z" />
    <glyph glyph-name="Upsilon" unicode="&#x3a5;" horiz-adv-x="618" 
d="M250 333l-173 383h128l114 -266h6l204 266h137l-305 -383l-59 -333h-111z" />
    <glyph glyph-name="Phi" unicode="&#x3a6;" horiz-adv-x="811" 
d="M295 59q-76 9 -134.5 45t-90.5 93.5t-32 128.5q0 92 47.5 164.5t130.5 115.5t186 51l13 74h111l-13 -75q78 -10 136.5 -47t90.5 -94.5t32 -128.5q0 -91 -47.5 -163t-130.5 -114.5t-187 -50.5l-13 -73h-111zM383 553q-99 -13 -165 -69.5t-66 -146.5q0 -74 42 -118.5
t119 -55.5zM592 230.5q66 56.5 66 147.5q0 74 -42.5 119t-120.5 56l-70 -390q101 11 167 67.5z" />
    <glyph glyph-name="Chi" unicode="&#x3a7;" horiz-adv-x="662" 
d="M263 376l-168 340h136l116 -253h6l203 253h141l-290 -349l183 -367h-135l-132 273h-6l-224 -273h-139z" />
    <glyph glyph-name="Psi" unicode="&#x3a8;" horiz-adv-x="767" 
d="M180 184q-49 28 -77.5 81t-28.5 125q0 38 6 68l46 258h111l-48 -270q-5 -32 -5 -53q0 -62 32 -96t93 -34l81 453h112l-81 -453q74 0 122 49t62 130l49 274h112l-52 -289q-15 -85 -60 -146t-111 -93t-141 -32l-27 -156h-112l27 156q-61 0 -110 28z" />
    <glyph glyph-name="uni03A9" unicode="&#x3a9;" horiz-adv-x="807" 
d="M15 102h152l1 6q-52 41 -86.5 101.5t-34.5 142.5q0 101 51.5 188.5t144 139.5t209.5 52q96 0 167 -40t109 -108t38 -150q0 -106 -56.5 -188t-158.5 -138l-1 -6h146l-18 -102h-287l26 145q65 15 118.5 55.5t84.5 97.5t31 120t-27 109.5t-75 72t-111 25.5q-78 0 -141.5 -36
t-100 -97t-36.5 -133q0 -82 42.5 -136.5t108.5 -77.5l-26 -145h-286z" />
    <glyph glyph-name="Iotadieresis" unicode="&#x3aa;" horiz-adv-x="270" 
d="M92 815q-18 18 -18 41q0 24 18 41.5t42 17.5q25 0 42 -17t17 -42q0 -24 -17.5 -41.5t-41.5 -17.5t-42 18zM257 815q-18 18 -18 41q0 24 17.5 41.5t41.5 17.5q25 0 42 -17t17 -42q0 -24 -17.5 -41.5t-41.5 -17.5q-23 0 -41 18zM140 716h112l-127 -716h-112z" />
    <glyph glyph-name="Upsilondieresis" unicode="&#x3ab;" horiz-adv-x="618" 
d="M250 333l-173 383h128l114 -266h6l204 266h137l-305 -383l-59 -333h-111zM246 798q-19 19 -19 45q0 27 19 45.5t45 18.5q27 0 45.5 -18.5t18.5 -45.5q0 -26 -18.5 -45t-45.5 -19q-26 0 -45 19zM425 798q-19 19 -19 45q0 27 18.5 45.5t44.5 18.5q28 0 46 -18.5t18 -45.5
q0 -26 -18.5 -45t-45.5 -19q-25 0 -44 19z" />
    <glyph glyph-name="alphatonos" unicode="&#x3ac;" horiz-adv-x="601" 
d="M112 12q-47 28 -74.5 80t-27.5 121q0 80 37 148.5t102.5 109.5t146.5 41q52 0 91 -22.5t59 -57.5h6l11 64h104l-88 -496h-104l11 65h-5q-56 -81 -166 -81q-56 0 -103 28zM336.5 111q39.5 26 62.5 70t23 96q0 61 -36 97.5t-91 36.5q-48 0 -87.5 -24.5t-62.5 -67.5t-23 -95
q0 -64 34.5 -101.5t92.5 -37.5q48 0 87.5 26zM342 722h126l-102 -132h-94z" />
    <glyph glyph-name="epsilontonos" unicode="&#x3ad;" horiz-adv-x="503" 
d="M58 23.5q-51 39.5 -51 100.5q0 48 28 81.5t78 49.5l1 6q-49 35 -49 94q0 47 28 82.5t77 55t109 19.5q57 0 99 -21t75 -64l-78 -62q-39 54 -106 54q-41 0 -70.5 -17.5t-29.5 -50.5q0 -26 19.5 -41.5t53.5 -15.5h71l-14 -83h-85q-39 0 -67.5 -18.5t-28.5 -50.5
q0 -29 23.5 -45.5t65.5 -16.5q44 0 76 15t68 49l68 -66q-50 -49 -102 -71.5t-122 -22.5q-86 0 -137 39.5zM319 722h126l-102 -132h-94z" />
    <glyph glyph-name="etatonos" unicode="&#x3ae;" horiz-adv-x="572" 
d="M392 292q3 20 3 38q0 38 -24.5 59.5t-66.5 21.5q-58 0 -97.5 -41.5t-51.5 -106.5l-46 -263h-110l87 496h104l-12 -66h6q26 38 68.5 60t95.5 22q74 0 117 -42.5t43 -110.5q0 -33 -7 -68l-89 -507h-110zM367 722h126l-102 -132h-94z" />
    <glyph glyph-name="iotatonos" unicode="&#x3af;" horiz-adv-x="250" 
d="M92 496h110l-86 -496h-110zM187 722h126l-102 -132h-94z" />
    <glyph glyph-name="upsilondieresistonos" unicode="&#x3b0;" horiz-adv-x="567" 
d="M86.5 36q-54.5 52 -54.5 140q0 30 5 59l46 261h110l-47 -262q-4 -20 -4 -40q1 -53 28.5 -81t73.5 -28q79 0 121.5 58t42.5 147q0 98 -46 206h118q39 -96 39 -201q0 -90 -33.5 -160.5t-99 -110.5t-156.5 -40q-89 0 -143.5 52zM287 732h69l-25 -144h-69zM143.5 618
q-17.5 18 -17.5 41q0 25 17.5 42t41.5 17q25 0 41.5 -17t16.5 -42q0 -24 -17 -41.5t-41 -17.5t-41.5 18zM392.5 618q-17.5 18 -17.5 41q0 25 17.5 42t40.5 17q25 0 42 -17t17 -42q0 -24 -17.5 -41.5t-41.5 -17.5q-23 0 -40.5 18z" />
    <glyph glyph-name="alpha" unicode="&#x3b1;" horiz-adv-x="601" 
d="M112 12q-47 28 -74.5 80t-27.5 121q0 80 37 148.5t102.5 109.5t146.5 41q52 0 91 -22.5t59 -57.5h6l11 64h104l-88 -496h-104l11 65h-5q-56 -81 -166 -81q-56 0 -103 28zM336.5 111q39.5 26 62.5 70t23 96q0 61 -36 97.5t-91 36.5q-48 0 -87.5 -24.5t-62.5 -67.5t-23 -95
q0 -64 34.5 -101.5t92.5 -37.5q48 0 87.5 26z" />
    <glyph glyph-name="beta" unicode="&#x3b2;" horiz-adv-x="585" 
d="M103 512q17 100 78.5 160t166.5 60q57 0 102.5 -23t71 -62t25.5 -87q0 -64 -31.5 -107t-81.5 -63l-2 -6q41 -22 65 -62t24 -97q0 -66 -33 -121t-90.5 -87.5t-127.5 -32.5q-42 0 -79 17t-59 47h-6l-7 -72l-33 -192h-111zM337.5 103q31.5 17 51.5 48t20 72q0 50 -34 80
t-88 30h-26l17 99h26q52 0 91.5 29t39.5 76q0 42 -27.5 67t-71.5 25q-48 0 -80.5 -32.5t-41.5 -84.5l-51 -288q-3 -18 -3 -36q0 -47 30 -74.5t82 -27.5q34 0 65.5 17z" />
    <glyph glyph-name="gamma" unicode="&#x3b3;" horiz-adv-x="564" 
d="M169 6l-133 490h120l87 -359h4l214 359h125l-307 -488l-40 -224h-110z" />
    <glyph glyph-name="delta" unicode="&#x3b4;" horiz-adv-x="585" 
d="M121.5 14q-51.5 30 -81 83t-29.5 118q0 70 28.5 131t86 103.5t139.5 54.5l-141 127l15 85h418l-18 -96h-255l156 -137q50 -44 73 -94t23 -110q0 -82 -37.5 -149.5t-105.5 -106.5t-157 -39q-63 0 -114.5 30zM338 108q40 23 63.5 65t23.5 98q0 60 -37.5 100t-95.5 40
q-48 0 -86.5 -24.5t-61 -67t-22.5 -96.5q0 -61 37.5 -99.5t91.5 -38.5q47 0 87 23z" />
    <glyph glyph-name="epsilon" unicode="&#x3b5;" horiz-adv-x="503" 
d="M58 23.5q-51 39.5 -51 100.5q0 48 28 81.5t78 49.5l1 6q-49 35 -49 94q0 47 28 82.5t77 55t109 19.5q57 0 99 -21t75 -64l-78 -62q-39 54 -106 54q-41 0 -70.5 -17.5t-29.5 -50.5q0 -26 19.5 -41.5t53.5 -15.5h71l-14 -83h-85q-39 0 -67.5 -18.5t-28.5 -50.5
q0 -29 23.5 -45.5t65.5 -16.5q44 0 76 15t68 49l68 -66q-50 -49 -102 -71.5t-122 -22.5q-86 0 -137 39.5z" />
    <glyph glyph-name="zeta" unicode="&#x3b6;" horiz-adv-x="498" 
d="M261 -75q23 0 37.5 10.5t14.5 30.5q0 34 -43 34h-120q-66 0 -104 35.5t-38 91.5q0 45 22 78t67 61l211 134h-237l17 96h397l-17 -93q-46 -30 -149.5 -97t-158.5 -102q-40 -25 -40 -59q0 -23 16.5 -36t42.5 -13h102q65 0 101.5 -31.5t36.5 -87.5q0 -68 -47 -106.5
t-128 -38.5z" />
    <glyph glyph-name="eta" unicode="&#x3b7;" horiz-adv-x="572" 
d="M392 292q3 20 3 38q0 38 -24.5 59.5t-66.5 21.5q-58 0 -97.5 -41.5t-51.5 -106.5l-46 -263h-110l87 496h104l-12 -66h6q26 38 68.5 60t95.5 22q74 0 117 -42.5t43 -110.5q0 -33 -7 -68l-89 -507h-110z" />
    <glyph glyph-name="theta" unicode="&#x3b8;" horiz-adv-x="678" 
d="M152.5 20q-53.5 36 -82.5 102t-29 156q0 110 44 207t122 156t175 59q71 0 124 -36t82.5 -102.5t29.5 -155.5q0 -110 -44 -207t-122 -156t-175 -59q-71 0 -124.5 36zM505 405q-4 90 -39.5 140.5t-96.5 50.5q-66 0 -121.5 -53.5t-79.5 -137.5h337zM381 117.5
q43 29.5 74 81.5t43 116h-344q-1 -9 -1 -20q0 -96 36.5 -151.5t100.5 -55.5q48 0 91 29.5z" />
    <glyph glyph-name="iota" unicode="&#x3b9;" horiz-adv-x="250" 
d="M92 496h110l-86 -496h-110z" />
    <glyph glyph-name="kappa" unicode="&#x3ba;" horiz-adv-x="508" 
d="M86 496h110l-39 -218h6l219 218h137l-2 -6l-241 -234l165 -250l-1 -6h-127l-156 244h-6l-43 -244h-109z" />
    <glyph glyph-name="lambda" unicode="&#x3bb;" horiz-adv-x="530" 
d="M232 464l-66 242h118l180 -706h-119l-75 324h-5l-191 -324h-125z" />
    <glyph glyph-name="uni03BC" unicode="&#x3bc;" horiz-adv-x="572" 
d="M83 496h110l-52 -294q-4 -16 -4 -35q0 -39 24.5 -60.5t66.5 -21.5q58 0 98 41.5t52 106.5l46 263h110l-87 -496h-104l12 66h-6q-27 -39 -66.5 -60.5t-91.5 -21.5q-24 0 -47 9t-36 24h-6l-4 -60l-31 -173h-109z" />
    <glyph glyph-name="nu" unicode="&#x3bd;" horiz-adv-x="534" 
d="M31 496h121l71 -354h5l200 354h124l-295 -496h-110z" />
    <glyph glyph-name="xi" unicode="&#x3be;" horiz-adv-x="537" 
d="M284 -75q20 0 35.5 11.5t15.5 30.5q0 33 -39 33h-79q-65 0 -114 23.5t-75.5 64.5t-26.5 92q0 138 149 202l1 6q-68 52 -68 133q0 57 32 105t90.5 77t133.5 29q68 0 118 -29.5t79 -79.5l-94 -62q-19 36 -46.5 52.5t-68.5 16.5q-56 0 -94.5 -30t-38.5 -82q0 -43 31.5 -68.5
t78.5 -25.5h94l-17 -99h-111q-68 0 -111 -32.5t-43 -87.5q0 -48 34.5 -74t88.5 -26h54q72 0 110.5 -31.5t38.5 -89.5q0 -70 -48 -110.5t-127 -41.5z" />
    <glyph glyph-name="omicron" unicode="&#x3bf;" horiz-adv-x="584" 
d="M123 15.5q-53 31.5 -82.5 85t-29.5 118.5q0 82 38 149t106 105.5t154 38.5q68 0 121 -31.5t82.5 -85t29.5 -117.5q0 -82 -38 -149.5t-106 -106t-153 -38.5q-69 0 -122 31.5zM346.5 110q39.5 25 62 67t22.5 91q0 62 -38.5 102.5t-95.5 40.5q-50 0 -90 -25t-62 -67t-22 -91
q0 -62 38 -102.5t95 -40.5q51 0 90.5 25z" />
    <glyph glyph-name="pi" unicode="&#x3c0;" horiz-adv-x="719" 
d="M446 25.5q-36 33.5 -36 91.5q0 20 5 51l41 231h-197l-70 -399h-110l70 399h-118l17 97h655l-17 -97h-120l-39 -221q-4 -26 -4 -33q0 -23 12.5 -38t36.5 -15q29 0 62 16l-19 -106q-38 -10 -74 -10q-59 0 -95 33.5z" />
    <glyph glyph-name="rho" unicode="&#x3c1;" horiz-adv-x="603" 
d="M47 245q21 120 97.5 193.5t197.5 73.5q66 0 115.5 -28.5t77 -81t27.5 -120.5q0 -76 -36.5 -145t-101.5 -111t-146 -42q-53 0 -94 23.5t-59 57.5h-6l-5 -70l-38 -211h-109zM363.5 109.5q39.5 24.5 62.5 67.5t23 96q0 63 -34.5 100t-89.5 37q-49 0 -89 -26t-63.5 -70.5
t-23.5 -96.5q0 -61 36 -96.5t92 -35.5q47 0 86.5 24.5z" />
    <glyph glyph-name="uni03C2" unicode="&#x3c2;" horiz-adv-x="541" 
d="M129.5 13.5q-56.5 29.5 -87 83t-30.5 123.5q0 80 37.5 147t105.5 106t154 39q83 0 136.5 -40t72.5 -102l-106 -41q-12 40 -42 61t-75 21q-49 0 -88.5 -24.5t-61.5 -66.5t-22 -91q0 -65 37.5 -104.5t111.5 -39.5h25q66 0 105.5 -32.5t39.5 -87.5q0 -70 -47 -109t-127 -40
l16 93q23 0 37.5 11.5t14.5 30.5q0 14 -11.5 23.5t-32.5 9.5h-32q-74 0 -130.5 29.5z" />
    <glyph glyph-name="sigma" unicode="&#x3c3;" horiz-adv-x="612" 
d="M119.5 12.5q-51.5 28.5 -80.5 79.5t-29 116q0 77 36 143t102 105.5t154 39.5h319l-17 -96h-54l-71 6l-2 -6q21 -23 33.5 -57.5t12.5 -76.5q0 -81 -37.5 -145t-103 -100.5t-145.5 -36.5q-66 0 -117.5 28.5zM331 107.5q38 22.5 59.5 62.5t21.5 90q0 61 -34.5 98t-87.5 37
q-48 0 -86.5 -23.5t-60 -64t-21.5 -90.5q0 -60 35 -96t90 -36q46 0 84 22.5z" />
    <glyph glyph-name="tau" unicode="&#x3c4;" horiz-adv-x="477" 
d="M189 395h-156l18 101h423l-19 -101h-156l-70 -395h-110z" />
    <glyph glyph-name="upsilon" unicode="&#x3c5;" horiz-adv-x="567" 
d="M86.5 36q-54.5 52 -54.5 140q0 30 5 59l46 261h110l-47 -262q-4 -20 -4 -40q1 -53 28.5 -81t73.5 -28q79 0 121.5 58t42.5 147q0 98 -46 206h118q39 -96 39 -201q0 -90 -33.5 -160.5t-99 -110.5t-156.5 -40q-89 0 -143.5 52z" />
    <glyph glyph-name="phi" unicode="&#x3c6;" horiz-adv-x="742" 
d="M253 -12q-100 14 -160.5 76.5t-60.5 154.5q0 100 59 174.5t162 118.5l33 -94q-141 -64 -141 -188q0 -57 34.5 -93.5t91.5 -47.5l48 270q12 69 60.5 111t118.5 42q86 0 136 -59.5t50 -156.5q0 -86 -40.5 -153.5t-113.5 -108.5t-166 -47l-36 -203h-111zM521 153
q52 53 52 139q0 53 -22 86t-59 33q-23 0 -41 -14.5t-22 -40.5l-48 -268q88 12 140 65z" />
    <glyph glyph-name="chi" unicode="&#x3c7;" horiz-adv-x="502" 
d="M164 257l-126 239h127l77 -158h4l129 158h135l-215 -246l130 -250h-126l-80 167h-4l-135 -167h-134z" />
    <glyph glyph-name="psi" unicode="&#x3c8;" horiz-adv-x="716" 
d="M242 -16q-60 0 -108.5 24.5t-76.5 71t-28 107.5q0 27 4 51l46 258h110l-47 -264q-4 -20 -4 -36q0 -55 35.5 -83t86.5 -28l73 411h110l-73 -410q63 0 105 31t61.5 80.5t19.5 106.5t-8 101t-25 91h112q32 -84 32 -187q0 -94 -39 -168t-110.5 -115.5t-165.5 -41.5l-35 -200
h-110z" />
    <glyph glyph-name="omega" unicode="&#x3c9;" horiz-adv-x="803" 
d="M114.5 8.5q-40.5 24.5 -64.5 70.5t-24 108q0 83 34 159.5t89 149.5h125q-60 -75 -96.5 -148t-36.5 -146q0 -53 22.5 -83.5t61.5 -30.5q42 0 75.5 38t46.5 109l25 140h104l-25 -140q-5 -27 -5 -54q0 -43 22 -68t60 -25q43 0 73 29.5t45 75.5t15 97q0 54 -11 102t-34 104
h121q18 -49 27.5 -98t9.5 -108q0 -75 -29 -145.5t-87.5 -115.5t-141.5 -45q-52 0 -88.5 24t-54.5 66q-62 -90 -168 -90q-50 0 -90.5 24.5z" />
    <glyph glyph-name="iotadieresis" unicode="&#x3ca;" horiz-adv-x="250" 
d="M53 621.5q-19 18.5 -19 43.5q0 27 18.5 45t44.5 18t44 -18t18 -45q0 -25 -18 -43.5t-44 -18.5q-25 0 -44 18.5zM203.5 621.5q-18.5 18.5 -18.5 43.5q0 27 18.5 45t43.5 18q27 0 45 -18t18 -45q0 -25 -18 -43.5t-45 -18.5q-25 0 -43.5 18.5zM92 496h110l-86 -496h-110z
" />
    <glyph glyph-name="upsilondieresis" unicode="&#x3cb;" horiz-adv-x="567" 
d="M86.5 36q-54.5 52 -54.5 140q0 30 5 59l46 261h110l-47 -262q-4 -20 -4 -40q1 -53 28.5 -81t73.5 -28q79 0 121.5 58t42.5 147q0 98 -46 206h118q39 -96 39 -201q0 -90 -33.5 -160.5t-99 -110.5t-156.5 -40q-89 0 -143.5 52zM176 620.5q-19 19.5 -19 44.5q0 27 19 45.5
t45 18.5q27 0 45.5 -18t18.5 -46q0 -26 -18.5 -45t-45.5 -19q-26 0 -45 19.5zM355 620q-19 19 -19 45q0 27 18.5 45.5t44.5 18.5q28 0 46 -18t18 -46q0 -26 -18.5 -45t-45.5 -19q-25 0 -44 19z" />
    <glyph glyph-name="omicrontonos" unicode="&#x3cc;" horiz-adv-x="584" 
d="M123 15.5q-53 31.5 -82.5 85t-29.5 118.5q0 82 38 149t106 105.5t154 38.5q68 0 121 -31.5t82.5 -85t29.5 -117.5q0 -82 -38 -149.5t-106 -106t-153 -38.5q-69 0 -122 31.5zM346.5 110q39.5 25 62 67t22.5 91q0 62 -38.5 102.5t-95.5 40.5q-50 0 -90 -25t-62 -67t-22 -91
q0 -62 38 -102.5t95 -40.5q51 0 90.5 25zM350 722h126l-102 -132h-94z" />
    <glyph glyph-name="upsilontonos" unicode="&#x3cd;" horiz-adv-x="567" 
d="M86.5 36q-54.5 52 -54.5 140q0 30 5 59l46 261h110l-47 -262q-4 -20 -4 -40q1 -53 28.5 -81t73.5 -28q79 0 121.5 58t42.5 147q0 98 -46 206h118q39 -96 39 -201q0 -90 -33.5 -160.5t-99 -110.5t-156.5 -40q-89 0 -143.5 52zM320 722h126l-102 -132h-94z" />
    <glyph glyph-name="omegatonos" unicode="&#x3ce;" horiz-adv-x="803" 
d="M114.5 8.5q-40.5 24.5 -64.5 70.5t-24 108q0 83 34 159.5t89 149.5h125q-60 -75 -96.5 -148t-36.5 -146q0 -53 22.5 -83.5t61.5 -30.5q42 0 75.5 38t46.5 109l25 140h104l-25 -140q-5 -27 -5 -54q0 -43 22 -68t60 -25q43 0 73 29.5t45 75.5t15 97q0 54 -11 102t-34 104
h121q18 -49 27.5 -98t9.5 -108q0 -75 -29 -145.5t-87.5 -115.5t-141.5 -45q-52 0 -88.5 24t-54.5 66q-62 -90 -168 -90q-50 0 -90.5 24.5zM484 722h126l-102 -132h-94z" />
    <glyph glyph-name="uni03D1" unicode="&#x3d1;" horiz-adv-x="636" 
d="M120 7.5q-45 23.5 -70.5 67.5t-25.5 103q0 26 5 56l47 262h107l-47 -259q-4 -34 -4 -44q0 -54 29 -81.5t78 -27.5q126 0 154 149l7 44q-76 19 -123 84t-47 156q0 60 22.5 109t65.5 77.5t103 28.5q69 0 104 -38t35 -101q0 -19 -5 -48l-32 -177h90l-17 -95h-90l-9 -54
q-19 -108 -92 -171.5t-183 -63.5q-57 0 -102 23.5zM452 568q1 7 1 20q0 21 -12 34.5t-34 13.5q-34 0 -53 -33.5t-19 -79.5q0 -51 21.5 -90.5t61.5 -56.5z" />
    <glyph glyph-name="uni03D2" unicode="&#x3d2;" horiz-adv-x="625" 
d="M247 315l-82 249q-10 31 -22.5 43.5t-31.5 12.5q-17 0 -31 -8l-30 90q16 9 41 15.5t50 6.5q40 0 70.5 -24t47.5 -75l59 -194h6l125 191q40 60 74.5 81t78.5 21q47 0 80 -24l-48 -89q-16 9 -31 9q-20 0 -37.5 -12.5t-38.5 -43.5l-169 -249l-55 -315h-112z" />
    <glyph glyph-name="uni03D3" unicode="&#x3d3;" horiz-adv-x="723" 
d="M345 315l-82 249q-10 31 -22.5 43.5t-31.5 12.5q-17 0 -31 -8l-30 90q16 9 41 15.5t50 6.5q40 0 70.5 -24t47.5 -75l59 -194h6l125 191q40 60 74.5 81t78.5 21q47 0 80 -24l-48 -89q-16 9 -31 9q-20 0 -37.5 -12.5t-38.5 -43.5l-169 -249l-55 -315h-112zM14 720h126
l-104 -132h-93z" />
    <glyph glyph-name="uni03D4" unicode="&#x3d4;" horiz-adv-x="625" 
d="M247 315l-82 249q-10 31 -22.5 43.5t-31.5 12.5q-17 0 -31 -8l-30 90q16 9 41 15.5t50 6.5q40 0 70.5 -24t47.5 -75l59 -194h6l125 191q40 60 74.5 81t78.5 21q47 0 80 -24l-48 -89q-16 9 -31 9q-20 0 -37.5 -12.5t-38.5 -43.5l-169 -249l-55 -315h-112zM241 798
q-19 19 -19 45q0 27 19 45.5t45 18.5q27 0 45.5 -18.5t18.5 -45.5q0 -26 -18.5 -45t-45.5 -19q-26 0 -45 19zM420 798q-19 19 -19 45q0 27 18.5 45.5t44.5 18.5q28 0 46 -18.5t18 -45.5q0 -26 -18.5 -45t-45.5 -19q-25 0 -44 19z" />
    <glyph glyph-name="uni03D6" unicode="&#x3d6;" horiz-adv-x="900" 
d="M145 7.5q-41 23.5 -65 69t-24 106.5t17.5 114.5t48.5 107.5h-74l16 91h820l-16 -91h-79q13 -59 13 -121q0 -76 -30 -145t-88 -112t-138 -43q-52 0 -88.5 24.5t-54.5 67.5q-29 -44 -72.5 -68t-95.5 -24q-49 0 -90 23.5zM329.5 126q34.5 38 46.5 109l17 91h104l-16 -91
q-5 -28 -5 -50q0 -46 20.5 -71.5t55.5 -25.5q45 0 76 28.5t46 73.5t15 94q0 55 -19 121h-425q-74 -116 -74 -212q0 -49 21.5 -77t59.5 -28q43 0 77.5 38z" />
    <glyph glyph-name="uni0400" unicode="&#x400;" horiz-adv-x="570" 
d="M141 716h435l-19 -107h-323l-35 -198h291l-19 -106h-291l-35 -198h323l-19 -107h-435zM265 904h121l24 -132h-89z" />
    <glyph glyph-name="uni0401" unicode="&#x401;" horiz-adv-x="570" 
d="M141 716h435l-19 -107h-323l-35 -198h291l-19 -106h-291l-35 -198h323l-19 -107h-435zM248 798q-19 19 -19 45q0 27 19 45.5t45 18.5q27 0 45.5 -18.5t18.5 -45.5q0 -26 -18.5 -45t-45.5 -19q-26 0 -45 19zM427 798q-19 19 -19 45q0 27 18.5 45.5t44.5 18.5
q28 0 46 -18.5t18 -45.5q0 -26 -18.5 -45t-45.5 -19q-25 0 -44 19z" />
    <glyph glyph-name="uni0402" unicode="&#x402;" horiz-adv-x="768" 
d="M258 609h-191l19 107h498l-19 -107h-195l-30 -170l-18 -71h6q75 70 183 70q56 0 102 -23.5t73.5 -69t27.5 -106.5q0 -67 -33 -121.5t-92.5 -86t-134.5 -31.5h-34l19 103h22q59 0 98 34.5t39 92.5q0 48 -32 76t-87 28q-49 0 -95 -21.5t-76 -55.5l-46 -257h-112z" />
    <glyph glyph-name="uni0403" unicode="&#x403;" horiz-adv-x="524" 
d="M141 716h419l-19 -107h-307l-108 -609h-112zM386 904h126l-104 -132h-93z" />
    <glyph glyph-name="uni0404" unicode="&#x404;" horiz-adv-x="729" 
d="M183.5 25.5q-71.5 41.5 -112.5 118.5t-41 177q0 107 55 201.5t154 152t225 57.5q83 0 144 -29t110 -91l-91 -75q-66 88 -182 88q-68 0 -129 -27t-104 -76t-61 -114h330l-17 -100h-323q3 -66 32 -115t77.5 -75.5t108.5 -26.5q68 0 119.5 24.5t103.5 75.5l69 -77
q-67 -67 -139.5 -98.5t-166.5 -31.5q-90 0 -161.5 41.5z" />
    <glyph glyph-name="uni0405" unicode="&#x405;" horiz-adv-x="573" 
d="M80 36q-64 52 -79 146l108 43q5 -59 41 -96.5t97 -37.5q58 0 100 32t42 84q0 40 -28 67t-94 52l-40 15q-63 23 -103.5 68t-40.5 115q0 59 33 106.5t90 74.5t125 27q67 0 112.5 -23.5t69.5 -58t30 -68.5l-105 -40q-6 35 -35 60t-83 25q-51 0 -87 -26t-36 -70
q0 -36 25.5 -59.5t79.5 -43.5l42 -16q159 -59 159 -191q0 -70 -34.5 -124t-95.5 -83.5t-139 -29.5q-90 0 -154 52z" />
    <glyph glyph-name="uni0406" unicode="&#x406;" horiz-adv-x="270" 
d="M141 716h112l-127 -716h-112z" />
    <glyph glyph-name="uni0407" unicode="&#x407;" horiz-adv-x="256" 
d="M86 811q-18 18 -18 41q0 24 17.5 41.5t41.5 17.5q25 0 42.5 -17t17.5 -42q0 -24 -17.5 -41.5t-42.5 -17.5q-23 0 -41 18zM250.5 811q-17.5 18 -17.5 41q0 25 17.5 42t41.5 17q25 0 42 -17t17 -42q0 -24 -17.5 -41.5t-41.5 -17.5t-41.5 18zM140 716h112l-127 -716h-112z
" />
    <glyph glyph-name="uni0408" unicode="&#x408;" horiz-adv-x="548" 
d="M60.5 30.5q-57.5 46.5 -67.5 122.5l108 42q6 -53 36 -78.5t75 -25.5q52 0 88.5 36t46.5 93l87 496h112l-87 -492q-21 -121 -90 -180.5t-170 -59.5q-81 0 -138.5 46.5z" />
    <glyph glyph-name="uni0409" unicode="&#x409;" horiz-adv-x="1078" 
d="M-39 -4l18 107q11 -5 32 -5q39 0 67 25q23 20 37.5 62.5t27.5 118.5l72 412h492l-52 -294h160q92 0 150 -50.5t58 -140.5q0 -69 -34 -121t-95 -81t-140 -29h-285l108 609h-268l-59 -332q-17 -94 -43 -151t-64 -90q-28 -24 -61 -34t-79 -10q-24 0 -42 4zM774 105
q58 0 95 32.5t37 84.5q0 44 -27.5 69.5t-74.5 25.5h-168l-37 -212h175z" />
    <glyph glyph-name="uni040A" unicode="&#x40a;" horiz-adv-x="1034" 
d="M134 716h112l-52 -294h304l53 294h111l-52 -294h160q92 0 150 -50.5t58 -140.5q0 -69 -34 -121t-95 -81t-140 -29h-285l56 317h-304l-57 -317h-112zM730 105q57 0 94 32.5t37 84.5q0 44 -27.5 69.5t-74.5 25.5h-167l-38 -212h176z" />
    <glyph glyph-name="uni040B" unicode="&#x40b;" horiz-adv-x="763" 
d="M258 609h-191l19 107h498l-19 -107h-195l-30 -170l-18 -71h6q79 70 181 70q81 0 130.5 -47.5t49.5 -128.5q0 -25 -4 -49l-39 -213h-110l36 203q3 18 3 36q0 42 -29 68.5t-81 26.5q-47 0 -86.5 -20.5t-70.5 -56.5l-46 -257h-112z" />
    <glyph glyph-name="uni040C" unicode="&#x40c;" horiz-adv-x="643" 
d="M141 716h112l-61 -347h6l339 347h146l-1 -6l-363 -363l251 -341l-1 -6h-139l-240 328h-5l-59 -328h-112zM421 904h126l-104 -132h-93z" />
    <glyph glyph-name="uni040D" unicode="&#x40d;" horiz-adv-x="700" 
d="M134 716h112l-70 -391l-30 -138h6l407 529h132l-127 -716h-111l71 402l30 138h-6l-415 -540h-126zM306 904h121l24 -132h-89z" />
    <glyph glyph-name="uni040E" unicode="&#x40e;" horiz-adv-x="615" 
d="M16 2l46 99q19 -13 46 -13q25 0 42 11.5t34 37.5l37 56l-145 523h119l99 -395h6l238 395h129l-391 -620q-37 -59 -79.5 -85.5t-94.5 -26.5q-50 0 -86 18zM288.5 797.5q-33.5 30.5 -33.5 77.5q0 6 2 22h83q-1 -4 -1 -10q0 -17 11 -29t31 -12q22 0 37.5 14t20.5 37h82
q-10 -64 -49.5 -97t-100.5 -33q-49 0 -82.5 30.5z" />
    <glyph glyph-name="uni040F" unicode="&#x40f;" horiz-adv-x="677" 
d="M234 0h-212l126 716h112l-108 -609h309l108 609h112l-126 -716h-214l-27 -157h-107z" />
    <glyph glyph-name="uni0410" unicode="&#x410;" horiz-adv-x="694" 
d="M344 716h129l143 -716h-120l-33 183h-288l-98 -183h-127zM443 287l-39 213l-13 83h-6l-42 -83l-113 -213h213z" />
    <glyph glyph-name="uni0411" unicode="&#x411;" horiz-adv-x="622" 
d="M141 716h434l-19 -105h-322l-33 -188h159q57 0 102.5 -23t71.5 -65.5t26 -100.5q0 -71 -34 -124t-94.5 -81.5t-136.5 -28.5h-281zM314 105q58 0 95.5 33.5t37.5 85.5q0 43 -27.5 69t-74.5 26h-162l-38 -214h169z" />
    <glyph glyph-name="uni0412" unicode="&#x412;" horiz-adv-x="623" 
d="M141 716h250q62 0 107.5 -24t69 -64t23.5 -87q0 -64 -36 -107t-90 -60l-1 -6q95 -48 95 -148q0 -63 -34.5 -113.5t-95 -78.5t-134.5 -28h-281zM352 416q57 0 92 28t35 78q0 39 -25.5 65t-69.5 26h-150l-34 -197h152zM314 104q53 0 92 30.5t39 84.5q0 44 -28 70.5
t-78 26.5h-157l-37 -212h169z" />
    <glyph glyph-name="uni0413" unicode="&#x413;" horiz-adv-x="524" 
d="M141 716h419l-19 -107h-307l-108 -609h-112z" />
    <glyph glyph-name="uni0414" unicode="&#x414;" horiz-adv-x="786" 
d="M8 107h76q51 53 90 158.5t61 228.5l39 222h468l-107 -609h79l-45 -259h-107l26 152h-492l-26 -152h-106zM523 107l89 502h-246l-27 -149q-21 -120 -51.5 -204.5t-77.5 -148.5h313z" />
    <glyph glyph-name="uni0415" unicode="&#x415;" horiz-adv-x="570" 
d="M141 716h435l-19 -107h-323l-35 -198h291l-19 -106h-291l-35 -198h323l-19 -107h-435z" />
    <glyph glyph-name="uni0416" unicode="&#x416;" horiz-adv-x="928" 
d="M-58 6l342 354l-203 350l1 6h132l190 -338h6l60 338h112l-60 -338h6l306 338h141l-2 -6l-333 -363l219 -341l-1 -6h-137l-203 321h-6l-57 -321h-112l57 321h-6l-307 -321h-147z" />
    <glyph glyph-name="uni0417" unicode="&#x417;" horiz-adv-x="558" 
d="M127.5 4.5q-48.5 20.5 -83 61.5t-43.5 100l107 41q6 -55 39 -87t88 -32q60 0 102.5 36.5t42.5 95.5q0 45 -33.5 75t-86.5 30h-60l17 98h51q59 0 103 32t44 87q0 39 -28.5 63.5t-72.5 24.5q-49 0 -83 -26t-47 -63l-92 41q25 63 85 106.5t149 43.5q58 0 104 -22.5
t71.5 -61.5t25.5 -87q0 -61 -31.5 -106t-87.5 -73l-1 -6q36 -20 60.5 -59.5t24.5 -92.5q0 -70 -35.5 -124.5t-96 -85t-133.5 -30.5q-51 0 -99.5 20.5z" />
    <glyph glyph-name="uni0418" unicode="&#x418;" horiz-adv-x="700" 
d="M134 716h112l-70 -391l-30 -138h6l407 529h132l-127 -716h-111l71 402l30 138h-6l-415 -540h-126z" />
    <glyph glyph-name="uni0419" unicode="&#x419;" horiz-adv-x="700" 
d="M134 716h112l-70 -391l-30 -138h6l407 529h132l-127 -716h-111l71 402l30 138h-6l-415 -540h-126zM331.5 797.5q-33.5 30.5 -33.5 77.5q0 6 2 22h83q-1 -4 -1 -10q0 -17 11 -29t31 -12q22 0 37.5 14t20.5 37h82q-10 -64 -49.5 -97t-100.5 -33q-49 0 -82.5 30.5z" />
    <glyph glyph-name="uni041A" unicode="&#x41a;" horiz-adv-x="643" 
d="M141 716h112l-61 -347h6l339 347h146l-1 -6l-363 -363l251 -341l-1 -6h-139l-240 328h-5l-59 -328h-112z" />
    <glyph glyph-name="uni041B" unicode="&#x41b;" horiz-adv-x="717" 
d="M-39 -4l18 107q11 -5 32 -5q39 0 67 25q23 20 37.5 62.5t27.5 118.5l72 412h492l-126 -716h-112l108 609h-268l-59 -332q-17 -95 -42.5 -151.5t-64.5 -89.5q-28 -24 -61.5 -34t-78.5 -10q-24 0 -42 4z" />
    <glyph glyph-name="uni041C" unicode="&#x41c;" horiz-adv-x="880" 
d="M141 716h149l111 -543h6l301 543h156l-127 -716h-111l70 401l29 129h-5l-296 -530h-91l-113 530h-6l-18 -129l-70 -401h-112z" />
    <glyph glyph-name="uni041D" unicode="&#x41d;" horiz-adv-x="713" 
d="M141 716h112l-53 -297h332l53 297h112l-127 -716h-112l56 313h-332l-56 -313h-112z" />
    <glyph glyph-name="uni041E" unicode="&#x41e;" horiz-adv-x="828" 
d="M200 25.5q-76 41.5 -119.5 116t-43.5 170.5q0 111 53.5 207.5t150 154.5t219.5 58q94 0 169.5 -42t118.5 -116.5t43 -169.5q0 -111 -53.5 -207.5t-150 -154.5t-218.5 -58q-93 0 -169 41.5zM529.5 134q68.5 43 108 114t39.5 151q0 67 -30 118.5t-82.5 79.5t-116.5 28
q-81 0 -149.5 -42.5t-108.5 -113.5t-40 -151q0 -68 30 -119.5t82.5 -79.5t116.5 -28q82 0 150.5 43z" />
    <glyph glyph-name="uni041F" unicode="&#x41f;" horiz-adv-x="691" 
d="M141 716h533l-127 -716h-112l108 609h-309l-108 -609h-112z" />
    <glyph glyph-name="uni0420" unicode="&#x420;" horiz-adv-x="590" 
d="M141 716h239q60 0 107 -24.5t73.5 -69t26.5 -101.5q0 -76 -34.5 -131t-96 -83.5t-140.5 -28.5h-140l-50 -278h-112zM333 384q62 0 101 31.5t39 94.5q0 45 -27.5 72t-72.5 27h-139l-40 -225h139z" />
    <glyph glyph-name="uni0421" unicode="&#x421;" horiz-adv-x="743" 
d="M192 24q-73 40 -114.5 114t-41.5 172q0 111 56 208t155 155.5t221 58.5q84 0 149.5 -33t102.5 -88l-89 -74q-32 45 -74.5 66.5t-101.5 21.5q-83 0 -153 -42.5t-111.5 -114t-41.5 -152.5q0 -68 28.5 -119t78.5 -78.5t113 -27.5q66 0 118.5 25.5t104.5 76.5l71 -81
q-68 -67 -139.5 -97.5t-166.5 -30.5q-92 0 -165 40z" />
    <glyph glyph-name="uni0422" unicode="&#x422;" horiz-adv-x="564" 
d="M269 609h-200l19 107h512l-19 -107h-200l-108 -609h-112z" />
    <glyph glyph-name="uni0423" unicode="&#x423;" horiz-adv-x="615" 
d="M16 2l46 99q19 -13 46 -13q25 0 42 11.5t34 37.5l37 56l-145 523h119l99 -395h6l238 395h129l-391 -620q-37 -59 -79.5 -85.5t-94.5 -26.5q-50 0 -86 18z" />
    <glyph glyph-name="uni0424" unicode="&#x424;" horiz-adv-x="814" 
d="M298 59q-82 10 -142 46.5t-92 94.5t-32 130q0 96 49.5 167t134 111.5t187.5 48.5l19 107h111l-19 -108q124 -15 195 -87.5t71 -182.5q0 -96 -49.5 -167t-133.5 -111.5t-188 -49.5l-19 -106h-111zM384 554q-103 -12 -170.5 -68t-67.5 -147q0 -73 44 -119t126 -58z
M599 229.5q67 55.5 67 145.5q0 74 -44 120t-126 58l-69 -392q105 13 172 68.5z" />
    <glyph glyph-name="uni0425" unicode="&#x425;" horiz-adv-x="662" 
d="M263 376l-168 340h136l116 -253h6l203 253h141l-290 -349l183 -367h-135l-132 273h-6l-224 -273h-139z" />
    <glyph glyph-name="uni0426" unicode="&#x426;" horiz-adv-x="720" 
d="M520 0h-497l126 716h111l-106 -609h297l107 609h112l-108 -609h87l-48 -275h-110z" />
    <glyph glyph-name="uni0427" unicode="&#x427;" horiz-adv-x="597" 
d="M425 316q-36 -28 -75 -42t-95 -14q-54 0 -98.5 21.5t-70.5 64t-26 102.5q0 23 5 56l38 212h113l-39 -216q-2 -13 -2 -32q0 -48 31.5 -75t86.5 -27q86 0 152 66l51 284h112l-127 -716h-112z" />
    <glyph glyph-name="uni0428" unicode="&#x428;" horiz-adv-x="913" 
d="M134 716h112l-108 -609h217l108 609h112l-108 -609h217l108 609h112l-127 -716h-770z" />
    <glyph glyph-name="uni0429" unicode="&#x429;" horiz-adv-x="963" 
d="M749 0h-742l127 716h112l-108 -609h217l108 609h112l-108 -609h217l108 609h112l-109 -609h83l-48 -275h-110z" />
    <glyph glyph-name="uni042A" unicode="&#x42a;" horiz-adv-x="759" 
d="M257 612h-189l18 104h302l-45 -254h133q67 0 119 -25t81.5 -71.5t29.5 -109.5q0 -75 -36.5 -133.5t-102 -90.5t-151.5 -32h-267zM437 105q67 0 111 38t44 101q0 52 -33 83t-88 31h-146l-45 -253h157z" />
    <glyph glyph-name="uni042B" unicode="&#x42b;" horiz-adv-x="836" 
d="M134 716h112l-45 -254h133q67 0 119.5 -25t82 -71.5t29.5 -109.5q0 -75 -36.5 -133t-102.5 -90.5t-152 -32.5h-267zM714 716h112l-127 -716h-112zM295 105q67 0 111 38t44 101q0 52 -33 83t-88 31h-146l-45 -253h157z" />
    <glyph glyph-name="uni042C" unicode="&#x42c;" horiz-adv-x="617" 
d="M134 716h112l-45 -254h133q67 0 119.5 -25t82 -71.5t29.5 -109.5q0 -75 -36.5 -133t-102.5 -90.5t-152 -32.5h-267zM295 105q67 0 111 38t44 101q0 52 -33 83t-88 31h-146l-45 -253h157z" />
    <glyph glyph-name="uni042D" unicode="&#x42d;" horiz-adv-x="729" 
d="M111 22.5q-71 38.5 -114 98.5l88 73q72 -103 201 -103q70 0 129 28.5t100 78t58 110.5h-328l18 100h322q-4 103 -63.5 160t-152.5 57q-58 0 -108 -22.5t-89 -63.5l-76 76q59 58 128.5 87.5t155.5 29.5q94 0 166 -41.5t111.5 -117t39.5 -174.5q0 -111 -53.5 -206
t-149.5 -152t-217 -57q-95 0 -166 38.5z" />
    <glyph glyph-name="uni042E" unicode="&#x42e;" horiz-adv-x="1080" 
d="M461 24q-75 40 -119 113t-46 166v10h-121l-56 -313h-112l127 716h112l-53 -297h116q21 88 79 159t143.5 112.5t187.5 41.5q94 0 169.5 -42t118.5 -116.5t43 -169.5q0 -111 -53.5 -207.5t-150 -154.5t-218.5 -58q-92 0 -167 40zM788.5 134q68.5 43 108 114t39.5 151
q0 67 -30 118.5t-82.5 79.5t-116.5 28q-81 0 -149.5 -42.5t-108 -113.5t-39.5 -151q0 -68 30 -119.5t82 -79.5t116 -28q82 0 150.5 43z" />
    <glyph glyph-name="uni042F" unicode="&#x42f;" horiz-adv-x="620" 
d="M-29 6l245 283v5q-55 20 -92.5 68.5t-37.5 118.5q0 65 35 119t96.5 85t137.5 31h256l-127 -716h-112l50 280h-78l-239 -280h-136zM440 384l40 227h-140q-41 0 -73 -17t-49.5 -45t-17.5 -59q0 -49 30.5 -77.5t79.5 -28.5h130z" />
    <glyph glyph-name="uni0430" unicode="&#x430;" horiz-adv-x="535" 
d="M97.5 3.5q-38.5 19.5 -60 55t-21.5 79.5q0 55 29 96.5t82 64t123 22.5q67 0 132 -28l4 21q3 9 3 20q0 37 -30.5 61t-77.5 24q-38 0 -69 -15t-56 -46l-79 57q36 47 92.5 72t123.5 25q96 0 149 -45t53 -123q0 -20 -5 -52l-52 -292h-108l11 61h-6q-25 -35 -64 -56t-88 -21
q-47 0 -85.5 19.5zM314.5 113.5q43.5 38.5 52.5 94.5q-50 29 -119 29q-51 0 -85 -23.5t-34 -66.5q0 -34 24.5 -53t60.5 -19q57 0 100.5 38.5z" />
    <glyph glyph-name="uni0431" unicode="&#x431;" horiz-adv-x="604" 
d="M146.5 17.5q-51.5 33.5 -80 95t-28.5 143.5q0 107 39 205.5t115 161.5q44 37 99.5 57.5t118.5 20.5q53 0 72 7t29 25h102q-14 -50 -40 -77t-66.5 -38t-104.5 -11q-49 0 -79.5 -11t-57.5 -32q-63 -48 -87 -133h6q27 36 70 58.5t100 22.5q59 0 106 -29.5t73.5 -81.5
t26.5 -117q0 -81 -37 -150t-104.5 -109.5t-154.5 -40.5q-66 0 -117.5 33.5zM366 111.5q39 26.5 61 69t22 89.5q0 66 -35.5 103.5t-89.5 37.5q-51 0 -91.5 -25t-63 -68t-22.5 -94q0 -63 37.5 -101t92.5 -38q50 0 89 26.5z" />
    <glyph glyph-name="uni0432" unicode="&#x432;" horiz-adv-x="504" 
d="M80 496h232q69 0 109.5 -33.5t40.5 -87.5q0 -44 -23.5 -73.5t-57.5 -44.5l-2 -5q65 -31 65 -98q0 -43 -24.5 -78.5t-67.5 -55.5t-95 -20h-265zM288 295q30 0 49 16.5t19 43.5q0 23 -15 36.5t-42 13.5h-128l-19 -110h136zM263 93q32 0 53.5 18t21.5 50q0 22 -15.5 36.5
t-42.5 14.5h-143l-22 -119h148z" />
    <glyph glyph-name="uni0433" unicode="&#x433;" horiz-adv-x="428" 
d="M80 496h348l-17 -97h-239l-70 -399h-110z" />
    <glyph glyph-name="uni0434" unicode="&#x434;" horiz-adv-x="652" 
d="M1 98h59q26 27 50.5 91t37.5 137l30 170h411l-70 -398h78l-45 -250h-101l27 152h-393l-27 -152h-100zM412 98l52 300h-197l-17 -95q-12 -66 -29.5 -114t-44.5 -91h236z" />
    <glyph glyph-name="uni0435" unicode="&#x435;" horiz-adv-x="562" 
d="M118 15q-52 31 -79.5 83.5t-27.5 116.5q0 78 36 146t102 109.5t151 41.5q68 0 116 -28t73 -75t25 -105q0 -44 -11 -79h-382q-1 -8 -1 -21q1 -58 38 -89.5t89 -31.5q98 0 150 82l84 -46q-41 -66 -101.5 -100.5t-139.5 -34.5q-70 0 -122 31zM408 309v7q0 42 -31.5 72
t-86.5 30q-54 0 -95.5 -30.5t-57.5 -78.5h271z" />
    <glyph glyph-name="uni0436" unicode="&#x436;" horiz-adv-x="746" 
d="M-66 6l251 263l-150 221l2 6h124l137 -213h6l37 213h110l-37 -213h6l209 213h134l-1 -6l-235 -233l155 -251l-1 -6h-126l-143 238h-7l-42 -238h-110l43 238h-6l-224 -238h-133z" />
    <glyph glyph-name="uni0437" unicode="&#x437;" horiz-adv-x="491" 
d="M-10 77l85 65q21 -29 53.5 -45.5t72.5 -16.5q47 0 79.5 18.5t32.5 53.5q0 26 -24 42.5t-69 16.5h-63l14 83h65q46 0 73 17.5t27 45.5q0 27 -23.5 44.5t-59.5 17.5q-35 0 -62.5 -12t-52.5 -38l-71 61q43 43 91 62.5t108 19.5q50 0 90.5 -18t63 -50t22.5 -71
q0 -42 -24.5 -73t-60.5 -43l-1 -6q31 -17 48 -42.5t17 -64.5q0 -49 -30.5 -85.5t-83 -55.5t-117.5 -19q-128 0 -200 93z" />
    <glyph glyph-name="uni0438" unicode="&#x438;" horiz-adv-x="561" 
d="M81 496h110l-42 -235l-23 -96h6l284 331h114l-88 -496h-110l42 236l23 96h-6l-284 -332h-114z" />
    <glyph glyph-name="uni0439" unicode="&#x439;" horiz-adv-x="561" 
d="M81 496h110l-42 -235l-23 -96h6l284 331h114l-88 -496h-110l42 236l23 96h-6l-284 -332h-114zM233.5 619.5q-33.5 30.5 -33.5 77.5q0 6 2 22h83q-1 -4 -1 -10q0 -17 11 -29t31 -12q22 0 37.5 14t20.5 37h82q-10 -64 -49.5 -97t-100.5 -33q-49 0 -82.5 30.5z" />
    <glyph glyph-name="uni043A" unicode="&#x43a;" horiz-adv-x="508" 
d="M86 496h110l-39 -218h6l219 218h137l-2 -6l-241 -234l165 -250l-1 -6h-127l-156 244h-6l-43 -244h-109z" />
    <glyph glyph-name="uni043B" unicode="&#x43b;" horiz-adv-x="617" 
d="M-21 0l18 98q15 -5 32 -5q31 0 49 31.5t32 110.5l45 261h429l-87 -496h-108l71 397h-216l-32 -178q-21 -123 -67 -175t-112 -52q-35 0 -54 8z" />
    <glyph glyph-name="uni043C" unicode="&#x43c;" horiz-adv-x="676" 
d="M77 496h129l100 -293h5l202 293h136l-88 -496h-108l42 234l23 96h-6l-186 -266h-77l-94 266h-6l-11 -96l-42 -234h-107z" />
    <glyph glyph-name="uni043D" unicode="&#x43d;" horiz-adv-x="566" 
d="M80 496h110l-35 -195h234l35 195h110l-88 -496h-110l35 199h-234l-35 -199h-110z" />
    <glyph glyph-name="uni043E" unicode="&#x43e;" horiz-adv-x="584" 
d="M123 15.5q-53 31.5 -82.5 85t-29.5 118.5q0 82 38 149t106 105.5t154 38.5q68 0 121 -31.5t82.5 -85t29.5 -117.5q0 -82 -38 -149.5t-106 -106t-153 -38.5q-69 0 -122 31.5zM346.5 110q39.5 25 62 67t22.5 91q0 62 -38.5 102.5t-95.5 40.5q-50 0 -90 -25t-62 -67t-22 -91
q0 -62 38 -102.5t95 -40.5q51 0 90.5 25z" />
    <glyph glyph-name="uni043F" unicode="&#x43f;" horiz-adv-x="550" 
d="M80 496h438l-88 -496h-110l70 395h-218l-70 -395h-110z" />
    <glyph glyph-name="uni0440" unicode="&#x440;" horiz-adv-x="600" 
d="M91 496h105l-12 -64h6q26 36 67.5 58t98.5 22q58 0 104.5 -29t73 -81.5t26.5 -120.5q0 -79 -36.5 -147t-101.5 -109t-146 -41q-50 0 -91 23t-60 58h-6l-6 -70l-37 -211h-110zM365 110q39 25 61.5 68t22.5 95q0 64 -35 101t-94 37q-46 0 -85.5 -25.5t-62.5 -69t-23 -96.5
q0 -62 36 -98.5t93 -36.5q48 0 87 25z" />
    <glyph glyph-name="uni0441" unicode="&#x441;" horiz-adv-x="547" 
d="M119.5 14q-51.5 30 -80 83t-28.5 118q0 82 38 150t106.5 107.5t154.5 39.5q82 0 135.5 -40.5t71.5 -101.5l-103 -40q-12 39 -42.5 60t-75.5 21q-49 0 -89 -24.5t-62.5 -67t-22.5 -94.5q0 -60 36 -100t94 -40q45 0 80.5 22.5t57.5 61.5l92 -43q-43 -73 -102.5 -107.5
t-143.5 -34.5q-65 0 -116.5 30z" />
    <glyph glyph-name="uni0442" unicode="&#x442;" horiz-adv-x="477" 
d="M189 395h-156l18 101h423l-19 -101h-156l-70 -395h-110z" />
    <glyph glyph-name="uni0443" unicode="&#x443;" horiz-adv-x="535" 
d="M166 30l-123 466h120l81 -333h4l194 333h124l-436 -712h-119z" />
    <glyph glyph-name="uni0444" unicode="&#x444;" horiz-adv-x="756" 
d="M276 -12q-74 9 -129 41.5t-85 82t-30 109.5q0 86 44 149t120 98.5t172 41.5l37 206h110l-37 -208q111 -14 177 -77t66 -159q0 -84 -44 -146.5t-120 -98t-172 -41.5l-35 -202h-110zM555 138q59 43 59 120q0 64 -40 103t-114 49l-57 -324q93 9 152 52zM350 409
q-91 -9 -151 -54.5t-60 -122.5q0 -60 42 -98t112 -47z" />
    <glyph glyph-name="uni0445" unicode="&#x445;" horiz-adv-x="502" 
d="M164 257l-126 239h127l77 -158h4l129 158h135l-215 -246l130 -250h-126l-80 167h-4l-135 -167h-134z" />
    <glyph glyph-name="uni0446" unicode="&#x446;" horiz-adv-x="599" 
d="M405 0h-412l87 496h110l-70 -396h218l70 396h110l-70 -396h76l-44 -252h-102z" />
    <glyph glyph-name="uni0447" unicode="&#x447;" horiz-adv-x="516" 
d="M331 182q-54 -24 -123 -24q-75 0 -121.5 44t-46.5 115q0 11 6 53l23 126h112l-25 -135q-2 -20 -2 -27q0 -37 24 -56.5t64 -19.5q68 0 107 29l38 209h110l-88 -496h-110z" />
    <glyph glyph-name="uni0448" unicode="&#x448;" horiz-adv-x="785" 
d="M80 496h109l-70 -396h163l70 396h109l-70 -396h163l70 396h109l-88 -496h-653z" />
    <glyph glyph-name="uni0449" unicode="&#x449;" horiz-adv-x="833" 
d="M620 0h-627l87 496h109l-70 -396h163l70 396h109l-70 -396h163l70 396h109l-70 -396h76l-44 -252h-102z" />
    <glyph glyph-name="uni044A" unicode="&#x44a;" horiz-adv-x="595" 
d="M155 403h-118l16 93h226l-30 -165h123q76 0 124.5 -42t48.5 -110q0 -81 -57 -130t-156 -49h-248zM345 93q40 0 66 21t26 58q0 30 -21.5 48t-55.5 18h-127l-26 -145h138z" />
    <glyph glyph-name="uni044B" unicode="&#x44b;" horiz-adv-x="712" 
d="M80 496h107l-29 -165h123q76 0 124.5 -42t48.5 -110q0 -81 -57.5 -130t-156.5 -49h-248zM573 496h107l-88 -496h-107zM254 93q40 0 66 21t26 58q0 30 -21.5 48t-55.5 18h-127l-26 -145h138z" />
    <glyph glyph-name="uni044C" unicode="&#x44c;" horiz-adv-x="509" 
d="M80 496h107l-29 -165h123q76 0 124.5 -42t48.5 -110q0 -81 -57.5 -130t-156.5 -49h-248zM254 93q40 0 66 21t26 58q0 30 -21.5 48t-55.5 18h-127l-26 -145h138z" />
    <glyph glyph-name="uni044D" unicode="&#x44d;" horiz-adv-x="530" 
d="M60 25q-58 41 -75 101l95 36q16 -40 46.5 -61.5t81.5 -21.5q61 0 105.5 35.5t61.5 91.5h-212l14 83h207q-5 61 -40.5 94.5t-85.5 33.5q-49 0 -85 -23t-58 -63l-87 43q35 64 94.5 101t141.5 37q66 0 116.5 -28.5t79 -81t28.5 -122.5q0 -80 -36.5 -148t-102.5 -108
t-150 -40q-81 0 -139 41z" />
    <glyph glyph-name="uni044E" unicode="&#x44e;" horiz-adv-x="793" 
d="M344 12.5q-51 28.5 -81.5 77.5t-35.5 109h-82l-35 -199h-110l87 496h110l-35 -195h76q26 95 103 153t183 58q69 0 122 -31.5t82.5 -85t29.5 -117.5q0 -82 -38 -149.5t-106 -106t-154 -38.5q-65 0 -116 28.5zM562 110q40 25 62 67t22 91q0 62 -38 102.5t-95 40.5
q-51 0 -91 -25t-62 -67t-22 -91q0 -62 38.5 -102.5t95.5 -40.5q50 0 90 25z" />
    <glyph glyph-name="uni044F" unicode="&#x44f;" horiz-adv-x="493" 
d="M-60 7l161 170l-2 5q-36 14 -62.5 50t-26.5 86q0 47 25.5 88t73 65.5t109.5 24.5h245l-88 -496h-107l30 170h-78l-155 -170h-127zM314 260l25 143h-127q-40 0 -66 -22.5t-26 -56.5q0 -30 21 -47t52 -17h121z" />
    <glyph glyph-name="uni0450" unicode="&#x450;" horiz-adv-x="562" 
d="M118 15q-52 31 -79.5 83.5t-27.5 116.5q0 78 36 146t102 109.5t151 41.5q68 0 116 -28t73 -75t25 -105q0 -44 -11 -79h-382q-1 -8 -1 -21q1 -58 38 -89.5t89 -31.5q98 0 150 82l84 -46q-41 -66 -101.5 -100.5t-139.5 -34.5q-70 0 -122 31zM408 309v7q0 42 -31.5 72
t-86.5 30q-54 0 -95.5 -30.5t-57.5 -78.5h271zM217 726h121l24 -132h-89z" />
    <glyph glyph-name="uni0451" unicode="&#x451;" horiz-adv-x="562" 
d="M118 15q-52 31 -79.5 83.5t-27.5 116.5q0 78 36 146t102 109.5t151 41.5q68 0 116 -28t73 -75t25 -105q0 -44 -11 -79h-382q-1 -8 -1 -21q1 -58 38 -89.5t89 -31.5q98 0 150 82l84 -46q-41 -66 -101.5 -100.5t-139.5 -34.5q-70 0 -122 31zM408 309v7q0 42 -31.5 72
t-86.5 30q-54 0 -95.5 -30.5t-57.5 -78.5h271zM194 620.5q-19 19.5 -19 44.5q0 27 19 45.5t45 18.5q27 0 45.5 -18t18.5 -46q0 -26 -18.5 -45t-45.5 -19q-26 0 -45 19.5zM373 620q-19 19 -19 45q0 27 18.5 45.5t44.5 18.5q28 0 46 -18t18 -46q0 -26 -18.5 -45t-45.5 -19
q-25 0 -44 19z" />
    <glyph glyph-name="uni0452" unicode="&#x452;" horiz-adv-x="559" 
d="M189 -214l40 96q13 -7 32 -7q49 0 61 60l63 357q3 18 3 36q0 38 -24 60.5t-65 22.5q-58 0 -98.5 -43t-52.5 -109l-46 -259h-110l100 570h-61l14 81h61l12 65h110l-12 -65h140l-14 -81h-140l-11 -62l-19 -78h6q27 38 70.5 60t95.5 22q77 0 117.5 -42.5t40.5 -108.5
q0 -24 -6 -63l-64 -365q-15 -86 -59 -122.5t-116 -36.5q-39 0 -68 12z" />
    <glyph glyph-name="uni0453" unicode="&#x453;" horiz-adv-x="428" 
d="M80 496h348l-17 -97h-239l-70 -399h-110zM295 726h126l-104 -132h-93z" />
    <glyph glyph-name="uni0454" unicode="&#x454;" horiz-adv-x="529" 
d="M111 14q-50 30 -78 83.5t-28 121.5q0 76 36.5 143.5t103 108.5t153.5 41q84 0 135 -39t70 -102l-96 -37q-13 39 -43 61t-78 22q-60 0 -105 -35t-62 -93h213l-15 -83h-208q5 -57 40.5 -92t89.5 -35q48 0 82 22t59 65l84 -40q-40 -72 -97 -107t-142 -35q-64 0 -114 30z" />
    <glyph glyph-name="uni0455" unicode="&#x455;" horiz-adv-x="477" 
d="M59 23q-53 39 -71 101l104 42q9 -41 40 -62.5t74 -21.5q41 0 67 17t26 43q0 25 -17.5 40.5t-56.5 25.5l-54 14q-57 15 -92 48.5t-35 87.5q0 45 27 80t74 54.5t106 19.5q71 0 120.5 -31t70.5 -86l-103 -38q-10 28 -35.5 45t-60.5 17q-40 0 -63.5 -15t-23.5 -39
q0 -19 15.5 -33.5t46.5 -21.5l67 -18q61 -16 94 -52t33 -86q0 -78 -59.5 -124t-156.5 -46q-84 0 -137 39z" />
    <glyph glyph-name="uni0456" unicode="&#x456;" horiz-adv-x="250" 
d="M122.5 601.5q-21.5 21.5 -21.5 52.5t21.5 52.5t52.5 21.5t52.5 -21.5t21.5 -52.5t-21.5 -52.5t-52.5 -21.5t-52.5 21.5zM92 496h110l-87 -496h-110z" />
    <glyph glyph-name="uni0457" unicode="&#x457;" horiz-adv-x="238" 
d="M50.5 621.5q-18.5 18.5 -18.5 43.5q0 27 18.5 45t43.5 18q27 0 45 -18t18 -45q0 -25 -18 -43.5t-45 -18.5q-25 0 -43.5 18.5zM201.5 621.5q-18.5 18.5 -18.5 43.5q0 27 18.5 45t43.5 18q27 0 45 -18t18 -45q0 -25 -18 -43.5t-45 -18.5q-25 0 -43.5 18.5zM92 496h110
l-86 -496h-110z" />
    <glyph glyph-name="uni0458" unicode="&#x458;" horiz-adv-x="250" 
d="M123.5 600.5q-21.5 21.5 -21.5 51.5q0 31 21.5 52.5t52.5 21.5t52.5 -21.5t21.5 -52.5q0 -30 -21.5 -51.5t-52.5 -21.5t-52.5 21.5zM-130 -218l18 103q16 -10 43 -10q29 0 43.5 16t19.5 47l99 558h110l-99 -563q-16 -90 -60 -124.5t-117 -34.5q-29 0 -57 8z" />
    <glyph glyph-name="uni0459" unicode="&#x459;" horiz-adv-x="900" 
d="M-22 0l18 98q15 -5 31 -5q31 0 49 30.5t31 103.5l47 269h429l-31 -174h122q76 0 123 -40t47 -106q0 -81 -55.5 -128.5t-150.5 -47.5h-250l70 397h-215l-32 -180q-21 -122 -67 -173.5t-112 -51.5q-35 0 -54 8zM650 93q38 0 62 19t24 55q0 28 -19.5 45t-49.5 17h-132
l-24 -136h139z" />
    <glyph glyph-name="uni045A" unicode="&#x45a;" horiz-adv-x="846" 
d="M80 496h110l-31 -174h215l31 174h110l-31 -174h135q76 0 123 -40t47 -107q0 -80 -56 -127.5t-151 -47.5h-265l41 229h-215l-41 -229h-110zM595 93q38 0 62 19t24 55q0 28 -19.5 45t-49.5 17h-144l-23 -136h150z" />
    <glyph glyph-name="uni045B" unicode="&#x45b;" horiz-adv-x="559" 
d="M92 570h-61l14 81h61l12 65h110l-12 -65h140l-14 -81h-140l-11 -62l-19 -78h6q27 38 70.5 60t95.5 22q77 0 117.5 -42.5t40.5 -108.5q0 -24 -6 -63l-53 -298h-110l52 292q3 18 3 36q0 38 -24 60.5t-65 22.5q-58 0 -98.5 -43t-52.5 -109l-46 -259h-110z" />
    <glyph glyph-name="uni045C" unicode="&#x45c;" horiz-adv-x="508" 
d="M86 496h110l-39 -218h6l219 218h137l-2 -6l-241 -234l165 -250l-1 -6h-127l-156 244h-6l-43 -244h-109zM328 726h126l-104 -132h-93z" />
    <glyph glyph-name="uni045D" unicode="&#x45d;" horiz-adv-x="561" 
d="M81 496h110l-42 -235l-23 -96h6l284 331h114l-88 -496h-110l42 236l23 96h-6l-284 -332h-114zM217 726h121l24 -132h-89z" />
    <glyph glyph-name="uni045E" unicode="&#x45e;" horiz-adv-x="535" 
d="M166 30l-123 466h120l81 -333h4l194 333h124l-436 -712h-119zM231.5 619.5q-33.5 30.5 -33.5 77.5q0 6 2 22h83q-1 -4 -1 -10q0 -17 11 -29t31 -12q22 0 37.5 14t20.5 37h82q-10 -64 -49.5 -97t-100.5 -33q-49 0 -82.5 30.5z" />
    <glyph glyph-name="uni045F" unicode="&#x45f;" horiz-adv-x="564" 
d="M168 0h-175l87 496h110l-70 -395h232l70 395h110l-87 -496h-176l-26 -152h-102z" />
    <glyph glyph-name="uni0490" unicode="&#x490;" horiz-adv-x="528" 
d="M128 716h323l20 117h109l-39 -224h-321l-107 -609h-111z" />
    <glyph glyph-name="uni0491" unicode="&#x491;" horiz-adv-x="427" 
d="M80 496h246l19 103h100l-35 -200h-238l-70 -399h-109z" />
    <glyph glyph-name="uni04AE" unicode="&#x4ae;" horiz-adv-x="618" 
d="M250 333l-173 383h128l114 -266h6l204 266h137l-305 -383l-59 -333h-111z" />
    <glyph glyph-name="uni04AF" unicode="&#x4af;" horiz-adv-x="523" 
d="M141 1l-113 496h116l74 -367l203 366h122l-292 -495l-38 -217h-110z" />
    <glyph glyph-name="uni04B0" unicode="&#x4b0;" horiz-adv-x="614" 
d="M237 270h-174l15 84h160l-163 362h130l113 -266h6l204 266h136l-288 -362h161l-15 -84h-174l-48 -270h-111z" />
    <glyph glyph-name="uni04B1" unicode="&#x4b1;" horiz-adv-x="522" 
d="M154 0h-143l14 79h112l-8 35l-88 382h117l73 -366l203 366h121l-224 -382l-21 -35h112l-15 -79h-143l-38 -216h-110z" />
    <glyph glyph-name="uni0E3F" unicode="&#xe3f;" horiz-adv-x="599" 
d="M194 0h-186l121 684h185l18 100h82l-18 -100q75 -2 125.5 -46.5t50.5 -118.5q0 -59 -34.5 -102.5t-86.5 -59.5l-2 -5q41 -18 66 -53.5t25 -83.5q0 -62 -33 -111t-91.5 -76.5t-131.5 -27.5h-8l-17 -100h-82zM264 399l32 183h-75l-33 -183h76zM429 426q32 26 32 73
q0 39 -21.5 60.5t-61.5 22.5l-32 -183q51 1 83 27zM212 103l35 198h-76l-35 -198h76zM305 103q54 0 89.5 30t35.5 80q0 39 -24 63.5t-69 24.5h-8l-35 -198h11z" />
    <glyph glyph-name="Wgrave" unicode="&#x1e80;" horiz-adv-x="964" 
d="M80 716h122l30 -461l2 -62h6l27 62l222 461h113l55 -461l5 -61h6l23 61l193 461h126l-313 -716h-118l-57 472l-4 64h-6l-28 -64l-224 -472h-115zM447 904h121l24 -132h-89z" />
    <glyph glyph-name="wgrave" unicode="&#x1e81;" horiz-adv-x="789" 
d="M30 496h116l38 -348h3l174 348h114l51 -348h4l157 348h120l-246 -496h-117l-50 352h-3l-174 -352h-115zM334 726h121l24 -132h-89z" />
    <glyph glyph-name="Wacute" unicode="&#x1e82;" horiz-adv-x="964" 
d="M80 716h122l30 -461l2 -62h6l27 62l222 461h113l55 -461l5 -61h6l23 61l193 461h126l-313 -716h-118l-57 472l-4 64h-6l-28 -64l-224 -472h-115zM577 904h126l-104 -132h-93z" />
    <glyph glyph-name="wacute" unicode="&#x1e83;" horiz-adv-x="789" 
d="M30 496h116l38 -348h3l174 348h114l51 -348h4l157 348h120l-246 -496h-117l-50 352h-3l-174 -352h-115zM456 726h126l-104 -132h-93z" />
    <glyph glyph-name="Wdieresis" unicode="&#x1e84;" horiz-adv-x="964" 
d="M80 716h122l30 -461l2 -62h6l27 62l222 461h113l55 -461l5 -61h6l23 61l193 461h126l-313 -716h-118l-57 472l-4 64h-6l-28 -64l-224 -472h-115zM430 798q-19 19 -19 45q0 27 19 45.5t45 18.5q27 0 45.5 -18.5t18.5 -45.5q0 -26 -18.5 -45t-45.5 -19q-26 0 -45 19z
M609 798q-19 19 -19 45q0 27 18.5 45.5t44.5 18.5q28 0 46 -18.5t18 -45.5q0 -26 -18.5 -45t-45.5 -19q-25 0 -44 19z" />
    <glyph glyph-name="wdieresis" unicode="&#x1e85;" horiz-adv-x="789" 
d="M30 496h116l38 -348h3l174 348h114l51 -348h4l157 348h120l-246 -496h-117l-50 352h-3l-174 -352h-115zM311 620.5q-19 19.5 -19 44.5q0 27 19 45.5t45 18.5q27 0 45.5 -18t18.5 -46q0 -26 -18.5 -45t-45.5 -19q-26 0 -45 19.5zM490 620q-19 19 -19 45q0 27 18.5 45.5
t44.5 18.5q28 0 46 -18t18 -46q0 -26 -18.5 -45t-45.5 -19q-25 0 -44 19z" />
    <glyph glyph-name="Ygrave" unicode="&#x1ef2;" horiz-adv-x="618" 
d="M250 333l-173 383h128l114 -266h6l204 266h137l-305 -383l-59 -333h-111zM263 904h121l24 -132h-89z" />
    <glyph glyph-name="ygrave" unicode="&#x1ef3;" horiz-adv-x="535" 
d="M166 30l-123 466h120l81 -333h4l194 333h124l-436 -712h-119zM215 726h121l24 -132h-89z" />
    <glyph glyph-name="uni2000" unicode="&#x2000;" horiz-adv-x="415" 
d="M0 0z" />
    <glyph glyph-name="uni2001" unicode="&#x2001;" horiz-adv-x="830" 
d="M0 0z" />
    <glyph glyph-name="uni2002" unicode="&#x2002;" horiz-adv-x="415" 
d="M0 0z" />
    <glyph glyph-name="uni2003" unicode="&#x2003;" horiz-adv-x="830" 
d="M0 0z" />
    <glyph glyph-name="uni2004" unicode="&#x2004;" horiz-adv-x="275" 
d="M0 0z" />
    <glyph glyph-name="uni2005" unicode="&#x2005;" horiz-adv-x="207" 
d="M0 0z" />
    <glyph glyph-name="uni2006" unicode="&#x2006;" horiz-adv-x="138" 
d="M0 0z" />
    <glyph glyph-name="uni2007" unicode="&#x2007;" 
d="M0 0z" />
    <glyph glyph-name="uni2008" unicode="&#x2008;" horiz-adv-x="232" 
d="M0 0z" />
    <glyph glyph-name="uni2009" unicode="&#x2009;" horiz-adv-x="138" 
d="M0 0z" />
    <glyph glyph-name="uni200A" unicode="&#x200a;" horiz-adv-x="70" 
d="M0 0z" />
    <glyph glyph-name="endash" unicode="&#x2013;" horiz-adv-x="601" 
d="M545 357l-16 -94h-489l16 94h489z" />
    <glyph glyph-name="emdash" unicode="&#x2014;" horiz-adv-x="904" 
d="M848 357l-16 -94h-792l16 94h792z" />
    <glyph glyph-name="uni2015" unicode="&#x2015;" horiz-adv-x="1039" 
d="M988 357l-16 -94h-927l16 94h927z" />
    <glyph glyph-name="quoteleft" unicode="&#x2018;" horiz-adv-x="249" 
d="M184 621q17 -8 30.5 -26t13.5 -44q0 -33 -22.5 -55t-53.5 -22q-32 0 -54.5 22t-22.5 55q0 16 9.5 33.5t27.5 40.5l90 107l45 -37z" />
    <glyph glyph-name="quoteright" unicode="&#x2019;" horiz-adv-x="249" 
d="M140 585q-18 9 -31 26.5t-13 43.5q0 33 22.5 55t53.5 22q32 0 54.5 -22t22.5 -55q0 -16 -9.5 -33.5t-27.5 -39.5l-90 -108l-44 37z" />
    <glyph glyph-name="quotesinglbase" unicode="&#x201a;" horiz-adv-x="249" 
d="M47 0q-18 7 -31.5 25t-13.5 44q0 33 22.5 55t53.5 22q32 0 54.5 -22t22.5 -55q0 -29 -37 -73l-90 -108l-44 37z" />
    <glyph glyph-name="quotedblleft" unicode="&#x201c;" horiz-adv-x="445" 
d="M184 621q17 -8 30.5 -26t13.5 -44q0 -33 -22.5 -55t-53.5 -22q-32 0 -54.5 22t-22.5 55q0 16 9.5 33.5t27.5 40.5l90 107l45 -37zM380 621q17 -8 30.5 -26t13.5 -44q0 -33 -22.5 -55t-53.5 -22q-32 0 -54.5 22t-22.5 55q0 16 9.5 33.5t27.5 40.5l90 107l45 -37z" />
    <glyph glyph-name="quotedblright" unicode="&#x201d;" horiz-adv-x="445" 
d="M149 586q-18 7 -31.5 25t-13.5 44q0 33 22.5 55t53.5 22q32 0 54.5 -22t22.5 -55q0 -29 -37 -73l-90 -108l-44 37zM345 586q-18 7 -31.5 25t-13.5 44q0 33 22.5 55t53.5 22q32 0 54.5 -22t22.5 -55q0 -29 -37 -73l-90 -108l-44 37z" />
    <glyph glyph-name="quotedblbase" unicode="&#x201e;" horiz-adv-x="441" 
d="M47 0q-18 7 -31.5 25t-13.5 44q0 33 22.5 55t53.5 22q32 0 54.5 -22t22.5 -55q0 -29 -37 -73l-90 -108l-44 37zM238 0q-18 7 -31.5 25t-13.5 44q0 33 22.5 55t53.5 22q32 0 54.5 -22t22.5 -55q0 -29 -37 -73l-90 -108l-44 37z" />
    <glyph glyph-name="dagger" unicode="&#x2020;" horiz-adv-x="453" 
d="M213 579l25 137h103l-24 -137h142l-16 -94h-143l-58 -327h-103l58 327h-143l17 94h142z" />
    <glyph glyph-name="daggerdbl" unicode="&#x2021;" horiz-adv-x="453" 
d="M213 579l25 137h103l-24 -137h142l-16 -94h-143l-42 -238h143l-17 -94h-143l-27 -153h-103l27 153h-142l16 94h143l42 238h-143l17 94h142z" />
    <glyph glyph-name="bullet" unicode="&#x2022;" horiz-adv-x="410" 
d="M110.5 235.5q-36.5 36.5 -36.5 88.5t36.5 88.5t88.5 36.5t88.5 -36.5t36.5 -88.5t-36.5 -88.5t-88.5 -36.5t-88.5 36.5z" />
    <glyph glyph-name="ellipsis" unicode="&#x2026;" horiz-adv-x="726" 
d="M20 16.5q-22 22.5 -22 54.5t22.5 54t53.5 22q32 0 54.5 -22t22.5 -54t-22.5 -54.5t-54.5 -22.5t-54 22.5zM258 16.5q-22 22.5 -22 54.5t22.5 54t53.5 22q32 0 54.5 -22t22.5 -54t-22.5 -54.5t-54.5 -22.5t-54 22.5zM497 16.5q-22 22.5 -22 54.5t22.5 54t53.5 22
q32 0 54.5 -22t22.5 -54t-22.5 -54.5t-54.5 -22.5t-54 22.5z" />
    <glyph glyph-name="perthousand" unicode="&#x2030;" horiz-adv-x="1093" 
d="M103 400q-43 42 -43 108q0 52 26 96t72 70t103 26q66 0 108.5 -42.5t42.5 -107.5q0 -53 -26 -97t-71.5 -69.5t-100.5 -25.5q-68 0 -111 42zM101 36l562 660l58 -49l-561 -660zM293 469.5q28 29.5 28 73.5q0 34 -20 54.5t-51 20.5q-43 0 -71 -29t-28 -73q0 -34 20.5 -55
t51.5 -21q42 0 70 29.5zM453 26q-43 42 -43 108q0 52 26 96t72 70t103 26q39 0 70.5 -18.5t48.5 -51.5q22 31 62.5 50.5t83.5 19.5q67 0 109.5 -42.5t42.5 -107.5q0 -53 -26.5 -97t-71.5 -69.5t-100 -25.5q-39 0 -72 19.5t-51 50.5q-24 -31 -61 -50.5t-81 -19.5
q-69 0 -112 42zM644 95.5q28 29.5 28 73.5q0 34 -20 54.5t-51 20.5q-44 0 -72 -29t-28 -73q0 -34 20.5 -55t51.5 -21q43 0 71 29.5zM909 95.5q28 29.5 28 73.5q0 34 -20 54.5t-51 20.5q-43 0 -71.5 -29t-28.5 -73q0 -34 21 -55t52 -21q42 0 70 29.5z" />
    <glyph glyph-name="uni2031" unicode="&#x2031;" horiz-adv-x="1359" 
d="M103 400q-43 42 -43 108q0 52 26 96t72 70t103 26q66 0 108.5 -42.5t42.5 -107.5q0 -53 -26 -97t-71.5 -69.5t-100.5 -25.5q-68 0 -111 42zM101 36l562 660l58 -49l-561 -660zM293 469.5q28 29.5 28 73.5q0 34 -20 54.5t-51 20.5q-43 0 -71 -29t-28 -73q0 -34 20.5 -55
t51.5 -21q42 0 70 29.5zM453 26q-43 42 -43 108q0 52 26 96t72 70t103 26q39 0 70.5 -18.5t48.5 -51.5q22 31 62.5 50.5t83.5 19.5q40 0 70.5 -18.5t48.5 -51.5q22 31 62.5 50.5t84.5 19.5q66 0 108.5 -42.5t42.5 -107.5q0 -53 -26 -97t-71.5 -69.5t-100.5 -25.5
q-39 0 -72 19.5t-50 50.5q-24 -31 -61.5 -50.5t-81.5 -19.5q-39 0 -72 19.5t-51 50.5q-24 -31 -61 -50.5t-81 -19.5q-69 0 -112 42zM644 95.5q28 29.5 28 73.5q0 34 -20 54.5t-51 20.5q-44 0 -72 -29t-28 -73q0 -34 20.5 -55t51.5 -21q43 0 71 29.5zM909 95.5
q28 29.5 28 73.5q0 34 -20 54.5t-51 20.5q-43 0 -71.5 -29t-28.5 -73q0 -34 21 -55t52 -21q42 0 70 29.5zM1174 95.5q28 29.5 28 73.5q0 34 -20 54.5t-51 20.5q-43 0 -71 -29t-28 -73q0 -34 20.5 -55t51.5 -21q42 0 70 29.5z" />
    <glyph glyph-name="guilsinglleft" unicode="&#x2039;" horiz-adv-x="370" 
d="M188 47l-167 224l246 224l56 -63l-184 -167l120 -162z" />
    <glyph glyph-name="guilsinglright" unicode="&#x203a;" horiz-adv-x="370" 
d="M148 495l167 -224l-246 -224l-56 63l184 167l-120 162z" />
    <glyph glyph-name="exclamdbl" unicode="&#x203c;" horiz-adv-x="473" 
d="M94 499l38 217h112l-39 -217l-58 -266h-89zM20.5 16.5q-22.5 22.5 -22.5 54.5t22.5 54t54.5 22t54.5 -22t22.5 -54t-22.5 -54.5t-54.5 -22.5t-54.5 22.5zM317 499l38 217h112l-39 -217l-58 -266h-89zM243.5 16.5q-22.5 22.5 -22.5 54.5t22.5 54t54.5 22t54.5 -22
t22.5 -54t-22.5 -54.5t-54.5 -22.5t-54.5 22.5z" />
    <glyph glyph-name="uni2042" unicode="&#x2042;" horiz-adv-x="893" 
d="M323 433l86 94l-1 8l-95 35l34 77l99 -37l5 3l19 108h82l-19 -108l5 -3l100 35l26 -75l-114 -42l-4 -8l51 -89l-72 -46l-53 93h-7l-82 -94zM19 31l86 94l-1 8l-95 35l34 77l98 -37l6 3l19 108h82l-19 -108l5 -3l100 35l26 -75l-114 -42l-4 -8l51 -89l-72 -46l-53 93h-7
l-83 -94zM484 31l87 94l-1 8l-96 35l34 77l99 -37l6 3l19 108h82l-19 -108l4 -3l101 35l26 -75l-115 -42l-4 -8l52 -89l-73 -46l-52 93h-7l-83 -94z" />
    <glyph glyph-name="uni2043" unicode="&#x2043;" horiz-adv-x="407" 
d="M335 361l-17 -102h-264l18 102h263z" />
    <glyph glyph-name="fraction" unicode="&#x2044;" horiz-adv-x="180" 
d="M354 727l61 -47l-588 -692l-63 48z" />
    <glyph glyph-name="uni2047" unicode="&#x2047;" horiz-adv-x="964" 
d="M174 274q9 49 32.5 81.5t83.5 76.5q40 29 63.5 56t23.5 60q0 36 -25.5 58t-67.5 22q-45 0 -75 -25.5t-43 -64.5l-93 42q23 66 81.5 109t144.5 43q55 0 98 -22t67.5 -60t24.5 -85q0 -58 -32 -100.5t-94 -90.5q-38 -30 -55.5 -54.5t-23.5 -57.5l-6 -29h-111zM138.5 16.5
q-22.5 22.5 -22.5 54.5t22.5 54t54.5 22t54 -22t22 -54t-22 -54.5t-54 -22.5t-54.5 22.5zM636 274q9 49 32.5 81.5t83.5 76.5q40 29 63.5 56t23.5 60q0 36 -25.5 58t-67.5 22q-45 0 -75 -25.5t-43 -64.5l-93 42q23 66 81.5 109t144.5 43q55 0 98 -22t67.5 -60t24.5 -85
q0 -58 -32 -100.5t-94 -90.5q-38 -30 -55.5 -54.5t-23.5 -57.5l-6 -29h-111zM600.5 16.5q-22.5 22.5 -22.5 54.5t22.5 54t54.5 22t54 -22t22 -54t-22 -54.5t-54 -22.5t-54.5 22.5z" />
    <glyph glyph-name="uni2048" unicode="&#x2048;" horiz-adv-x="715" 
d="M174 274q9 49 32.5 81.5t83.5 76.5q40 29 63.5 56t23.5 60q0 36 -25.5 58t-67.5 22q-45 0 -75 -25.5t-43 -64.5l-93 42q23 66 81.5 109t144.5 43q55 0 98 -22t67.5 -60t24.5 -85q0 -58 -32 -100.5t-94 -90.5q-38 -30 -55.5 -54.5t-23.5 -57.5l-6 -29h-111zM138.5 16.5
q-22.5 22.5 -22.5 54.5t22.5 54t54.5 22t54 -22t22 -54t-22 -54.5t-54 -22.5t-54.5 22.5zM560 499l38 217h112l-39 -217l-58 -266h-89zM486.5 16.5q-22.5 22.5 -22.5 54.5t22.5 54t54.5 22t54.5 -22t22.5 -54t-22.5 -54.5t-54.5 -22.5t-54.5 22.5z" />
    <glyph glyph-name="uni2049" unicode="&#x2049;" horiz-adv-x="717" 
d="M388 274q9 49 32.5 81.5t83.5 76.5q40 29 63.5 56t23.5 60q0 36 -25.5 58t-67.5 22q-45 0 -75 -25.5t-43 -64.5l-93 42q23 66 81.5 109t144.5 43q55 0 98 -22t67.5 -60t24.5 -85q0 -58 -32 -100.5t-94 -90.5q-38 -30 -55.5 -54.5t-23.5 -57.5l-6 -29h-111zM352.5 16.5
q-22.5 22.5 -22.5 54.5t22.5 54t54.5 22t54 -22t22 -54t-22 -54.5t-54 -22.5t-54.5 22.5zM94 499l38 217h112l-39 -217l-58 -266h-89zM20.5 16.5q-22.5 22.5 -22.5 54.5t22.5 54t54.5 22t54.5 -22t22.5 -54t-22.5 -54.5t-54.5 -22.5t-54.5 22.5z" />
    <glyph glyph-name="uni204E" unicode="&#x204e;" horiz-adv-x="413" 
d="M14 41l95 102l-2 8l-98 37l32 77l103 -39l7 2l21 117h84l-20 -117l6 -2l104 36l26 -78l-117 -43l-4 -7l57 -99l-77 -48l-57 101h-7l-90 -101z" />
    <glyph glyph-name="uni2051" unicode="&#x2051;" horiz-adv-x="427" 
d="M89 433l87 94l-1 8l-96 35l34 77l99 -37l6 3l19 108h82l-19 -108l4 -3l101 35l26 -75l-115 -42l-4 -8l52 -89l-73 -46l-52 93h-7l-83 -94zM19 33l86 94l-1 8l-95 35l34 77l98 -38l6 3l19 109h82l-19 -109l5 -3l100 36l26 -75l-114 -42l-4 -8l51 -90l-72 -45l-53 93h-7
l-83 -94z" />
    <glyph glyph-name="uni2055" unicode="&#x2055;" horiz-adv-x="670" 
d="M291 220l-122 -122l-62 62l123 121h-174v88h174l-123 121l62 62l122 -122v174h88v-174l122 122l62 -62l-123 -121h174v-88h-174l123 -121l-62 -62l-122 122v-174h-88v174z" />
    <glyph glyph-name="uni2074" unicode="&#x2074;" horiz-adv-x="353" 
d="M209 419h-171l9 55l216 242h76l-40 -231h47l-12 -66h-47l-13 -69h-77zM221 485l21 116h-6l-102 -116h87z" />
    <glyph glyph-name="franc" unicode="&#x20a3;" horiz-adv-x="559" 
d="M53 114h-72l14 76h71l88 494h426l-18 -101h-320l-35 -199h289l-18 -100h-288l-17 -94h132l-14 -76h-132l-20 -114h-106z" />
    <glyph glyph-name="lira" unicode="&#x20a4;" horiz-adv-x="532" 
d="M-10 92q74 32 106 85h-95l12 76h106v5q-1 28 -9 68h-84l13 76h47q-11 42 -11 82q0 57 29.5 106.5t83.5 79.5t123 30q81 0 128 -42t64 -103l-106 -40q-8 38 -32 61t-66 23q-52 0 -84 -33.5t-32 -83.5q0 -39 11 -80h160l-13 -76h-128q6 -38 6 -62q0 -6 -1 -11h110l-13 -76
h-117q-20 -38 -62 -71l3 -5h165q32 0 53 14.5t36 43.5l81 -38q-29 -61 -72.5 -91t-113.5 -30h-314z" />
    <glyph glyph-name="uni20A9" unicode="&#x20a9;" horiz-adv-x="987" 
d="M134 326h-108l13 76h88l-25 282h118l19 -282h119l135 282h116l35 -282h117l119 282h120l-124 -282h83l-13 -76h-103l-142 -326h-114l-39 326h-117l-156 -326h-112zM539 402l-11 122h-6l-54 -122h71zM257 183l65 143h-78l8 -143h5zM672 184l57 142h-76l13 -142h6z" />
    <glyph glyph-name="dong" unicode="&#x20ab;" horiz-adv-x="577" 
d="M104.5 10q-45.5 26 -72.5 76t-27 117q0 76 34.5 142t95.5 105.5t139 39.5q55 0 94 -23t57 -57h6l6 69l10 60h-139l12 74h140l13 71h110l-13 -71h62l-13 -74h-62l-95 -539h-104l11 64h-6q-24 -35 -65.5 -57.5t-92.5 -22.5q-55 0 -100.5 26zM324.5 110.5q37.5 25.5 58 66.5
t20.5 86q0 60 -34 93t-86 33q-48 0 -86 -24t-59.5 -65t-21.5 -89q0 -60 35.5 -93t87.5 -33q48 0 85.5 25.5zM-10 -84h458l-16 -85h-457z" />
    <glyph glyph-name="Euro" unicode="&#x20ac;" horiz-adv-x="640" 
d="M199.5 46.5q-77.5 62.5 -98.5 173.5h-100l14 84h80q0 34 8 76h-75l15 84h87q47 105 144 170.5t225 65.5q87 0 154 -46l-60 -90q-44 31 -111 31q-74 0 -134 -35.5t-96 -95.5h221l-15 -84h-242q-9 -37 -9 -76h238l-15 -84h-210q19 -65 68 -98t111 -33q35 0 65 8t61 25
l42 -91q-41 -24 -85 -35.5t-96 -11.5q-109 0 -186.5 62.5z" />
    <glyph glyph-name="uni20AE" unicode="&#x20ae;" horiz-adv-x="540" 
d="M174 117l-134 -76h-4l19 101l136 77l14 78l-137 -78l18 104l138 77l32 183h-193l18 101h492l-18 -101h-193l-21 -122l134 76h3l-18 -101l-137 -78l-14 -78l138 80l-18 -104l-138 -78l-32 -178h-106z" />
    <glyph glyph-name="uni20B1" unicode="&#x20b1;" horiz-adv-x="644" 
d="M113 438h-76l14 76h75l31 170h227q86 0 143 -46.5t64 -123.5h65l-14 -76h-56q-20 -81 -90 -126t-166 -45h-140l-48 -267h-106zM482 514q-8 31 -33.5 50t-65.5 19h-138l-12 -69h249zM347 368q42 0 76 19t51 51h-254l-12 -70h139z" />
    <glyph glyph-name="uni20B8" unicode="&#x20b8;" horiz-adv-x="540" 
d="M81 684h492l-16 -93h-492zM228 426h-193l17 92h492l-16 -92h-193l-76 -426h-106z" />
    <glyph glyph-name="uni20B9" unicode="&#x20b9;" horiz-adv-x="568" 
d="M92 264l18 105h152q50 0 83 19t47 54h-354l14 76h347q-8 32 -32 52.5t-63 20.5h-239l16 93h520l-13 -76h-118q33 -43 37 -90h65l-14 -76h-55q-19 -81 -86.5 -125.5t-156.5 -46.5h-19l-2 -5l209 -259l-2 -6h-140z" />
    <glyph glyph-name="uni20BA" unicode="&#x20ba;" horiz-adv-x="543" 
d="M114 176l-135 -77l18 103l135 76l15 87l-136 -77l19 104l136 76l38 216h106l-27 -155l139 80l-18 -104l-139 -78l-15 -88l138 81l-17 -104l-140 -79l-24 -138q74 5 126 49t65 113h103q-15 -78 -58.5 -137t-110.5 -91.5t-150 -32.5h-99z" />
    <glyph glyph-name="uni20BD" unicode="&#x20bd;" horiz-adv-x="593" 
d="M56 114h-75l14 76h74l14 77h-75l16 93h76l57 324h229q60 0 106.5 -23.5t73 -67t26.5 -101.5q0 -68 -33.5 -119t-93 -78.5t-135.5 -27.5h-140l-14 -77h133l-14 -76h-133l-20 -114h-106zM347 368q60 0 99 31t39 86q0 43 -28 70.5t-78 27.5h-134l-37 -215h139z" />
    <glyph glyph-name="uni2103" unicode="&#x2103;" horiz-adv-x="971" 
d="M97 474q-35 32 -35 82q0 63 41.5 103.5t104.5 40.5q49 0 84 -32t35 -82q0 -63 -41.5 -103.5t-104.5 -40.5q-49 0 -84 32zM441 25q-69 41 -106.5 111t-37.5 156q0 109 52 202.5t146.5 149.5t213.5 56q75 0 135.5 -29.5t103.5 -84.5l-88 -74q-31 41 -69 62t-99 21
q-79 0 -143.5 -38.5t-102 -106t-37.5 -151.5q0 -64 26 -111.5t73 -73t108 -25.5q65 0 112 22.5t93 69.5l65 -77q-61 -63 -127.5 -91.5t-157.5 -28.5t-160 41zM233.5 531q18.5 19 18.5 46q0 23 -14 38t-37 15q-27 0 -45.5 -19t-18.5 -47q0 -23 14 -37.5t37 -14.5
q27 0 45.5 19z" />
    <glyph glyph-name="uni2109" unicode="&#x2109;" horiz-adv-x="822" 
d="M102 474q-35 32 -35 82q0 63 41.5 103.5t104.5 40.5q49 0 84 -32t35 -82q0 -63 -41.5 -103.5t-104.5 -40.5q-49 0 -84 32zM429 684h418l-18 -105h-309l-34 -193h278l-18 -104h-278l-50 -282h-110zM238.5 531q18.5 19 18.5 46q0 23 -14 38t-37 15q-27 0 -45.5 -19
t-18.5 -47q0 -23 14 -37.5t37 -14.5q27 0 45.5 19z" />
    <glyph glyph-name="uni2113" unicode="&#x2113;" horiz-adv-x="441" 
d="M107.5 27.5q-40.5 35.5 -40.5 99.5q0 23 5 43l17 103h-89l17 95h89l35 196q13 75 57.5 121.5t115.5 46.5q61 0 96.5 -39.5t35.5 -113.5t-32.5 -138t-89 -106.5t-127.5 -55.5l-18 -107q-2 -14 -2 -23q0 -28 15 -42.5t41 -14.5q29 0 52 13l23 -94q-44 -19 -98 -19
q-62 0 -102.5 35.5zM308 451.5q33 53.5 33 124.5q0 30 -10 45t-27 15q-21 0 -35.5 -18t-20.5 -52l-33 -188q60 20 93 73.5z" />
    <glyph glyph-name="uni2114" unicode="&#x2114;" horiz-adv-x="824" 
d="M413.5 6.5q-40.5 22.5 -61.5 57.5h-6l-11 -64h-103l100 572h-96l-101 -572h-110l101 572h-64l12 72h64l13 72h110l-13 -72h96l13 72h110l-13 -72h137l-12 -72h-138l-13 -77l-18 -69h6q25 35 66 57.5t97 22.5q57 0 103.5 -28t73 -79.5t26.5 -120.5q0 -78 -37 -145.5
t-101 -108t-141 -40.5q-49 0 -89.5 22.5zM586.5 109.5q38.5 24.5 61 66t22.5 91.5q0 64 -33 101t-92 37q-49 0 -88 -26t-61 -69t-22 -92q0 -62 36.5 -97.5t91.5 -35.5q46 0 84.5 24.5z" />
    <glyph glyph-name="uni2116" unicode="&#x2116;" horiz-adv-x="1085" 
d="M783.5 433q-43.5 43 -43.5 111q0 52 24.5 95t69.5 68t102 25q66 0 109 -42t43 -108q0 -58 -26.5 -101.5t-71 -67t-98.5 -23.5q-65 0 -108.5 43zM135 716h126l235 -521h6l18 138l68 383h111l-127 -716h-109l-247 548h-6l-18 -138l-73 -410h-111zM976 496.5
q28 30.5 28 76.5q0 37 -21 60t-55 23q-46 0 -75 -32.5t-29 -74.5q0 -38 22 -60.5t56 -22.5q46 0 74 30.5zM732 316h280l-13 -78h-280z" />
    <glyph glyph-name="uni2117" unicode="&#x2117;" horiz-adv-x="532" 
d="M151 303q-53 31 -84 84t-31 115t31 115t84 84t115 31t115 -31t84 -84t31 -115t-31 -115t-84 -84t-115 -31t-115 31zM357.5 344.5q41.5 24.5 66 66.5t24.5 91q0 50 -24.5 91.5t-66 66t-91.5 24.5q-49 0 -91 -24.5t-66.5 -66t-24.5 -91.5q0 -49 25 -90.5t66.5 -66.5
t90.5 -25q50 0 91.5 24.5zM197 615h96q29 0 51 -21t22 -51t-22 -51t-51 -21h-50v-82h-46v226zM289 515q13 0 22 8t9 20q0 11 -8.5 19.5t-21.5 8.5h-47v-56h46z" />
    <glyph glyph-name="prescription" unicode="&#x211e;" horiz-adv-x="707" 
d="M165 -154l200 227l-105 207h-90l-50 -280h-112l127 716h243q60 0 106.5 -24.5t72.5 -68.5t26 -101q0 -88 -57.5 -149.5t-147.5 -79.5l-2 -5l66 -128l113 130h120l-1 -6l-187 -214l117 -224l-2 -6h-119l-71 143l-123 -143h-125zM326 385q60 0 101 34.5t41 94.5
q0 42 -27.5 68.5t-76.5 26.5h-136l-40 -224h138z" />
    <glyph glyph-name="uni2120" unicode="&#x2120;" horiz-adv-x="498" 
d="M165 600q21 -16 21 -47q0 -33 -26 -50t-56 -17q-29 0 -54 16t-34 44l41 18q5 -15 19 -25.5t28 -10.5t25 7t11 18q0 12 -12 20t-40 16q-29 7 -46.5 24t-17.5 42q0 29 23.5 47t56.5 18q25 0 47.5 -14.5t30.5 -37.5l-40 -16q-2 8 -13 17t-25 9q-15 0 -24.5 -6.5t-9.5 -16.5
q0 -16 39 -28q35 -11 56 -27zM430 608l2 44h-2l-66 -162h-32l-66 162h-2l2 -44v-118h-44v226h62l63 -162h2l63 162h62v-226h-44v118z" />
    <glyph glyph-name="trademark" unicode="&#x2122;" horiz-adv-x="501" 
d="M77 674h-69v42h181v-42h-66v-184h-46v184zM433 608l2 44h-2l-66 -162h-32l-66 162h-2l2 -44v-118h-44v226h62l63 -162h2l63 162h62v-226h-44v118z" />
    <glyph glyph-name="uni2126" unicode="&#x2126;" horiz-adv-x="807" 
d="M15 102h152l1 6q-52 41 -86.5 101.5t-34.5 142.5q0 101 51.5 188.5t144 139.5t209.5 52q96 0 167 -40t109 -108t38 -150q0 -106 -56.5 -188t-158.5 -138l-1 -6h146l-18 -102h-287l26 145q65 15 118.5 55.5t84.5 97.5t31 120t-27 109.5t-75 72t-111 25.5q-78 0 -141.5 -36
t-100 -97t-36.5 -133q0 -82 42.5 -136.5t108.5 -77.5l-26 -145h-286z" />
    <glyph glyph-name="estimated" unicode="&#x212e;" horiz-adv-x="784" 
d="M218.5 33q-82.5 49 -128.5 134.5t-46 190.5q0 100 44.5 185.5t124 137t179.5 51.5q104 0 182.5 -46.5t122 -131t43.5 -196.5l-1 -23h-551v-184q37 -52 95.5 -77.5t123.5 -25.5q81 0 144 37t98 119l68 -28q-34 -82 -115.5 -137t-195.5 -55q-105 0 -187.5 49zM508.5 648.5
q-53.5 19.5 -116.5 19.5q-61 0 -114 -23t-90 -68v-181h408v194q-34 39 -87.5 58.5z" />
    <glyph glyph-name="uni2153" unicode="&#x2153;" horiz-adv-x="826" 
d="M185 612l-52 -38l-37 59l116 83h71l-65 -366h-79zM661 727l61 -47l-588 -692l-63 48zM500.5 18q-35.5 26 -44.5 74l71 26q15 -56 64 -56q25 0 43 14.5t18 37.5q0 21 -15 32.5t-42 11.5h-34l12 64h36q25 0 42 13t17 33q0 16 -12 26t-29 10q-40 0 -61 -40l-65 28
q16 37 52 59.5t84 22.5q49 0 80.5 -26.5t31.5 -65.5q0 -30 -18.5 -54t-45.5 -36q22 -11 34.5 -30.5t12.5 -44.5q0 -54 -42.5 -89.5t-106.5 -35.5q-47 0 -82.5 26z" />
    <glyph glyph-name="uni2154" unicode="&#x2154;" horiz-adv-x="885" 
d="M73 412l153 131q23 19 37.5 36t14.5 35t-12.5 28.5t-31.5 10.5q-42 0 -60 -53l-68 28q13 45 50.5 70.5t87.5 25.5q52 0 84 -28t32 -71q0 -36 -18 -61.5t-58 -59.5l-75 -64q-10 -8 -15.5 -12.5t-7.5 -6.5h143l-13 -71h-255zM720 727l61 -47l-588 -692l-63 48zM548.5 18
q-35.5 26 -44.5 74l71 26q15 -56 64 -56q25 0 43 14.5t18 37.5q0 21 -15 32.5t-42 11.5h-34l12 64h36q25 0 42 13t17 33q0 16 -12 26t-29 10q-40 0 -61 -40l-65 28q16 37 52 59.5t84 22.5q49 0 80.5 -26.5t31.5 -65.5q0 -30 -18.5 -54t-45.5 -36q22 -11 34.5 -30.5
t12.5 -44.5q0 -54 -42.5 -89.5t-106.5 -35.5q-47 0 -82.5 26z" />
    <glyph glyph-name="oneeighth" unicode="&#x215b;" horiz-adv-x="814" 
d="M186 612l-52 -38l-37 59l116 83h71l-65 -366h-79zM657 727l61 -47l-588 -692l-63 48zM480 21.5q-35 29.5 -35 74.5q0 33 20.5 59.5t52.5 39.5q-13 9 -22.5 26t-9.5 37q0 31 18 58t50 42.5t72 15.5q45 0 77.5 -26t32.5 -67q0 -28 -15 -51.5t-40 -37.5q18 -13 28.5 -32
t10.5 -43q0 -56 -43.5 -90.5t-108.5 -34.5q-53 0 -88 29.5zM641.5 235q15.5 13 15.5 35q0 15 -12.5 25t-29.5 10q-20 0 -35 -13t-15 -33q0 -16 11.5 -26.5t27.5 -10.5q22 0 37.5 13zM622.5 75q18.5 14 18.5 40q0 19 -14.5 31.5t-38.5 12.5q-25 0 -43.5 -15.5t-18.5 -39.5
q0 -20 15 -31.5t37 -11.5q26 0 44.5 14z" />
    <glyph glyph-name="threeeighths" unicode="&#x215c;" horiz-adv-x="850" 
d="M115.5 368q-35.5 26 -44.5 74l71 26q14 -56 63 -56q25 0 43.5 14.5t18.5 37.5q0 21 -15.5 32.5t-42.5 11.5h-33l12 64h35q25 0 42 12.5t17 33.5q0 16 -12 26t-29 10q-41 0 -60 -40l-65 28q15 37 51 59.5t84 22.5q49 0 80.5 -26.5t31.5 -65.5q0 -30 -18 -54t-45 -36
q21 -11 34 -30.5t13 -44.5q0 -54 -42.5 -89.5t-106.5 -35.5q-47 0 -82.5 26zM698 727l61 -47l-588 -692l-63 48zM518 21.5q-35 29.5 -35 74.5q0 33 20.5 59.5t52.5 39.5q-13 9 -22.5 26t-9.5 37q0 31 18 58t50 42.5t72 15.5q45 0 77.5 -26t32.5 -67q0 -28 -15 -51.5
t-40 -37.5q18 -13 28.5 -32t10.5 -43q0 -56 -43.5 -90.5t-108.5 -34.5q-53 0 -88 29.5zM679.5 235q15.5 13 15.5 35q0 15 -12.5 25t-29.5 10q-20 0 -35 -13t-15 -33q0 -16 11.5 -26.5t27.5 -10.5q22 0 37.5 13zM660.5 75q18.5 14 18.5 40q0 19 -14.5 31.5t-38.5 12.5
q-25 0 -43.5 -15.5t-18.5 -39.5q0 -20 15 -31.5t37 -11.5q26 0 44.5 14z" />
    <glyph glyph-name="fiveeighths" unicode="&#x215d;" horiz-adv-x="855" 
d="M114.5 366q-34.5 23 -43.5 68l72 26q5 -22 20 -34.5t38 -12.5q27 0 47.5 19.5t20.5 47.5q0 23 -14.5 36.5t-36.5 13.5q-19 0 -32.5 -7.5t-25.5 -23.5l-62 28l57 189h214l-12 -66h-151l-24 -74q25 19 61 19q45 0 75 -29t30 -80q0 -41 -20.5 -74t-55.5 -51t-77 -18
q-46 0 -80.5 23zM695 727l61 -47l-588 -692l-63 48zM518 21.5q-35 29.5 -35 74.5q0 33 20.5 59.5t52.5 39.5q-13 9 -22.5 26t-9.5 37q0 31 18 58t50 42.5t72 15.5q45 0 77.5 -26t32.5 -67q0 -28 -15 -51.5t-40 -37.5q18 -13 28.5 -32t10.5 -43q0 -56 -43.5 -90.5
t-108.5 -34.5q-53 0 -88 29.5zM679.5 235q15.5 13 15.5 35q0 15 -12.5 25t-29.5 10q-20 0 -35 -13t-15 -33q0 -16 11.5 -26.5t27.5 -10.5q22 0 37.5 13zM660.5 75q18.5 14 18.5 40q0 19 -14.5 31.5t-38.5 12.5q-25 0 -43.5 -15.5t-18.5 -39.5q0 -20 15 -31.5t37 -11.5
q26 0 44.5 14z" />
    <glyph glyph-name="seveneighths" unicode="&#x215e;" horiz-adv-x="778" 
d="M272 644h-165l13 72h255l-12 -68l-228 -313l-59 42zM605 727l61 -47l-588 -692l-63 48zM443 21.5q-35 29.5 -35 74.5q0 33 20.5 59.5t52.5 39.5q-13 9 -22.5 26t-9.5 37q0 31 18 58t50 42.5t72 15.5q45 0 77.5 -26t32.5 -67q0 -28 -15 -51.5t-40 -37.5q18 -13 28.5 -32
t10.5 -43q0 -56 -43.5 -90.5t-108.5 -34.5q-53 0 -88 29.5zM604.5 235q15.5 13 15.5 35q0 15 -12.5 25t-29.5 10q-20 0 -35 -13t-15 -33q0 -16 11.5 -26.5t27.5 -10.5q22 0 37.5 13zM585.5 75q18.5 14 18.5 40q0 19 -14.5 31.5t-38.5 12.5q-25 0 -43.5 -15.5t-18.5 -39.5
q0 -20 15 -31.5t37 -11.5q26 0 44.5 14z" />
    <glyph glyph-name="uni2160" unicode="&#x2160;" horiz-adv-x="464" 
d="M-18 102h151l85 480h-153l18 102h416l-19 -102h-152l-85 -480h153l-18 -102h-415z" />
    <glyph glyph-name="uni2161" unicode="&#x2161;" horiz-adv-x="724" 
d="M-18 102h151l85 480h-153l18 102h676l-19 -102h-152l-85 -480h153l-18 -102h-675zM393 102l85 480h-150l-85 -480h150z" />
    <glyph glyph-name="uni2162" unicode="&#x2162;" horiz-adv-x="984" 
d="M-18 102h151l85 480h-153l18 102h936l-19 -102h-152l-85 -480h153l-18 -102h-935zM393 102l85 480h-150l-85 -480h150zM653 102l85 480h-150l-85 -480h150z" />
    <glyph glyph-name="uni2163" unicode="&#x2163;" horiz-adv-x="1006" 
d="M-18 102h151l85 480h-153l18 102h958l-19 -102h-122l-235 -480h273l-18 -102h-957zM498 102l-67 480h-103l-85 -480h255zM596 171l29 68l161 343h-243l43 -343l4 -68h6z" />
    <glyph glyph-name="uni2164" unicode="&#x2164;" horiz-adv-x="762" 
d="M-18 102h272l-67 480h-122l18 102h714l-19 -102h-122l-235 -480h273l-18 -102h-713zM352 171l29 68l161 343h-243l43 -343l4 -68h6z" />
    <glyph glyph-name="uni2165" unicode="&#x2165;" horiz-adv-x="1034" 
d="M-18 102h272l-67 480h-122l18 102h958l-19 -102h-152l-85 -480h153l-18 -102h-957zM352 171l29 68l161 343h-243l43 -343l4 -68h6zM675 102l85 480h-104l-235 -480h254z" />
    <glyph glyph-name="uni2166" unicode="&#x2166;" horiz-adv-x="1274" 
d="M-18 102h272l-67 480h-122l18 102h1218l-19 -102h-152l-85 -480h153l-18 -102h-1217zM352 171l29 68l161 343h-243l43 -343l4 -68h6zM675 102l85 480h-104l-235 -480h254zM935 102l85 480h-150l-85 -480h150z" />
    <glyph glyph-name="uni2167" unicode="&#x2167;" horiz-adv-x="1526" 
d="M-18 102h272l-67 480h-122l18 102h1478l-19 -102h-152l-85 -480h153l-18 -102h-1477zM352 171l29 68l161 343h-243l43 -343l4 -68h6zM675 102l85 480h-104l-235 -480h254zM935 102l85 480h-150l-85 -480h150zM1195 102l85 480h-150l-85 -480h150z" />
    <glyph glyph-name="uni2168" unicode="&#x2168;" horiz-adv-x="952" 
d="M-18 102h151l85 480h-153l18 102h904l-19 -102h-109l-201 -242l115 -238h111l-18 -102h-903zM331 102l202 243l-115 237h-90l-85 -480h88zM612 432l25 35l96 115h-192l55 -115l13 -35h3zM651 102l-57 117l-11 32h-3l-25 -32l-96 -117h192z" />
    <glyph glyph-name="uni2169" unicode="&#x2169;" horiz-adv-x="707" 
d="M-18 102h104l202 243l-115 237h-108l18 102h659l-19 -102h-109l-201 -242l115 -238h111l-18 -102h-658zM367 432l25 35l96 115h-192l55 -115l13 -35h3zM406 102l-57 117l-11 32h-3l-25 -32l-96 -117h192z" />
    <glyph glyph-name="uni216A" unicode="&#x216a;" horiz-adv-x="952" 
d="M-18 102h104l202 243l-115 237h-108l18 102h904l-19 -102h-152l-85 -480h153l-18 -102h-903zM367 432l25 35l96 115h-192l55 -115l13 -35h3zM621 102l85 480h-92l-201 -242l115 -238h93zM406 102l-57 117l-11 32h-3l-25 -32l-96 -117h192z" />
    <glyph glyph-name="uni216B" unicode="&#x216b;" horiz-adv-x="1212" 
d="M-18 102h104l202 243l-115 237h-108l18 102h1164l-19 -102h-152l-85 -480h153l-18 -102h-1163zM367 432l25 35l96 115h-192l55 -115l13 -35h3zM621 102l85 480h-92l-201 -242l115 -238h93zM881 102l85 480h-150l-85 -480h150zM406 102l-57 117l-11 32h-3l-25 -32
l-96 -117h192z" />
    <glyph glyph-name="uni216C" unicode="&#x216c;" horiz-adv-x="639" 
d="M-18 102h127l85 480h-129l18 102h368l-19 -102h-128l-85 -480h238l25 138h110l-43 -240h-586z" />
    <glyph glyph-name="uni216D" unicode="&#x216d;" horiz-adv-x="739" 
d="M188 23.5q-71 39.5 -111 110.5t-40 163q0 103 54 196.5t146.5 150t203.5 56.5q66 0 115.5 -20.5t77.5 -51.5h5l10 56h101l-36 -201h-100q-18 53 -64.5 83.5t-115.5 30.5q-77 0 -142.5 -40t-104.5 -107.5t-39 -145.5q0 -68 28 -117t75.5 -74.5t105.5 -25.5
q71 0 129.5 30.5t110.5 95.5l81 -60q-71 -89 -150 -129t-179 -40q-90 0 -161 39.5z" />
    <glyph glyph-name="uni216E" unicode="&#x216e;" horiz-adv-x="745" 
d="M106 102l84 480h-125l18 102h318q89 0 158.5 -39t108 -108t38.5 -154q0 -114 -54 -201t-147.5 -134.5t-208.5 -47.5h-333l19 102h124zM454.5 136q66.5 34 105 95.5t38.5 140.5q0 98 -56 154t-157 56h-89l-84 -480h94q82 0 148.5 34z" />
    <glyph glyph-name="uni216F" unicode="&#x216f;" horiz-adv-x="994" 
d="M-18 102h125l85 480h-127l18 102h272l105 -513h6l284 513h279l-18 -102h-127l-85 -480h128l-19 -102h-324l18 102h91l50 285l28 122h-6l-286 -509h-87l-106 509h-6l-16 -122l-51 -285h92l-18 -102h-324z" />
    <glyph glyph-name="uni2180" unicode="&#x2180;" horiz-adv-x="1095" 
d="M182.5 39q-69.5 39 -108 108t-38.5 154q0 114 53.5 201t147 134.5t208.5 47.5h295q89 0 158.5 -39t108 -108t38.5 -154q0 -114 -53.5 -201t-147 -134.5t-208.5 -47.5h-295q-89 0 -158.5 39zM445 102l84 480h-93q-82 0 -148.5 -34t-105 -95.5t-38.5 -140.5q0 -98 56 -154
t157 -56h88zM645 102q82 0 148.5 34t105 95.5t38.5 140.5q0 98 -56 154t-157 56h-88l-84 -480h93z" />
    <glyph glyph-name="uni2181" unicode="&#x2181;" horiz-adv-x="742" 
d="M104 102l84 480h-125l18 102h318q88 0 157.5 -39t108.5 -108t39 -154q0 -114 -54 -201t-147.5 -134.5t-208.5 -47.5h-333l18 102h125zM452.5 136q66.5 34 105 95.5t38.5 140.5q0 98 -56 154t-157 56h-89l-12 -70h29q72 0 113.5 -41.5t41.5 -111.5q0 -52 -26 -95
t-73 -67.5t-109 -24.5h-36l-12 -70h94q82 0 148.5 34zM236 252h39q46 0 74.5 28t28.5 74q0 35 -21 56.5t-58 21.5h-31z" />
    <glyph glyph-name="uni2182" unicode="&#x2182;" horiz-adv-x="1084" 
d="M182.5 39q-69.5 39 -108 108t-38.5 154q0 114 53.5 201t147 134.5t208.5 47.5h295q89 0 158.5 -39t108 -108t38.5 -154q0 -114 -53.5 -201t-147 -134.5t-208.5 -47.5h-295q-89 0 -158.5 39zM445 102l12 70h-28q-72 0 -114 41.5t-42 111.5q0 52 26 95t73.5 67.5
t108.5 24.5h36l12 70h-93q-82 0 -148.5 -34t-105 -95.5t-38.5 -140.5q0 -98 56 -154t157 -56h88zM645 102q82 0 148.5 34t105 95.5t38.5 140.5q0 98 -56 154t-157 56h-88l-12 -70h28q72 0 113.5 -41.5t41.5 -111.5q0 -52 -26 -95t-73 -67.5t-108 -24.5h-36l-12 -70h93z
M471 252l32 180h-39q-45 0 -73.5 -28t-28.5 -74q0 -35 20.5 -56.5t57.5 -21.5h31zM617 252q45 0 73.5 28t28.5 74q0 35 -20.5 56.5t-57.5 21.5h-32l-32 -180h40z" />
    <glyph glyph-name="arrowleft" unicode="&#x2190;" horiz-adv-x="1101" 
d="M48 310l217 217v-168h780v-98h-780v-168z" />
    <glyph glyph-name="arrowup" unicode="&#x2191;" horiz-adv-x="514" 
d="M208 610h-168l217 217l217 -217h-168v-742h-98v742z" />
    <glyph glyph-name="arrowright" unicode="&#x2192;" horiz-adv-x="1101" 
d="M836 261h-780v98h780v168l217 -217l-217 -217v168z" />
    <glyph glyph-name="arrowdown" unicode="&#x2193;" horiz-adv-x="514" 
d="M40 60h168v741h98v-741h168l-217 -217z" />
    <glyph glyph-name="uni2196" unicode="&#x2196;" horiz-adv-x="781" 
d="M159 534l-119 -119v307h307l-119 -119l553 -551l-70 -70z" />
    <glyph glyph-name="uni2197" unicode="&#x2197;" horiz-adv-x="781" 
d="M0 52l553 551l-119 119h307v-307l-119 119l-552 -552z" />
    <glyph glyph-name="uni2198" unicode="&#x2198;" horiz-adv-x="781" 
d="M40 301l119 -119l552 552l70 -70l-553 -551l119 -119h-307v307z" />
    <glyph glyph-name="uni2199" unicode="&#x2199;" horiz-adv-x="781" 
d="M553 113l-553 551l70 70l552 -552l119 119v-307h-307z" />
    <glyph glyph-name="uni21C4" unicode="&#x21c4;" horiz-adv-x="1120" 
d="M855 485h-780v98h780v168l217 -217l-217 -217v168zM48 192l217 217v-168h780v-98h-780v-168z" />
    <glyph glyph-name="partialdiff" unicode="&#x2202;" horiz-adv-x="574" 
d="M121.5 12q-49.5 28 -78.5 77.5t-29 111.5q0 74 36 137t99 99.5t140 36.5q36 0 65.5 -11.5t47.5 -29.5l6 4q-20 76 -78.5 127t-142.5 71l36 89q93 -21 161 -75.5t104.5 -137t36.5 -184.5q0 -91 -32 -169t-98.5 -126t-164.5 -48q-59 0 -108.5 28zM324.5 107.5
q36.5 21.5 58 58.5t21.5 82q0 59 -34 92.5t-88 33.5q-45 0 -81.5 -22.5t-56.5 -59.5t-20 -79q0 -59 34 -93t87 -34q43 0 79.5 21.5z" />
    <glyph glyph-name="uni2206" unicode="&#x2206;" horiz-adv-x="686" 
d="M342 716h127l139 -716h-658zM470 105l-83 473h-6l-248 -473h337z" />
    <glyph glyph-name="product" unicode="&#x220f;" horiz-adv-x="691" 
d="M141 716h533l-127 -716h-112l108 609h-309l-108 -609h-112z" />
    </font>
</defs>
</svg>
