<?xml version="1.0" standalone="no"?>
<!DOCTYPE svg PUBLIC "-//W3C//DTD SVG 1.1//EN" "http://www.w3.org/Graphics/SVG/1.1/DTD/svg11.dtd" >
<svg xmlns="http://www.w3.org/2000/svg" xmlns:xlink="http://www.w3.org/1999/xlink" version="1.1">
<metadata>
Created by FontForge 20170731 at Thu Jul 20 19:12:21 2017
 By Aleksey,,,
Copyright 2017 Google, Inc. All Rights Reserved.
</metadata>
<defs>
<font id="GoogleSansDisplay-Bold" horiz-adv-x="650" >
  <font-face 
    font-family="Google Sans Display"
    font-weight="700"
    font-stretch="normal"
    units-per-em="1000"
    panose-1="2 11 8 3 3 5 2 4 2 3"
    ascent="800"
    descent="-200"
    x-height="496"
    cap-height="716"
    bbox="-404 -285 3284 964"
    underline-thickness="84"
    underline-position="-244"
    unicode-range="U+0002-2792"
  />
<missing-glyph horiz-adv-x="584" 
d="M505 0h-426v716h426v-716zM441 60v596h-298v-596h298z" />
    <glyph glyph-name="f_b" unicode="fb" horiz-adv-x="996" 
d="M631.5 5.5q-39.5 21.5 -59.5 54.5h-8v-60h-122v600h-126q-32 0 -50.5 -20.5t-18.5 -56.5v-27h116v-112h-116v-384h-131v384h-89v112h89v25q0 97 51.5 148t147.5 51h257v-214l-8 -69h8q20 32 60 53.5t92 21.5q64 0 118.5 -34t87 -94t32.5 -136t-32.5 -136t-87 -94
t-118.5 -34q-53 0 -92.5 21.5zM763.5 123q30.5 18 49 50.5t18.5 74.5q0 43 -18.5 75.5t-49 50t-65.5 17.5t-66 -17.5t-49.5 -50t-18.5 -75.5t18.5 -75.5t49.5 -50t66 -17.5t65.5 18z" />
    <glyph glyph-name="f_f" unicode="ff" horiz-adv-x="731" 
d="M116 384h-89v112h89v42q0 88 51.5 137t135.5 49q32 0 53 -6v-125q-2 1 -15 4.5t-31 3.5q-28 0 -45.5 -19t-17.5 -52v-34h195v42q0 87 51 136.5t135 49.5q48 0 81 -11v-127q-36 15 -64 15q-33 0 -53 -19t-20 -52v-34h123v-112h-123v-384h-130v384h-195v-384h-131v384z" />
    <glyph glyph-name="f_f_b" unicode="ffb" horiz-adv-x="1322" 
d="M957.5 5.5q-39.5 21.5 -59.5 54.5h-8v-60h-123v600h-125q-32 0 -51 -20.5t-19 -56.5v-27h116v-112h-116v-384h-130v384h-195v-384h-131v384h-89v112h89v42q0 88 51.5 137t135.5 49q32 0 53 -6v-125q-2 1 -15 4.5t-31 3.5q-28 0 -45.5 -19t-17.5 -52v-34h195v25
q0 97 51.5 148t147.5 51h257v-214l-8 -69h8q20 33 59.5 54t91.5 21q65 0 119.5 -34t87 -94t32.5 -136t-32.5 -136t-87 -94t-119.5 -34q-52 0 -91.5 21.5zM1089.5 123q30.5 18 49 50.5t18.5 74.5q0 43 -18.5 75.5t-49 50t-65.5 17.5q-36 0 -66.5 -17.5t-49 -50t-18.5 -75.5
t18.5 -75.5t49 -50t66.5 -17.5q35 0 65.5 18z" />
    <glyph glyph-name="f_f_h" unicode="ffh" horiz-adv-x="1295" 
d="M116 384h-89v112h89v42q0 88 51.5 137t135.5 49q32 0 53 -6v-125q-2 1 -15 4.5t-31 3.5q-28 0 -45.5 -19t-17.5 -52v-34h195v25q0 97 51.5 148t147.5 51h257v-235l-8 -69h8q19 44 61 70t93 26q91 0 138 -56.5t47 -152.5v-303h-131v287q0 50 -24.5 77t-67.5 27
q-53 0 -84.5 -42t-31.5 -104v-245h-131v600h-125q-32 0 -51 -20.5t-19 -56.5v-27h116v-112h-116v-384h-130v384h-195v-384h-131v384z" />
    <glyph glyph-name="f_f_i" unicode="ffi" horiz-adv-x="968" 
d="M773 585.5q-25 24.5 -25 59.5t25 59.5t60 24.5t59.5 -24.5t24.5 -59.5t-24.5 -59.5t-59.5 -24.5t-60 24.5zM116 384h-89v112h89v42q0 88 51.5 137t135.5 49q32 0 53 -6v-125q-2 1 -15 4.5t-31 3.5q-28 0 -45.5 -19t-17.5 -52v-34h195v42q0 87 51 136.5t135 49.5
q34 0 53 -6v-125q-27 8 -45 8q-28 0 -46 -19.5t-18 -51.5v-34h326v-496h-131v384h-195v-384h-130v384h-195v-384h-131v384z" />
    <glyph glyph-name="f_f_j" unicode="ffj" horiz-adv-x="968" 
d="M773 585.5q-25 24.5 -25 59.5t25 59.5t60 24.5t59.5 -24.5t24.5 -59.5t-24.5 -59.5t-59.5 -24.5t-60 24.5zM670 -219v127q28 -14 52 -14t34.5 14.5t10.5 44.5v431h-195v-384h-130v384h-195v-384h-131v384h-89v112h89v42q0 88 51.5 137t135.5 49q32 0 53 -6v-125
q-2 1 -15 4.5t-31 3.5q-28 0 -45.5 -19t-17.5 -52v-34h195v42q0 87 51 136.5t135 49.5q34 0 53 -6v-125q-27 8 -45 8q-28 0 -46 -19.5t-18 -51.5v-34h326v-546q0 -90 -45 -133t-116 -43q-38 0 -67 7z" />
    <glyph glyph-name="f_f_k" unicode="ffk" horiz-adv-x="1251" 
d="M116 384h-89v112h89v42q0 88 51.5 137t135.5 49q32 0 53 -6v-125q-2 1 -15 4.5t-31 3.5q-28 0 -45.5 -19t-17.5 -52v-34h195v25q0 97 51.5 148t147.5 51h257v-394h7l170 170h161v-8l-185 -181l198 -299v-8h-154l-136 217l-61 -59v-158h-131v600h-125q-32 0 -51 -20.5
t-19 -56.5v-27h116v-112h-116v-384h-130v384h-195v-384h-131v384z" />
    <glyph glyph-name="f_f_l" unicode="ffl" horiz-adv-x="960" 
d="M116 384h-89v112h89v42q0 88 51.5 137t135.5 49q32 0 53 -6v-125q-2 1 -15 4.5t-31 3.5q-28 0 -45.5 -19t-17.5 -52v-34h195v25q0 97 51.5 148t147.5 51h257v-720h-131v600h-125q-32 0 -51 -20.5t-19 -56.5v-27h116v-112h-116v-384h-130v384h-195v-384h-131v384z" />
    <glyph glyph-name="f_f_t" unicode="fft" horiz-adv-x="1063" 
d="M814 35q-47 47 -47 128v221h-195v-384h-130v384h-195v-384h-131v384h-89v112h89v42q0 88 51.5 137t135.5 49q32 0 53 -6v-125q-2 1 -15 4.5t-31 3.5q-28 0 -45.5 -19t-17.5 -52v-34h195v42q0 87 51 136.5t135 49.5q34 0 53 -6v-125q-27 8 -45 8q-28 0 -46 -19.5
t-18 -51.5v-34h195v148h131v-148h122v-112h-122v-197q0 -38 17 -56q16 -16 46 -16q17 0 31 4.5t31 14.5v-126q-42 -16 -90 -16q-74 0 -119 43z" />
    <glyph glyph-name="f_h" unicode="fh" horiz-adv-x="969" 
d="M116 384h-89v112h89v25q0 97 51.5 148t147.5 51h257v-235l-8 -69h8q19 44 61 70t93 26q91 0 138 -56.5t47 -152.5v-303h-131v287q0 50 -24.5 77t-67.5 27q-53 0 -84.5 -42t-31.5 -104v-245h-130v600h-126q-32 0 -50.5 -20.5t-18.5 -56.5v-27h115v-112h-115v-384h-131v384
z" />
    <glyph glyph-name="f_i" unicode="fi" horiz-adv-x="642" 
d="M447.5 585.5q-24.5 24.5 -24.5 59.5t24.5 60t59.5 25t59.5 -25t24.5 -60t-24.5 -59.5t-59.5 -24.5t-59.5 24.5zM116 384h-89v112h89v42q0 88 51.5 137t135.5 49q32 0 53 -6v-125q-2 1 -15 4.5t-31 3.5q-28 0 -45.5 -19t-17.5 -52v-34h325v-496h-130v384h-195v-384h-131
v384z" />
    <glyph glyph-name="f_j" unicode="fj" horiz-adv-x="642" 
d="M447.5 585.5q-24.5 24.5 -24.5 59.5t24.5 59.5t59.5 24.5t59.5 -24.5t24.5 -59.5t-24.5 -59.5t-59.5 -24.5t-59.5 24.5zM344 -219v127q28 -14 52 -14q46 0 46 59v431h-195v-384h-131v384h-89v112h89v42q0 88 51.5 137t135.5 49q32 0 53 -6v-125q-2 1 -15 4.5t-31 3.5
q-28 0 -45.5 -19t-17.5 -52v-34h325v-546q0 -91 -44.5 -133.5t-116.5 -42.5q-38 0 -67 7z" />
    <glyph glyph-name="f_k" unicode="fk" horiz-adv-x="925" 
d="M116 384h-89v112h89v25q0 97 51.5 148t147.5 51h257v-394h7l170 170h161v-8l-185 -181l198 -299v-8h-154l-136 217l-61 -59v-158h-130v600h-126q-32 0 -50.5 -20.5t-18.5 -56.5v-27h115v-112h-115v-384h-131v384z" />
    <glyph glyph-name="f_l" unicode="fl" horiz-adv-x="634" 
d="M116 384h-89v112h89v25q0 97 51.5 148t147.5 51h257v-720h-130v600h-126q-32 0 -50.5 -20.5t-18.5 -56.5v-27h115v-112h-115v-384h-131v384z" />
    <glyph glyph-name="f_t" unicode="ft" horiz-adv-x="738" 
d="M488 35q-46 46 -46 128v221h-195v-384h-131v384h-89v112h89v42q0 88 51.5 137t135.5 49q32 0 53 -6v-125q-2 1 -15 4.5t-31 3.5q-28 0 -45.5 -19t-17.5 -52v-34h195v148h130v-148h122v-112h-122v-197q0 -38 17 -56q16 -16 46 -16q17 0 31 4.5t31 14.5v-126
q-42 -16 -90 -16q-74 0 -119 43z" />
    <glyph glyph-name="r_f" unicode="rf" horiz-adv-x="823" 
d="M534 384h-89v112h89v42q0 87 51 136.5t135 49.5q48 0 81 -11v-127q-36 15 -64 15q-33 0 -53 -19t-20 -52v-34h123v-112h-123v-384h-130v384zM62 496h123v-68h8q20 37 59.5 59.5t85.5 22.5q32 0 47 -5v-129q-27 11 -59 11q-61 0 -97 -39t-36 -105v-243h-131v496z" />
    <glyph glyph-name="r_f_f" unicode="rff" horiz-adv-x="1144" 
d="M62 496h123v-68h8q20 37 59.5 59.5t85.5 22.5q32 0 47 -5v-129q-27 11 -59 11q-61 0 -97 -39t-36 -105v-243h-131v496zM529 384h-89v112h89v42q0 88 51.5 137t135.5 49q32 0 53 -6v-125q-2 1 -15 4.5t-31 3.5q-28 0 -45.5 -19t-17.5 -52v-34h195v42q0 87 51 136.5
t135 49.5q48 0 81 -11v-127q-36 15 -64 15q-33 0 -53 -19t-20 -52v-34h123v-112h-123v-384h-130v384h-195v-384h-131v384z" />
    <glyph glyph-name="r_t" unicode="rt" horiz-adv-x="833" 
d="M62 496h123v-68h8q20 37 59.5 59.5t85.5 22.5q32 0 47 -5v-129q-27 11 -59 11q-61 0 -97 -39t-36 -105v-243h-131v496zM635 3q-30 11 -51 32q-47 45 -47 128v221h-87v112h87v148h131v-148h122v-112h-122v-197q0 -39 17 -56q14 -16 46 -16q17 0 30.5 4.5t30.5 14.5v-126
q-42 -16 -90 -16q-37 0 -67 11z" />
    <glyph glyph-name="t_f" unicode="tf" horiz-adv-x="742" 
d="M212 3q-30 11 -51 32q-47 45 -47 128v221h-87v112h87v148h131v-148h195v42q0 87 51 136.5t135 49.5q52 0 93 -17l-28 -119q-28 13 -57 13q-28 0 -46 -19.5t-18 -51.5v-34h123v-112h-123v-384h-130v384h-195v-197q0 -39 17 -56q14 -16 44 -16q23 0 49 14v-125
q-19 -7 -35 -9.5t-41 -2.5q-37 0 -67 11z" />
    <glyph glyph-name="t_t" unicode="tt" horiz-adv-x="733" 
d="M212 3q-30 11 -51 32q-47 45 -47 128v221h-87v112h87v148h131v-148h192v148h130v-148h122v-112h-122v-197q0 -38 17 -56q16 -16 46 -16q17 0 31 4.5t31 14.5v-126q-42 -16 -90 -16q-74 0 -119 43q-46 46 -46 128v221h-192v-197q0 -39 17 -56q14 -16 44 -16q23 0 49 14
v-125q-19 -7 -35 -9.5t-41 -2.5q-37 0 -67 11z" />
    <glyph glyph-name=".notdef" horiz-adv-x="584" 
d="M505 0h-426v716h426v-716zM441 60v596h-298v-596h298z" />
    <glyph glyph-name=".null" horiz-adv-x="0" 
 />
    <glyph glyph-name="nonmarkingreturn" unicode="&#xd;" horiz-adv-x="0" 
d="M0 0z" />
    <glyph glyph-name="uni0002" horiz-adv-x="0" 
d="M0 0z" />
    <glyph glyph-name="uni0009" unicode="&#x9;" horiz-adv-x="0" 
d="M0 0z" />
    <glyph glyph-name="uni000A" unicode="&#xa;" horiz-adv-x="0" 
d="M0 0z" />
    <glyph glyph-name="space" unicode=" " horiz-adv-x="230" 
d="M0 0z" />
    <glyph glyph-name="exclam" unicode="!" horiz-adv-x="281" 
d="M73 510v206h135v-206l-13 -264h-109zM79.5 19.5q-25.5 25.5 -25.5 61.5t25.5 61t61.5 25t61 -25t25 -61t-25 -61.5t-61 -25.5t-61.5 25.5z" />
    <glyph glyph-name="quotedbl" unicode="&#x22;" horiz-adv-x="391" 
d="M50 716h119v-226h-119v226zM222 716h119v-226h-119v226z" />
    <glyph glyph-name="numbersign" unicode="#" horiz-adv-x="668" 
d="M144 192h-115l17 102h113l16 105h-116l16 102h115l27 183h111l-27 -183h112l27 183h111l-28 -183h116l-16 -102h-115l-15 -105h117l-16 -102h-116l-29 -192h-111l29 192h-112l-29 -192h-111zM384 292l16 109h-116l-16 -109h116z" />
    <glyph glyph-name="dollar" unicode="$" horiz-adv-x="569" 
d="M470 52q-54 -52 -135 -64v-88h-89v87q-77 11 -135 60t-82 133l115 47q11 -41 38 -72t64 -43v191l-9 3q-180 70 -180 204q0 73 51.5 125.5t137.5 62.5v86h89v-88q73 -12 116 -51.5t59 -88.5l-112 -50q-7 22 -23 40t-40 27v-179q96 -40 142.5 -85t46.5 -120q0 -85 -54 -137
zM195.5 468.5q15.5 -17.5 50.5 -35.5v146q-30 -8 -48 -26t-18 -43q0 -24 15.5 -41.5zM379.5 141.5q16.5 19.5 16.5 46.5t-13.5 44t-47.5 34v-154q28 10 44.5 29.5z" />
    <glyph glyph-name="percent" unicode="%" horiz-adv-x="853" 
d="M124.5 381q-40.5 23 -63.5 62t-23 86t23 86t63.5 62t89.5 23q50 0 90.5 -23t63.5 -62t23 -86t-23 -86t-63.5 -62t-90.5 -23q-49 0 -89.5 23zM165 37l444 663l79 -53l-444 -663zM263.5 476q19.5 20 19.5 53t-19.5 53t-49.5 20q-29 0 -49 -20.5t-20 -52.5t20 -52.5
t49 -20.5q30 0 49.5 20zM548.5 7q-40.5 23 -63.5 62t-23 86t23 86t63.5 62t89.5 23q50 0 90.5 -23t63.5 -62t23 -86t-23 -86t-63.5 -62t-90.5 -23q-49 0 -89.5 23zM687.5 102q19.5 20 19.5 53t-19.5 53t-49.5 20q-29 0 -49 -20.5t-20 -52.5t20 -52.5t49 -20.5q30 0 49.5 20z
" />
    <glyph glyph-name="ampersand" unicode="&#x26;" horiz-adv-x="658" 
d="M552 147l74 -90l-95 -73l-52 63q-72 -63 -171 -63q-74 0 -135 32t-96 89.5t-35 129.5q0 60 30 114.5t83 92.5q-44 60 -44 112q0 50 24 90.5t66.5 64t95.5 23.5q68 0 113 -32t65 -86l-106 -56q-9 26 -26.5 42.5t-43.5 16.5q-28 0 -45.5 -17t-17.5 -43q0 -15 6.5 -28.5
t19.5 -29.5l215 -261l59 95l95 -60zM406 136l-181 219q-28 -22 -43 -52t-15 -63q0 -41 20.5 -72.5t54 -48.5t72.5 -17q55 0 92 34z" />
    <glyph glyph-name="quotesingle" unicode="'" horiz-adv-x="219" 
d="M50 716h119v-226h-119v226z" />
    <glyph glyph-name="parenleft" unicode="(" horiz-adv-x="359" 
d="M116.5 64.5q-52.5 121.5 -52.5 257.5t52.5 257.5t123.5 200.5l99 -68q-144 -179 -144 -390t144 -390l-99 -68q-71 79 -123.5 200.5z" />
    <glyph glyph-name="parenright" unicode=")" horiz-adv-x="359" 
d="M20 -68q144 179 144 390t-144 390l99 68q71 -79 123.5 -200.5t52.5 -257.5t-52.5 -257.5t-123.5 -200.5z" />
    <glyph glyph-name="asterisk" unicode="*" horiz-adv-x="464" 
d="M78 402l72 98l-3 9l-107 38l31 89l105 -37l9 3v114h94v-114l8 -3l106 37l31 -89l-107 -38l-3 -9l72 -98l-76 -55l-74 100h-8l-74 -100z" />
    <glyph glyph-name="plus" unicode="+" horiz-adv-x="579" 
d="M518 213h-171v-170h-116v170h-170v116h170v170h116v-170h171v-116z" />
    <glyph glyph-name="comma" unicode="," horiz-adv-x="283" 
d="M50 -89l59 91q-23 9 -38 30t-15 49q0 36 25.5 61t61.5 25t61 -25t25 -61q0 -18 -5.5 -32.5t-19.5 -34.5l-95 -142z" />
    <glyph glyph-name="hyphen" unicode="-" horiz-adv-x="461" 
d="M61 368h339v-116h-339v116z" />
    <glyph glyph-name="period" unicode="." horiz-adv-x="281" 
d="M79.5 19.5q-25.5 25.5 -25.5 61.5t25.5 61t61.5 25t61 -25t25 -61t-25 -61.5t-61 -25.5t-61.5 25.5z" />
    <glyph glyph-name="slash" unicode="/" horiz-adv-x="486" 
d="M327 716h129l-297 -716h-129z" />
    <glyph glyph-name="zero" unicode="0" horiz-adv-x="671" 
d="M185 30.5q-65 46.5 -100.5 128t-35.5 183.5t35.5 183.5t100.5 128t151 46.5t151 -46.5t100.5 -128t35.5 -183.5q0 -101 -35.5 -183t-100.5 -128.5t-151 -46.5t-151 46.5zM418.5 137.5q35.5 30.5 54 84t18.5 120.5q0 103 -42 169t-113 66q-72 0 -114 -65.5t-42 -169.5
q0 -67 18.5 -120.5t54 -84t83.5 -30.5q47 0 82.5 30.5z" />
    <glyph glyph-name="one" unicode="1" horiz-adv-x="431" 
d="M213 513l-102 -75l-67 101l201 145h99v-684h-131v513z" />
    <glyph glyph-name="two" unicode="2" horiz-adv-x="553" 
d="M50 119l128 128q95 94 122 123q36 40 49.5 65.5t13.5 58.5q0 34 -26.5 58.5t-69.5 24.5q-41 0 -67.5 -24t-36.5 -60l-119 49q11 39 40.5 75.5t76.5 59.5t108 23q68 0 119 -26.5t79 -72t28 -101.5q0 -111 -108 -217l-40 -40t-46 -45l-77 -77l4 -6h277v-115h-455v119z" />
    <glyph glyph-name="three" unicode="3" horiz-adv-x="567" 
d="M130.5 30q-66.5 46 -91.5 134l123 49q13 -50 44.5 -76t77.5 -26q43 0 74 26t31 66q0 43 -33.5 68.5t-89.5 25.5h-59v119h54q44 0 74.5 22t30.5 64q0 34 -25 56t-65 22t-65 -22t-35 -55l-120 49q22 60 78.5 104t143.5 44q64 0 114 -24t78 -65.5t28 -93.5q0 -55 -25 -94
t-61 -57v-8q50 -20 80.5 -63t30.5 -104q0 -59 -30 -106t-84.5 -74t-124.5 -27q-87 0 -153.5 46z" />
    <glyph glyph-name="four" unicode="4" horiz-adv-x="623" 
d="M360 126h-316v106l304 452h142v-436h86v-122h-86v-126h-130v126zM360 248v241h-8l-163 -241h171z" />
    <glyph glyph-name="five" unicode="5" horiz-adv-x="583" 
d="M135 31.5q-69 47.5 -91 137.5l119 46q12 -51 43.5 -80.5t79.5 -29.5t80.5 32t32.5 81q0 48 -32 80.5t-81 32.5q-30 0 -54.5 -12.5t-41.5 -33.5l-127 57l40 342h385v-115h-276l-26 -160l8 -2q50 41 119 41q57 0 107 -29t80 -81.5t30 -119.5q0 -68 -31.5 -121t-86.5 -83
t-125 -30q-83 0 -152 47.5z" />
    <glyph glyph-name="six" unicode="6" horiz-adv-x="576" 
d="M162 16.5q-56 32.5 -87 87.5t-31 119t24.5 119.5t72.5 124.5l166 237l101 -70l-140 -198l5 -6q23 10 53 10q52 0 99.5 -28.5t77 -79.5t29.5 -114q0 -67 -33.5 -120.5t-89.5 -83.5t-119 -30q-72 0 -128 32.5zM368.5 136q34.5 32 34.5 81q0 50 -34 82t-81 32t-81.5 -32.5
t-34.5 -81.5t34.5 -81t81.5 -32q46 0 80.5 32z" />
    <glyph glyph-name="seven" unicode="7" horiz-adv-x="554" 
d="M77 45l285 510l-3 6h-315v123h466v-129l-323 -571z" />
    <glyph glyph-name="eight" unicode="8" horiz-adv-x="584" 
d="M163.5 11q-56.5 27 -88 74t-31.5 105q0 56 30 99.5t75 67.5v8q-36 24 -59 60.5t-23 81.5q0 54 29 98.5t80.5 69.5t115.5 25t115.5 -25t80.5 -69.5t29 -98.5q0 -45 -23 -81.5t-59 -60.5v-8q45 -24 75 -67.5t30 -99.5q0 -58 -31.5 -105t-88 -74t-128.5 -27t-128.5 27z
M362.5 437.5q27.5 23.5 27.5 61.5t-27.5 61t-70.5 23t-70.5 -23t-27.5 -61t28 -61.5t70 -23.5q43 0 70.5 23.5zM376 132q33 27 33 71q0 42 -33.5 69t-83.5 27t-83.5 -27t-33.5 -69q0 -44 33 -71t84 -27t84 27z" />
    <glyph glyph-name="nine" unicode="9" horiz-adv-x="576" 
d="M168 50l140 198l-5 6q-23 -10 -53 -10q-52 0 -99.5 28.5t-77 79.5t-29.5 114q0 66 33.5 120t89 84t118.5 30q72 0 128.5 -32.5t87.5 -87.5t31 -119t-24.5 -119.5t-72.5 -124.5l-166 -237zM369 385q34 32 34 82q0 49 -34.5 81t-80.5 32q-47 0 -81.5 -32t-34.5 -81
t34.5 -81.5t81.5 -32.5t81 32z" />
    <glyph glyph-name="colon" unicode=":" horiz-adv-x="281" 
d="M79.5 360.5q-25.5 25.5 -25.5 61.5t25.5 61.5t61.5 25.5t61 -25.5t25 -61.5t-25 -61.5t-61 -25.5t-61.5 25.5zM79.5 19.5q-25.5 25.5 -25.5 61.5t25.5 61t61.5 25t61 -25t25 -61t-25 -61.5t-61 -25.5t-61.5 25.5z" />
    <glyph glyph-name="semicolon" unicode=";" horiz-adv-x="283" 
d="M81.5 360.5q-25.5 25.5 -25.5 61.5t25.5 61.5t61.5 25.5t61 -25.5t25 -61.5t-25 -61.5t-61 -25.5t-61.5 25.5zM50 -83l59 91q-23 9 -38 30t-15 49q0 36 25.5 61t61.5 25t61 -25t25 -61q0 -18 -5.5 -32.5t-19.5 -34.5l-95 -142z" />
    <glyph glyph-name="less" unicode="&#x3c;" horiz-adv-x="531" 
d="M56 219v104l415 191v-129l-258 -110v-8l258 -110v-129z" />
    <glyph glyph-name="equal" unicode="=" horiz-adv-x="591" 
d="M61 477h469v-116h-469v116zM61 277h469v-116h-469v116z" />
    <glyph glyph-name="greater" unicode="&#x3e;" horiz-adv-x="531" 
d="M60 157l258 110v8l-258 110v129l415 -191v-104l-415 -191v129z" />
    <glyph glyph-name="question" unicode="?" horiz-adv-x="526" 
d="M194 279q0 48 20 83t72 80q30 27 43.5 47t13.5 46q0 31 -23 52.5t-61 21.5q-40 0 -66 -23.5t-36 -58.5l-115 48q19 64 74 110.5t139 46.5q63 0 112.5 -25t77 -68.5t27.5 -96.5q0 -52 -22 -88.5t-66 -78.5q-34 -32 -46.5 -55t-12.5 -58v-16h-131v33zM197 19.5
q-25 25.5 -25 61.5t25 61t61 25t61.5 -25t25.5 -61t-25.5 -61.5t-61.5 -25.5t-61 25.5z" />
    <glyph glyph-name="at" unicode="@" horiz-adv-x="891" 
d="M242.5 -30.5q-90.5 51.5 -141 140t-50.5 194.5t50.5 194t141 140t204.5 52t203.5 -51.5t139.5 -139t50 -191.5q0 -93 -43.5 -152.5t-116.5 -59.5q-38 0 -70.5 19.5t-48.5 52.5q-45 -72 -137 -72q-54 0 -98 26t-70 72.5t-26 105.5q0 58 26 105t69.5 73t94.5 26
q36 0 63.5 -14.5t44.5 -37.5h8v38h98v-246q0 -26 13 -43.5t36 -17.5q31 0 47 35t16 91q0 76 -38.5 143t-107 107t-153.5 40q-83 0 -150.5 -37t-106.5 -104.5t-39 -153.5q0 -85 41 -152.5t109 -105t146 -37.5q75 0 133 33l34 -87q-37 -17 -80 -27t-87 -10q-114 0 -204.5 51.5
zM502.5 222q29.5 29 29.5 78t-29.5 78t-71.5 29t-71.5 -29t-29.5 -78t29.5 -78t71.5 -29t71.5 29z" />
    <glyph glyph-name="A" unicode="A" horiz-adv-x="720" 
d="M283 716h154l269 -716h-149l-59 171h-275l-60 -171h-149zM454 295l-64 180l-26 86h-8l-26 -86l-64 -180h188z" />
    <glyph glyph-name="B" unicode="B" horiz-adv-x="642" 
d="M79 716h280q60 0 110.5 -25t79.5 -68t29 -94q0 -54 -26.5 -93.5t-69.5 -60.5v-8q56 -20 89 -63.5t33 -104.5q0 -59 -31.5 -104.5t-85 -70t-118.5 -24.5h-290v716zM349 424q45 0 71 24.5t26 61.5q0 36 -25.5 60.5t-67.5 24.5h-139v-171h135zM364 123q49 0 76.5 25.5
t27.5 66.5t-28 67t-80 26h-146v-185h150z" />
    <glyph glyph-name="C" unicode="C" horiz-adv-x="746" 
d="M229 33.5q-86 49.5 -135.5 135t-49.5 189.5t49.5 189.5t135.5 135t190 49.5q162 0 268 -117l-95 -92q-71 81 -172 81q-67 0 -122 -30.5t-87 -86.5t-32 -129t32 -129t87 -86.5t122 -30.5q112 0 188 94l97 -91q-54 -64 -126 -97.5t-160 -33.5q-104 0 -190 49.5z" />
    <glyph glyph-name="D" unicode="D" horiz-adv-x="733" 
d="M79 716h242q112 0 195 -45t128 -126t45 -187t-45 -187t-128 -126t-195 -45h-242v716zM315 128q116 0 177.5 61.5t61.5 168.5t-61.5 168.5t-177.5 61.5h-101v-460h101z" />
    <glyph glyph-name="E" unicode="E" horiz-adv-x="589" 
d="M79 716h454v-128h-319v-166h287v-128h-287v-166h319v-128h-454v716z" />
    <glyph glyph-name="F" unicode="F" horiz-adv-x="569" 
d="M79 716h454v-128h-319v-174h287v-128h-287v-286h-135v716z" />
    <glyph glyph-name="G" unicode="G" horiz-adv-x="822" 
d="M232.5 32.5q-86.5 48.5 -137.5 134t-51 191.5t51 191.5t137.5 134t189.5 48.5q84 0 153.5 -29.5t118.5 -83.5l-93 -91q-36 38 -79.5 57t-101.5 19q-65 0 -120.5 -31t-88 -87t-32.5 -128t33 -128t88.5 -87t121.5 -31q99 0 165 59q20 19 34.5 46.5t21.5 60.5h-224v115h351
q7 -28 7 -63q0 -71 -21.5 -132t-65.5 -107q-49 -52 -116.5 -79.5t-151.5 -27.5q-103 0 -189.5 48.5z" />
    <glyph glyph-name="H" unicode="H" horiz-adv-x="729" 
d="M79 716h135v-286h302v286h134v-716h-134v302h-302v-302h-135v716z" />
    <glyph glyph-name="I" unicode="I" horiz-adv-x="293" 
d="M79 716h135v-716h-135v716z" />
    <glyph glyph-name="J" unicode="J" horiz-adv-x="564" 
d="M115 30.5q-64 46.5 -89 126.5l124 51q13 -47 42 -71.5t71 -24.5q47 0 73.5 30t26.5 84v490h134v-489q0 -78 -31 -132.5t-84 -82.5t-119 -28q-84 0 -148 46.5z" />
    <glyph glyph-name="K" unicode="K" horiz-adv-x="679" 
d="M79 716h135v-307h8l262 307h163v-8l-259 -296l286 -404v-8h-165l-213 305l-82 -95v-210h-135v716z" />
    <glyph glyph-name="L" unicode="L" horiz-adv-x="546" 
d="M79 716h135v-588h303v-128h-438v716z" />
    <glyph glyph-name="M" unicode="M" horiz-adv-x="895" 
d="M79 716h174l190 -503h8l191 503h174v-716h-134v353l8 119h-8l-182 -472h-105l-183 472h-8l8 -119v-353h-133v716z" />
    <glyph glyph-name="N" unicode="N" horiz-adv-x="737" 
d="M79 716h157l288 -480h8l-8 138v342h134v-716h-142l-304 507h-8l8 -138v-369h-133v716z" />
    <glyph glyph-name="O" unicode="O" horiz-adv-x="835" 
d="M227.5 33.5q-85.5 49.5 -134.5 135.5t-49 189t49 189t134.5 135.5t190.5 49.5t190.5 -49.5t134.5 -135.5t49 -189t-49 -189t-134.5 -135.5t-190.5 -49.5t-190.5 49.5zM538.5 143q54.5 31 86 87t31.5 128t-31.5 128t-86 87t-120.5 31t-121 -31t-86.5 -87t-31.5 -128
t31.5 -128t86.5 -87t121 -31t120.5 31z" />
    <glyph glyph-name="P" unicode="P" horiz-adv-x="605" 
d="M79 716h252q68 0 124 -28.5t88 -80t32 -117.5t-32 -118t-88 -80.5t-124 -28.5h-117v-263h-135v716zM335 391q51 0 79 28.5t28 70.5q0 41 -28 69.5t-79 28.5h-121v-197h121z" />
    <glyph glyph-name="Q" unicode="Q" horiz-adv-x="835" 
d="M573 16q-75 -32 -155 -32q-105 0 -190.5 49.5t-134.5 135.5t-49 189t49 189t134.5 135.5t190.5 49.5t190.5 -49.5t134.5 -135.5t49 -189q0 -81 -31 -152.5t-87 -123.5l55 -82l-101 -67zM498 127l-78 117l101 68l78 -118q27 32 42 74t15 90q0 72 -31.5 128t-86 87
t-120.5 31t-121 -31t-86.5 -87t-31.5 -128t31.5 -128t86.5 -87t121 -31q40 0 80 15z" />
    <glyph glyph-name="R" unicode="R" horiz-adv-x="630" 
d="M79 716h261q70 0 124.5 -29t84.5 -80.5t30 -116.5q0 -69 -43.5 -122.5t-109.5 -77.5l-1 -7l192 -275v-8h-155l-185 269h-63v-269h-135v716zM339 393q46 0 75.5 28t29.5 71q0 41 -27.5 70t-75.5 29h-127v-198h125z" />
    <glyph glyph-name="S" unicode="S" horiz-adv-x="585" 
d="M130 37q-72 53 -101 150l127 50q15 -57 51 -91t90 -34q45 0 77 22.5t32 62.5t-30.5 65.5t-108.5 54.5l-44 16q-69 24 -118 73.5t-49 124.5q0 56 29 102t82 72.5t120 26.5q97 0 153 -45.5t77 -106.5l-119 -50q-11 33 -38.5 55.5t-70.5 22.5q-44 0 -72.5 -20.5t-28.5 -53.5
q0 -32 27 -54.5t89 -43.5l45 -15q93 -32 142.5 -84.5t49.5 -137.5q0 -70 -36 -118.5t-92.5 -72.5t-116.5 -24q-94 0 -166 53z" />
    <glyph glyph-name="T" unicode="T" horiz-adv-x="587" 
d="M226 588h-200v128h535v-128h-200v-588h-135v588z" />
    <glyph glyph-name="U" unicode="U" horiz-adv-x="687" 
d="M196.5 20q-62.5 36 -97 104t-34.5 161v431h135v-439q0 -74 37.5 -119.5t105.5 -45.5q69 0 106.5 45.5t37.5 119.5v439h135v-431q0 -89 -34 -157t-97.5 -106t-147.5 -38t-146.5 36z" />
    <glyph glyph-name="V" unicode="V" horiz-adv-x="683" 
d="M14 716h146l147 -432l27 -91h8l27 91l155 432h146l-262 -716h-141z" />
    <glyph glyph-name="W" unicode="W" horiz-adv-x="983" 
d="M17 716h150l97 -402l12 -75h8l17 75l126 402h133l123 -402l15 -73h8l13 73l97 402h150l-185 -716h-146l-122 432l-15 77h-8l-16 -77l-128 -432h-139z" />
    <glyph glyph-name="X" unicode="X" horiz-adv-x="692" 
d="M253 374l-217 342h167l139 -234h8l139 234h167l-217 -342l235 -374h-168l-156 258h-8l-156 -258h-168z" />
    <glyph glyph-name="Y" unicode="Y" horiz-adv-x="641" 
d="M255 333l-241 383h161l143 -237h8l138 237h163l-237 -383v-333h-135v333z" />
    <glyph glyph-name="Z" unicode="Z" horiz-adv-x="606" 
d="M37 136l363 452h-347v128h504v-136l-359 -452h363v-128h-524v136z" />
    <glyph glyph-name="bracketleft" unicode="[" horiz-adv-x="363" 
d="M79 792h248v-108h-120v-700h120v-108h-248v916z" />
    <glyph glyph-name="backslash" unicode="\" horiz-adv-x="486" 
d="M30 716h129l297 -716h-129z" />
    <glyph glyph-name="bracketright" unicode="]" horiz-adv-x="363" 
d="M36 -16h120v700h-120v108h248v-916h-248v108z" />
    <glyph glyph-name="asciicircum" unicode="^" horiz-adv-x="515" 
d="M203 716h109l191 -306h-136l-105 182h-8l-106 -182h-136z" />
    <glyph glyph-name="underscore" unicode="_" horiz-adv-x="499" 
d="M0 -100h499v-116h-499v116z" />
    <glyph glyph-name="grave" unicode="`" horiz-adv-x="443" 
d="M96 724h153l42 -136h-106z" />
    <glyph glyph-name="a" unicode="a" horiz-adv-x="549" 
d="M123 5.5q-42 21.5 -66 60t-24 87.5q0 50 26.5 88.5t72.5 59t103 20.5q77 0 131 -23v17q0 40 -31 65.5t-79 25.5q-73 0 -118 -58l-92 66q37 48 92 73t121 25q115 0 175.5 -54t60.5 -158v-300h-129v52h-8q-55 -68 -142 -68q-51 0 -93 21.5zM308.5 102.5q27.5 16.5 42.5 43
t15 56.5q-49 23 -103 23q-48 0 -73 -20t-25 -52q0 -30 23 -48.5t58 -18.5t62.5 16.5z" />
    <glyph glyph-name="b" unicode="b" horiz-adv-x="616" 
d="M251.5 5.5q-39.5 21.5 -58.5 54.5h-8v-60h-123v716h131v-209l-8 -70h8q19 32 58.5 53.5t92.5 21.5q65 0 119.5 -34t86.5 -94t32 -136t-32 -136t-86.5 -94t-119.5 -34q-53 0 -92.5 21.5zM384 123q31 18 49.5 50.5t18.5 74.5q0 43 -18.5 75.5t-49.5 50t-66 17.5
t-65.5 -17.5t-49 -50t-18.5 -75.5t18.5 -75.5t49 -50t65.5 -17.5t66 18z" />
    <glyph glyph-name="c" unicode="c" horiz-adv-x="559" 
d="M161 18q-60 34 -93.5 94t-33.5 136t33.5 136t93.5 94t135 34q83 0 142.5 -37.5t87.5 -102.5l-120 -50q-33 69 -111 69q-55 0 -92.5 -39.5t-37.5 -103.5t37.5 -103.5t92.5 -39.5q79 0 117 72l119 -52q-33 -66 -92.5 -103.5t-142.5 -37.5q-75 0 -135 34z" />
    <glyph glyph-name="d" unicode="d" horiz-adv-x="616" 
d="M153.5 18q-54.5 34 -87 94t-32.5 136t32.5 136t87 94t119.5 34q52 0 91.5 -21t59.5 -54h8l-8 70v209h130v-716h-122v60h-8q-20 -33 -59.5 -54.5t-91.5 -21.5q-65 0 -119.5 34zM364 122.5q31 17.5 49.5 50t18.5 75.5t-18.5 75.5t-49.5 50t-66 17.5t-65.5 -17.5t-49 -50
t-18.5 -75.5q0 -42 18.5 -74.5t49 -50.5t65.5 -18t66 17.5z" />
    <glyph glyph-name="e" unicode="e" horiz-adv-x="572" 
d="M161.5 18q-59.5 34 -93.5 94.5t-34 135.5q0 71 33.5 131.5t92 96.5t131.5 36q78 0 133.5 -33.5t84.5 -91.5t29 -132q0 -13 -1 -24q-1 -12 -1 -13h-373q8 -57 46.5 -87.5t88.5 -30.5q82 0 124 72l108 -53q-36 -64 -95 -99.5t-139 -35.5q-75 0 -134.5 34zM412 311
q-2 21 -16.5 43t-41 36.5t-63.5 14.5q-43 0 -76 -25.5t-46 -68.5h243z" />
    <glyph glyph-name="f" unicode="f" horiz-adv-x="405" 
d="M116 384h-89v112h89v42q0 88 51.5 137t135.5 49q47 0 80 -11v-127q-36 15 -64 15q-33 0 -52.5 -19t-19.5 -52v-34h122v-112h-122v-384h-131v384z" />
    <glyph glyph-name="g" unicode="g" horiz-adv-x="612" 
d="M175 -210.5q-51 21.5 -83 55t-45 71.5l125 50q14 -38 46 -60t73 -22q61 0 97.5 39t36.5 107v36h-8q-24 -33 -62 -51.5t-88 -18.5q-60 0 -113.5 32.5t-86.5 91t-33 134.5t33 135t86.5 91t113.5 32q50 0 88.5 -18t61.5 -51h8v53h125v-461q0 -81 -32.5 -141.5t-91 -93
t-135.5 -32.5q-65 0 -116 21.5zM358.5 131.5q29.5 16.5 48 48t18.5 74.5q0 44 -18 75.5t-48 47.5t-64 16t-63.5 -16.5t-48 -48t-18.5 -74.5t18.5 -74.5t48 -48t63.5 -16.5t63.5 16.5z" />
    <glyph glyph-name="h" unicode="h" horiz-adv-x="590" 
d="M62 716h131v-194l-8 -90h8q21 36 61.5 58t89.5 22q93 0 140.5 -55t47.5 -154v-303h-131v287q0 50 -25 77t-68 27q-52 0 -83.5 -42t-31.5 -104v-245h-131v716z" />
    <glyph glyph-name="i" unicode="i" horiz-adv-x="271" 
d="M75.5 587q-24.5 25 -24.5 60t25 59.5t59 24.5q35 0 60 -24.5t25 -59.5t-25 -60t-60 -25t-59.5 25zM70 496h131v-496h-131v496z" />
    <glyph glyph-name="j" unicode="j" horiz-adv-x="271" 
d="M75.5 587q-24.5 25 -24.5 60t25 59.5t59 24.5q35 0 60 -24.5t25 -59.5t-25 -60t-60 -25t-59.5 25zM-27 -219v127q26 -14 52 -14q45 0 45 59v543h131v-546q0 -90 -45 -133t-116 -43q-39 0 -67 7z" />
    <glyph glyph-name="k" unicode="k" horiz-adv-x="546" 
d="M62 716h131v-390h6l170 170h162v-8l-185 -181l198 -299v-8h-155l-136 217l-60 -59v-158h-131v716z" />
    <glyph glyph-name="l" unicode="l" horiz-adv-x="255" 
d="M62 716h131v-716h-131v716z" />
    <glyph glyph-name="m" unicode="m" horiz-adv-x="896" 
d="M62 496h123v-64h8q23 37 63 58.5t88 21.5q54 0 93.5 -25t56.5 -65q25 40 68 65t100 25q87 0 131.5 -53.5t44.5 -143.5v-315h-130v291q0 49 -21.5 74.5t-61.5 25.5q-51 0 -80 -41t-29 -106v-244h-131v291q0 100 -88 100q-48 0 -76 -41t-28 -106v-244h-131v496z" />
    <glyph glyph-name="n" unicode="n" horiz-adv-x="589" 
d="M62 496h123v-64h8q23 37 63 58.5t90 21.5q91 0 138 -56t47 -153v-303h-131v287q0 51 -24.5 77.5t-68.5 26.5q-53 0 -83.5 -41t-30.5 -104v-246h-131v496z" />
    <glyph glyph-name="o" unicode="o" horiz-adv-x="595" 
d="M162 18q-60 34 -94 94.5t-34 135.5q0 76 34 136t94 94t136 34q75 0 135 -34t94 -94.5t34 -135.5t-34 -135.5t-94 -94.5t-135 -34q-76 0 -136 34zM363.5 122.5q30.5 17.5 48.5 50t18 75.5t-18 75.5t-48.5 50t-65.5 17.5q-36 0 -66.5 -17.5t-48.5 -50t-18 -75.5t18 -75.5
t48.5 -50t66.5 -17.5q35 0 65.5 17.5z" />
    <glyph glyph-name="p" unicode="p" horiz-adv-x="612" 
d="M58 496h123v-59h8q19 32 58.5 53.5t92.5 21.5q65 0 119.5 -34t86.5 -94t32 -136t-32 -136t-86.5 -94t-119.5 -34q-53 0 -92.5 21.5t-58.5 54.5h-8l8 -71v-205h-131v712zM380 123q31 18 49.5 50.5t18.5 74.5q0 43 -18.5 75.5t-49.5 50t-66 17.5t-65.5 -17.5t-49 -50
t-18.5 -75.5t18.5 -75.5t49 -50t65.5 -17.5t66 18z" />
    <glyph glyph-name="q" unicode="q" horiz-adv-x="612" 
d="M424 -11l8 71h-8q-20 -33 -59.5 -54.5t-91.5 -21.5q-65 0 -119.5 34t-87 94t-32.5 136t32.5 136t87 94t119.5 34q52 0 91.5 -21t59.5 -54h8v59h122v-712h-130v205zM364 122.5q31 17.5 49.5 50t18.5 75.5t-18.5 75.5t-49.5 50t-66 17.5t-65.5 -17.5t-49 -50t-18.5 -75.5
q0 -42 18.5 -74.5t49 -50.5t65.5 -18t66 17.5z" />
    <glyph glyph-name="r" unicode="r" horiz-adv-x="418" 
d="M62 496h123v-68h8q18 36 57.5 59.5t84.5 23.5q34 0 62 -11v-131q-43 18 -83 18q-55 0 -88 -40.5t-33 -102.5v-244h-131v496z" />
    <glyph glyph-name="s" unicode="s" horiz-adv-x="494" 
d="M106.5 23.5q-56.5 39.5 -80.5 99.5l117 50q16 -37 44.5 -55.5t66.5 -18.5q34 0 56 12.5t22 33.5t-18.5 33.5t-61.5 22.5l-66 15q-56 12 -98 49.5t-42 94.5q0 69 57 110.5t143 41.5q74 0 128 -28t79 -85l-112 -48q-14 28 -39.5 41.5t-55.5 13.5t-50.5 -11.5t-20.5 -30.5
q0 -18 16.5 -28.5t48.5 -18.5l75 -19q74 -18 112 -57t38 -94q0 -45 -27 -82t-75.5 -59t-108.5 -22q-91 0 -147.5 39.5z" />
    <glyph glyph-name="t" unicode="t" horiz-adv-x="410" 
d="M212 3q-30 11 -51 32q-47 45 -47 128v221h-87v112h87v148h131v-148h122v-112h-122v-197q0 -39 17 -56q14 -16 46 -16q17 0 30.5 4.5t30.5 14.5v-126q-42 -16 -90 -16q-37 0 -67 11z" />
    <glyph glyph-name="u" unicode="u" horiz-adv-x="589" 
d="M105 40q-47 56 -47 155v301h131v-285q0 -51 24 -78.5t68 -27.5q53 0 84 41t31 104v246h131v-496h-123v64h-8q-24 -37 -64 -58.5t-89 -21.5q-91 0 -138 56z" />
    <glyph glyph-name="v" unicode="v" horiz-adv-x="566" 
d="M6 496h149l124 -318h7l126 318h148l-213 -496h-130z" />
    <glyph glyph-name="w" unicode="w" horiz-adv-x="816" 
d="M6 496h147l83 -315h7l100 315h134l99 -315h7l82 315h145l-159 -496h-140l-101 316h-6l-100 -316h-140z" />
    <glyph glyph-name="x" unicode="x" horiz-adv-x="525" 
d="M184 252l-171 244h155l92 -139h7l85 139h160l-173 -244l174 -252h-155l-93 143h-7l-92 -143h-154z" />
    <glyph glyph-name="y" unicode="y" horiz-adv-x="565" 
d="M216 24l-209 472h149l126 -303h8l121 303h147l-310 -712h-141z" />
    <glyph glyph-name="z" unicode="z" horiz-adv-x="493" 
d="M36 107l255 278h-247v111h408v-107l-255 -278h260v-111h-421v107z" />
    <glyph glyph-name="braceleft" unicode="{" horiz-adv-x="337" 
d="M136.5 -75q-48.5 49 -48.5 134v154q0 32 -18.5 49t-45.5 17v110q27 0 45.5 17t18.5 49v154q0 85 48.5 134t134.5 49h34v-108h-16q-31 0 -52 -22t-21 -58v-146q0 -52 -16 -80.5t-54 -39.5v-8q38 -11 54 -39.5t16 -80.5v-146q0 -36 21 -58t52 -22h16v-108h-34
q-86 0 -134.5 49z" />
    <glyph glyph-name="bar" unicode="|" horiz-adv-x="278" 
d="M79 792h120v-912h-120v912z" />
    <glyph glyph-name="braceright" unicode="}" horiz-adv-x="337" 
d="M32 -16h17q31 0 51.5 22t20.5 58v146q0 51 16.5 80t54.5 40v8q-38 11 -54.5 40t-16.5 80v146q0 36 -20.5 58t-51.5 22h-17v108h35q86 0 134 -49t48 -134v-154q0 -32 18.5 -49t45.5 -17v-110q-27 0 -45.5 -17t-18.5 -49v-154q0 -85 -48 -134t-134 -49h-35v108z" />
    <glyph glyph-name="asciitilde" unicode="~" horiz-adv-x="562" 
d="M333.5 232q-29.5 9 -66.5 26q-6 2 -24 10q-19 7 -32.5 10.5t-23.5 3.5q-22 0 -33.5 -12t-13.5 -31h-104q0 70 36 112t98 42q31 0 59 -9t69 -26q27 -12 44.5 -18t32.5 -6q22 0 33.5 12t13.5 31h104q0 -70 -36 -112t-98 -42q-29 0 -58.5 9z" />
    <glyph glyph-name="uni00A0" unicode="&#xa0;" horiz-adv-x="230" 
d="M0 0z" />
    <glyph glyph-name="exclamdown" unicode="&#xa1;" horiz-adv-x="281" 
d="M79.5 364q-25.5 25 -25.5 61t25.5 61.5t61.5 25.5t61 -25.5t25 -61.5t-25 -61t-61 -25t-61.5 25zM73 -10l13 269h109l13 -269v-206h-135v206z" />
    <glyph glyph-name="cent" unicode="&#xa2;" horiz-adv-x="549" 
d="M333 86v-86h-90v87q-62 10 -109 45.5t-73.5 89.5t-26.5 120t26.5 120t73.5 89.5t109 45.5v87h90v-86q66 -9 112 -45t71 -92l-108 -43q-26 54 -75 69v-289q57 15 84 72l104 -45q-63 -123 -188 -139zM178.5 253q24.5 -37 64.5 -52v282q-40 -15 -64.5 -52t-24.5 -89
t24.5 -89z" />
    <glyph glyph-name="sterling" unicode="&#xa3;" horiz-adv-x="546" 
d="M527 131q-39 -131 -172 -131h-318v106q45 18 70 53.5t25 73.5v9h-92v100h54q-29 47 -42.5 79.5t-13.5 78.5q0 53 27 99t76 73.5t111 27.5q86 0 138 -42.5t71 -105.5l-115 -47q-9 34 -32 56.5t-62 22.5q-41 0 -65.5 -26t-24.5 -64q0 -31 10.5 -55t31.5 -60l21 -37h132
v-100h-107q-3 -76 -51 -119l5 -7h149q56 0 72 59z" />
    <glyph glyph-name="currency" unicode="&#xa4;" horiz-adv-x="623" 
d="M67 150l58 57q-34 55 -34 118q0 65 34 118l-58 58l64 64l58 -57q55 36 122 36q68 0 123 -36l58 57l64 -64l-58 -58q33 -52 33 -118q0 -65 -33 -118l58 -57l-64 -65l-58 57q-55 -36 -123 -36q-67 0 -122 36l-58 -57zM390.5 242.5q32.5 33.5 32.5 82.5t-32.5 82.5
t-79.5 33.5t-79.5 -33.5t-32.5 -82.5t32.5 -82.5t79.5 -33.5t79.5 33.5z" />
    <glyph glyph-name="yen" unicode="&#xa5;" horiz-adv-x="637" 
d="M253 133h-165v116h165v63h-165v116h91l-164 256h160l113 -189l29 -67h8l28 67l109 189h161l-162 -256h89v-116h-162v-63h162v-116h-162v-133h-135v133z" />
    <glyph glyph-name="brokenbar" unicode="&#xa6;" horiz-adv-x="278" 
d="M79 756h120v-380h-120v380zM79 292h120v-412h-120v412z" />
    <glyph glyph-name="section" unicode="&#xa7;" horiz-adv-x="572" 
d="M523 -33q0 -59 -31 -104t-84 -70t-116 -25t-114.5 26t-85.5 70.5t-46 99.5l120 46q13 -55 47 -88.5t82 -33.5q42 0 69.5 22t27.5 58t-31 59t-106 48l-12 4q-7 2 -13 4q-79 26 -121.5 74t-42.5 110q0 84 75 138q-74 55 -74 140q0 52 28.5 95t78.5 67.5t112 24.5
q60 0 106.5 -23t74.5 -58t37 -71l-119 -47q-8 34 -33.5 56.5t-66.5 22.5q-37 0 -62 -19.5t-25 -46.5t24.5 -46t85.5 -39q10 -4 30 -10q93 -32 140.5 -81t47.5 -127q0 -88 -62 -141q59 -56 59 -135zM216.5 225.5q26.5 -22.5 81.5 -40.5q34 -11 44 -14l24 -9q30 32 30 66
q0 43 -30.5 71t-104.5 52q-14 4 -21 7q-24 -13 -37 -33.5t-13 -44.5q0 -32 26.5 -54.5z" />
    <glyph glyph-name="dieresis" unicode="&#xa8;" horiz-adv-x="452" 
d="M80 608.5q-21 21.5 -21 50.5q0 30 21 51t51 21t50.5 -21t20.5 -51t-20.5 -51t-50.5 -21t-51 21.5zM271 608.5q-21 21.5 -21 50.5q0 30 21 51t50 21q31 0 51.5 -21t20.5 -51t-21 -51t-51 -21q-29 0 -50 21.5z" />
    <glyph glyph-name="copyright" unicode="&#xa9;" horiz-adv-x="532" 
d="M151 303q-53 31 -84 84t-31 115t31 115t84 84t115 31t115 -31t84 -84t31 -115t-31 -115t-84 -84t-115 -31t-115 31zM357.5 344.5q41.5 24.5 66 66.5t24.5 91q0 50 -24.5 91.5t-66 66t-91.5 24.5q-49 0 -91 -24.5t-66.5 -66t-24.5 -91.5q0 -49 25 -90.5t66.5 -66.5
t90.5 -25q50 0 91.5 24.5zM185.5 418q-34.5 35 -34.5 84q0 50 34 84.5t85 34.5q28 0 48 -10t39 -29l-32 -29q-12 13 -23.5 18.5t-31.5 5.5q-29 0 -51 -21.5t-22 -53.5q0 -31 22 -53t51 -22q36 0 60 31l34 -27q-36 -48 -94 -48q-50 0 -84.5 35z" />
    <glyph glyph-name="ordfeminine" unicode="&#xaa;" horiz-adv-x="495" 
d="M121.5 290.5q-37.5 18.5 -59.5 52t-22 77.5t24.5 77t65 51t88.5 18q68 0 120 -25v14q0 37 -27 60t-70 23q-31 0 -56 -13.5t-38 -37.5l-95 48q26 46 75.5 71.5t113.5 25.5q99 0 156.5 -48t57.5 -140v-258h-117v46h-8q-47 -60 -126 -60q-45 0 -82.5 18.5zM306.5 392.5
q31.5 29.5 31.5 67.5q-50 22 -93 22q-42 0 -64 -17.5t-22 -45.5q0 -26 20 -41t50 -15q46 0 77.5 29.5z" />
    <glyph glyph-name="guillemotleft" unicode="&#xab;" horiz-adv-x="610" 
d="M40 271l212 230l75 -69l-150 -161l150 -161l-75 -69zM263 271l212 230l75 -69l-150 -161l150 -161l-75 -69z" />
    <glyph glyph-name="logicalnot" unicode="&#xac;" horiz-adv-x="607" 
d="M405 290h-351v114h466v-299h-115v185z" />
    <glyph glyph-name="uni00AD" unicode="&#xad;" horiz-adv-x="461" 
d="M61 368h339v-116h-339v116z" />
    <glyph glyph-name="registered" unicode="&#xae;" horiz-adv-x="532" 
d="M151 303q-53 31 -84 84t-31 115t31 115t84 84t115 31t115 -31t84 -84t31 -115t-31 -115t-84 -84t-115 -31t-115 31zM357.5 344.5q41.5 24.5 66 66.5t24.5 91q0 50 -24.5 91.5t-66 66t-91.5 24.5q-49 0 -91 -24.5t-66.5 -66t-24.5 -91.5q0 -49 25 -90.5t66.5 -66.5
t90.5 -25q50 0 91.5 24.5zM189 615h96q29 0 51 -21t22 -51q0 -23 -14.5 -41.5t-35.5 -24.5l-2 -2l60 -84v-2h-52l-55 84h-24v-84h-46v226zM281 515q13 0 22 8t9 20q0 11 -8.5 19.5t-21.5 8.5h-47v-56h46z" />
    <glyph glyph-name="macron" unicode="&#xaf;" horiz-adv-x="416" 
d="M60 709h296v-100h-296v100z" />
    <glyph glyph-name="degree" unicode="&#xb0;" horiz-adv-x="325" 
d="M97.5 459.5q-30.5 17.5 -48 47t-17.5 64.5t17.5 65t48 47t65.5 17t65 -17t47.5 -47t17.5 -65t-17.5 -64.5t-47.5 -47t-65 -17.5t-65.5 17.5zM198.5 534.5q14.5 15.5 14.5 36.5q0 22 -14 37t-36 15t-36.5 -15t-14.5 -37q0 -21 14.5 -36.5t36.5 -15.5q21 0 35.5 15.5z" />
    <glyph glyph-name="plusminus" unicode="&#xb1;" horiz-adv-x="569" 
d="M226 316h-170v108h170v141h116v-141h171v-108h-171v-141h-116v141zM56 116h457v-116h-457v116z" />
    <glyph glyph-name="uni00B2" unicode="&#xb2;" horiz-adv-x="317" 
d="M28 413l128 129q21 21 31 35t10 32q0 15 -11.5 25.5t-29.5 10.5q-20 0 -34 -12.5t-18 -37.5l-80 31q10 45 46.5 71.5t85.5 26.5q57 0 94 -30t37 -78q0 -51 -62 -113l-75 -74h139v-79h-261v63z" />
    <glyph glyph-name="uni00B3" unicode="&#xb3;" horiz-adv-x="335" 
d="M75.5 367.5q-38.5 25.5 -51.5 75.5l83 30q6 -28 21.5 -41t36.5 -13q20 0 34.5 12t14.5 32q0 19 -16 30.5t-41 11.5h-38v70h34q23 0 36.5 10t13.5 28q0 15 -11.5 24.5t-27.5 9.5q-21 0 -34 -10.5t-18 -26.5l-78 31q13 38 47 60.5t85 22.5q54 0 89 -30t35 -73
q0 -48 -43 -78q25 -13 40.5 -35t15.5 -49q0 -53 -40.5 -85t-97.5 -32q-51 0 -89.5 25.5z" />
    <glyph glyph-name="acute" unicode="&#xb4;" horiz-adv-x="443" 
d="M194 724h153l-90 -136h-105z" />
    <glyph glyph-name="uni00B5" unicode="&#xb5;" horiz-adv-x="589" 
d="M58 496h131v-284q0 -51 25.5 -79t66.5 -28q53 0 84 41t31 104v246h131v-496h-123v54h-8q-45 -70 -130 -70q-43 0 -77 24h-8l8 -65v-159h-131v712z" />
    <glyph glyph-name="paragraph" unicode="&#xb6;" horiz-adv-x="643" 
d="M273 296h-25q-60 0 -111.5 25.5t-82 73.5t-30.5 111t30.5 111t82 73.5t111.5 25.5h315v-932h-110v825h-70v-825h-110v512z" />
    <glyph glyph-name="periodcentered" unicode="&#xb7;" horiz-adv-x="225" 
d="M51.5 262.5q-25.5 25.5 -25.5 61.5t25.5 61.5t61.5 25.5t61 -25.5t25 -61.5t-25 -61.5t-61 -25.5t-61.5 25.5z" />
    <glyph glyph-name="cedilla" unicode="&#xb8;" horiz-adv-x="411" 
d="M108.5 -218.5q-26.5 18.5 -37.5 47.5l64 27q4 -12 13.5 -20t21.5 -8q15 0 24 9.5t9 22.5q0 14 -9 24t-24 10t-27 -14l-61 28l36 92h68l-21 -47q7 1 18 1q40 0 67 -26t27 -69q0 -42 -29.5 -69t-77.5 -27q-35 0 -61.5 18.5z" />
    <glyph glyph-name="uni00B9" unicode="&#xb9;" horiz-adv-x="272" 
d="M123 605l-49 -43l-50 66l107 88h81v-366h-89v255z" />
    <glyph glyph-name="ordmasculine" unicode="&#xba;" horiz-adv-x="535" 
d="M148.5 301.5q-52.5 29.5 -82.5 82t-30 118.5t30 118.5t82.5 82t118.5 29.5t119 -29.5t83 -82t30 -118.5t-30 -118.5t-83 -82t-119 -29.5t-118.5 29.5zM347 415q34 34 34 87t-34 87t-80 34t-80 -34t-34 -87t34 -87t80 -34t80 34z" />
    <glyph glyph-name="guillemotright" unicode="&#xbb;" horiz-adv-x="610" 
d="M60 110l150 161l-150 161l75 69l212 -230l-212 -230zM283 110l150 161l-150 161l75 69l212 -230l-212 -230z" />
    <glyph glyph-name="onequarter" unicode="&#xbc;" horiz-adv-x="771" 
d="M147 605l-49 -43l-50 66l107 88h81v-366h-89v255zM119 37l465 694l79 -53l-465 -694zM581 65h-172v64l171 237h87v-227h48v-74h-48v-65h-86v65zM581 139v107h-8l-76 -107h84z" />
    <glyph glyph-name="onehalf" unicode="&#xbd;" horiz-adv-x="808" 
d="M147 605l-49 -43l-50 66l107 88h81v-366h-89v255zM111 37l465 694l79 -53l-465 -694zM491 63l128 129q21 21 31 35t10 32q0 15 -11.5 25.5t-29.5 10.5q-20 0 -34 -12.5t-18 -37.5l-80 31q10 45 46.5 71.5t85.5 26.5q57 0 94 -30t37 -78q0 -51 -62 -113l-75 -74h139v-79
h-261v63z" />
    <glyph glyph-name="threequarters" unicode="&#xbe;" horiz-adv-x="841" 
d="M99.5 367.5q-38.5 25.5 -51.5 75.5l83 30q6 -28 21.5 -41t36.5 -13q20 0 34.5 12t14.5 32q0 19 -16 30.5t-41 11.5h-38v70h34q23 0 36.5 10t13.5 28q0 15 -11.5 24.5t-27.5 9.5q-21 0 -34 -10.5t-18 -26.5l-78 31q13 38 47 60.5t85 22.5q54 0 89 -30t35 -73
q0 -48 -43 -78q25 -13 40.5 -35t15.5 -49q0 -53 -40.5 -85t-97.5 -32q-51 0 -89.5 25.5zM179 37l465 694l79 -53l-465 -694zM651 65h-172v64l171 237h87v-227h48v-74h-48v-65h-86v65zM651 139v107h-8l-76 -107h84z" />
    <glyph glyph-name="questiondown" unicode="&#xbf;" horiz-adv-x="515" 
d="M195 364q-25 25 -25 61t25 61.5t61 25.5t61.5 -25.5t25.5 -61.5t-25.5 -61t-61.5 -25t-61 25zM147 -207q-49 25 -76.5 68.5t-27.5 96.5q0 52 22 89t65 78q34 32 46.5 55t12.5 58v21h132v-38q0 -48 -20.5 -83t-71.5 -80q-30 -27 -43.5 -47t-13.5 -46q0 -31 23 -52.5
t61 -21.5q40 0 65.5 23.5t36.5 58.5l115 -48q-19 -64 -74.5 -110.5t-139.5 -46.5q-63 0 -112 25z" />
    <glyph glyph-name="Agrave" unicode="&#xc0;" horiz-adv-x="720" 
d="M283 716h154l269 -716h-149l-59 171h-275l-60 -171h-149zM454 295l-64 180l-26 86h-8l-26 -86l-64 -180h188zM218 908h153l42 -136h-106z" />
    <glyph glyph-name="Aacute" unicode="&#xc1;" horiz-adv-x="720" 
d="M283 716h154l269 -716h-149l-59 171h-275l-60 -171h-149zM454 295l-64 180l-26 86h-8l-26 -86l-64 -180h188zM349 908h153l-90 -136h-105z" />
    <glyph glyph-name="Acircumflex" unicode="&#xc2;" horiz-adv-x="720" 
d="M283 716h154l269 -716h-149l-59 171h-275l-60 -171h-149zM454 295l-64 180l-26 86h-8l-26 -86l-64 -180h188zM189 786l114 126h114l114 -126v-8h-125l-40 59h-12l-40 -59h-125v8z" />
    <glyph glyph-name="Atilde" unicode="&#xc3;" horiz-adv-x="720" 
d="M283 716h154l269 -716h-149l-59 171h-275l-60 -171h-149zM454 295l-64 180l-26 86h-8l-26 -86l-64 -180h188zM380 778.5q-19 7.5 -43 20.5q-2 1 -15 8t-21 7q-25 0 -26 -29h-92q0 62 33.5 95t82.5 33q23 0 41 -7t46 -22q25 -14 33 -14q13 0 19 7t8 22h92q0 -62 -34 -95
t-83 -33q-22 0 -41 7.5z" />
    <glyph glyph-name="Adieresis" unicode="&#xc4;" horiz-adv-x="720" 
d="M283 716h154l269 -716h-149l-59 171h-275l-60 -171h-149zM454 295l-64 180l-26 86h-8l-26 -86l-64 -180h188zM214 792.5q-21 21.5 -21 50.5q0 30 21 51t51 21t50.5 -21t20.5 -51t-20.5 -51t-50.5 -21t-51 21.5zM405 792.5q-21 21.5 -21 50.5q0 30 21 51t50 21
q31 0 51.5 -21t20.5 -51t-21 -51t-51 -21q-29 0 -50 21.5z" />
    <glyph glyph-name="Aring" unicode="&#xc5;" horiz-adv-x="720" 
d="M706 0h-149l-59 171h-275l-60 -171h-149l251 667q-35 38 -35 89q0 36 17.5 65.5t47 47t65.5 17.5q35 0 65 -17.5t47.5 -47.5t17.5 -65q0 -51 -35 -88zM332 784.5q-12 -11.5 -12 -28.5q0 -16 12 -28t28 -12q17 0 28.5 12t11.5 28q0 17 -11.5 28.5t-28.5 11.5
q-16 0 -28 -11.5zM454 295l-64 180l-26 86h-8l-26 -86l-64 -180h188z" />
    <glyph glyph-name="AE" unicode="&#xc6;" horiz-adv-x="1011" 
d="M424 716h531v-128h-320v-166h288v-128h-288v-166h320v-128h-454v173h-239l-98 -173h-158zM501 301v287h-10l-34 -70l-124 -217h168z" />
    <glyph glyph-name="Ccedilla" unicode="&#xc7;" horiz-adv-x="746" 
d="M583 18.5q-70 -33.5 -155 -34.5l-14 -31q7 1 18 1q40 0 67 -26t27 -69q0 -42 -29.5 -69t-77.5 -27q-35 0 -61.5 18.5t-37.5 47.5l64 27q4 -12 13.5 -20t21.5 -8q15 0 24 9.5t9 22.5q0 14 -9 24t-24 10t-27 -14l-61 28l31 80q-91 13 -163.5 64.5t-113.5 131.5t-41 174
q0 104 49.5 189.5t135.5 135t190 49.5q162 0 268 -117l-95 -92q-71 81 -172 81q-67 0 -122 -30.5t-87 -86.5t-32 -129t32 -129t87 -86.5t122 -30.5q112 0 188 94l97 -91q-52 -63 -122 -96.5z" />
    <glyph glyph-name="Egrave" unicode="&#xc8;" horiz-adv-x="589" 
d="M79 716h454v-128h-319v-166h287v-128h-287v-166h319v-128h-454v716zM164 908h153l42 -136h-106z" />
    <glyph glyph-name="Eacute" unicode="&#xc9;" horiz-adv-x="589" 
d="M79 716h454v-128h-319v-166h287v-128h-287v-166h319v-128h-454v716zM295 908h153l-90 -136h-105z" />
    <glyph glyph-name="Ecircumflex" unicode="&#xca;" horiz-adv-x="589" 
d="M79 716h454v-128h-319v-166h287v-128h-287v-166h319v-128h-454v716zM135 786l114 126h114l114 -126v-8h-125l-40 59h-12l-40 -59h-125v8z" />
    <glyph glyph-name="Edieresis" unicode="&#xcb;" horiz-adv-x="589" 
d="M79 716h454v-128h-319v-166h287v-128h-287v-166h319v-128h-454v716zM160 792.5q-21 21.5 -21 50.5q0 30 21 51t51 21t50.5 -21t20.5 -51t-20.5 -51t-50.5 -21t-51 21.5zM351 792.5q-21 21.5 -21 50.5q0 30 21 51t50 21q31 0 51.5 -21t20.5 -51t-21 -51t-51 -21
q-29 0 -50 21.5z" />
    <glyph glyph-name="Igrave" unicode="&#xcc;" horiz-adv-x="293" 
d="M79 716h135v-716h-135v716zM4 908h153l42 -136h-106z" />
    <glyph glyph-name="Iacute" unicode="&#xcd;" horiz-adv-x="293" 
d="M79 716h135v-716h-135v716zM135 908h153l-90 -136h-105z" />
    <glyph glyph-name="Icircumflex" unicode="&#xce;" horiz-adv-x="293" 
d="M79 716h135v-716h-135v716zM-25 786l114 126h114l114 -126v-8h-125l-40 59h-12l-40 -59h-125v8z" />
    <glyph glyph-name="Idieresis" unicode="&#xcf;" horiz-adv-x="293" 
d="M11.5 794.5q-20.5 20.5 -20.5 48.5q0 29 20 49t49 20t49 -20t20 -49q0 -28 -20.5 -48.5t-48.5 -20.5t-48.5 20.5zM184.5 794.5q-20.5 20.5 -20.5 48.5q0 29 20.5 49t48.5 20q29 0 49 -20t20 -49q0 -28 -20.5 -48.5t-48.5 -20.5t-48.5 20.5zM79 716h135v-716h-135v716z
" />
    <glyph glyph-name="Eth" unicode="&#xd0;" horiz-adv-x="793" 
d="M139 302h-76v110h76v304h242q112 0 195 -45t128 -126t45 -187t-45 -187t-128 -126t-195 -45h-242v302zM375 128q116 0 177.5 61.5t61.5 168.5t-61.5 168.5t-177.5 61.5h-101v-176h184v-110h-184v-174h101z" />
    <glyph glyph-name="Ntilde" unicode="&#xd1;" horiz-adv-x="737" 
d="M79 716h157l288 -480h8l-8 138v342h134v-716h-142l-304 507h-8l8 -138v-369h-133v716zM400 778.5q-19 7.5 -43 20.5q-2 1 -15 8t-21 7q-25 0 -26 -29h-92q0 62 33.5 95t82.5 33q23 0 41 -7t46 -22q25 -14 33 -14q13 0 19 7t8 22h92q0 -62 -34 -95t-83 -33q-22 0 -41 7.5z
" />
    <glyph glyph-name="Ograve" unicode="&#xd2;" horiz-adv-x="835" 
d="M227.5 33.5q-85.5 49.5 -134.5 135.5t-49 189t49 189t134.5 135.5t190.5 49.5t190.5 -49.5t134.5 -135.5t49 -189t-49 -189t-134.5 -135.5t-190.5 -49.5t-190.5 49.5zM538.5 143q54.5 31 86 87t31.5 128t-31.5 128t-86 87t-120.5 31t-121 -31t-86.5 -87t-31.5 -128
t31.5 -128t86.5 -87t121 -31t120.5 31zM276 908h153l42 -136h-106z" />
    <glyph glyph-name="Oacute" unicode="&#xd3;" horiz-adv-x="835" 
d="M227.5 33.5q-85.5 49.5 -134.5 135.5t-49 189t49 189t134.5 135.5t190.5 49.5t190.5 -49.5t134.5 -135.5t49 -189t-49 -189t-134.5 -135.5t-190.5 -49.5t-190.5 49.5zM538.5 143q54.5 31 86 87t31.5 128t-31.5 128t-86 87t-120.5 31t-121 -31t-86.5 -87t-31.5 -128
t31.5 -128t86.5 -87t121 -31t120.5 31zM407 908h153l-90 -136h-105z" />
    <glyph glyph-name="Ocircumflex" unicode="&#xd4;" horiz-adv-x="835" 
d="M227.5 33.5q-85.5 49.5 -134.5 135.5t-49 189t49 189t134.5 135.5t190.5 49.5t190.5 -49.5t134.5 -135.5t49 -189t-49 -189t-134.5 -135.5t-190.5 -49.5t-190.5 49.5zM538.5 143q54.5 31 86 87t31.5 128t-31.5 128t-86 87t-120.5 31t-121 -31t-86.5 -87t-31.5 -128
t31.5 -128t86.5 -87t121 -31t120.5 31zM247 786l114 126h114l114 -126v-8h-125l-40 59h-12l-40 -59h-125v8z" />
    <glyph glyph-name="Otilde" unicode="&#xd5;" horiz-adv-x="835" 
d="M227.5 33.5q-85.5 49.5 -134.5 135.5t-49 189t49 189t134.5 135.5t190.5 49.5t190.5 -49.5t134.5 -135.5t49 -189t-49 -189t-134.5 -135.5t-190.5 -49.5t-190.5 49.5zM538.5 143q54.5 31 86 87t31.5 128t-31.5 128t-86 87t-120.5 31t-121 -31t-86.5 -87t-31.5 -128
t31.5 -128t86.5 -87t121 -31t120.5 31zM438 778.5q-19 7.5 -43 20.5q-2 1 -15 8t-21 7q-25 0 -26 -29h-92q0 62 33.5 95t82.5 33q23 0 41 -7t46 -22q25 -14 33 -14q13 0 19 7t8 22h92q0 -62 -34 -95t-83 -33q-22 0 -41 7.5z" />
    <glyph glyph-name="Odieresis" unicode="&#xd6;" horiz-adv-x="835" 
d="M227.5 33.5q-85.5 49.5 -134.5 135.5t-49 189t49 189t134.5 135.5t190.5 49.5t190.5 -49.5t134.5 -135.5t49 -189t-49 -189t-134.5 -135.5t-190.5 -49.5t-190.5 49.5zM538.5 143q54.5 31 86 87t31.5 128t-31.5 128t-86 87t-120.5 31t-121 -31t-86.5 -87t-31.5 -128
t31.5 -128t86.5 -87t121 -31t120.5 31zM272 792.5q-21 21.5 -21 50.5q0 30 21 51t51 21t50.5 -21t20.5 -51t-20.5 -51t-50.5 -21t-51 21.5zM463 792.5q-21 21.5 -21 50.5q0 30 21 51t50 21q31 0 51.5 -21t20.5 -51t-21 -51t-51 -21q-29 0 -50 21.5z" />
    <glyph glyph-name="multiply" unicode="&#xd7;" horiz-adv-x="621" 
d="M65 115l163 156l-163 156l81 81l165 -158l164 158l81 -81l-163 -156l163 -156l-81 -81l-164 158l-165 -158z" />
    <glyph glyph-name="Oslash" unicode="&#xd8;" horiz-adv-x="835" 
d="M757.5 518.5q34.5 -74.5 34.5 -160.5q0 -103 -49 -189t-134.5 -135.5t-190.5 -49.5q-78 0 -151 30l-38 -61l-91 59l37 59q-62 52 -96.5 126.5t-34.5 160.5q0 103 49 189t134.5 135.5t190.5 49.5q78 0 151 -30l38 61l91 -59l-37 -59q62 -52 96.5 -126.5zM196.5 261
q17.5 -45 48.5 -78l254 408q-41 13 -81 13q-66 0 -121 -31t-86.5 -87t-31.5 -128q0 -52 17.5 -97zM538.5 143q54.5 31 86 87t31.5 128q0 52 -17 96.5t-48 77.5l-254 -407q41 -13 81 -13q66 0 120.5 31z" />
    <glyph glyph-name="Ugrave" unicode="&#xd9;" horiz-adv-x="687" 
d="M196.5 20q-62.5 36 -97 104t-34.5 161v431h135v-439q0 -74 37.5 -119.5t105.5 -45.5q69 0 106.5 45.5t37.5 119.5v439h135v-431q0 -89 -34 -157t-97.5 -106t-147.5 -38t-146.5 36zM201 908h153l42 -136h-106z" />
    <glyph glyph-name="Uacute" unicode="&#xda;" horiz-adv-x="687" 
d="M196.5 20q-62.5 36 -97 104t-34.5 161v431h135v-439q0 -74 37.5 -119.5t105.5 -45.5q69 0 106.5 45.5t37.5 119.5v439h135v-431q0 -89 -34 -157t-97.5 -106t-147.5 -38t-146.5 36zM332 908h153l-90 -136h-105z" />
    <glyph glyph-name="Ucircumflex" unicode="&#xdb;" horiz-adv-x="687" 
d="M196.5 20q-62.5 36 -97 104t-34.5 161v431h135v-439q0 -74 37.5 -119.5t105.5 -45.5q69 0 106.5 45.5t37.5 119.5v439h135v-431q0 -89 -34 -157t-97.5 -106t-147.5 -38t-146.5 36zM172 786l114 126h114l114 -126v-8h-125l-40 59h-12l-40 -59h-125v8z" />
    <glyph glyph-name="Udieresis" unicode="&#xdc;" horiz-adv-x="687" 
d="M196.5 20q-62.5 36 -97 104t-34.5 161v431h135v-439q0 -74 37.5 -119.5t105.5 -45.5q69 0 106.5 45.5t37.5 119.5v439h135v-431q0 -89 -34 -157t-97.5 -106t-147.5 -38t-146.5 36zM197 792.5q-21 21.5 -21 50.5q0 30 21 51t51 21t50.5 -21t20.5 -51t-20.5 -51t-50.5 -21
t-51 21.5zM388 792.5q-21 21.5 -21 50.5q0 30 21 51t50 21q31 0 51.5 -21t20.5 -51t-21 -51t-51 -21q-29 0 -50 21.5z" />
    <glyph glyph-name="Yacute" unicode="&#xdd;" horiz-adv-x="641" 
d="M255 333l-241 383h161l143 -237h8l138 237h163l-237 -383v-333h-135v333zM309 908h153l-90 -136h-105z" />
    <glyph glyph-name="Thorn" unicode="&#xde;" horiz-adv-x="605" 
d="M79 716h135v-109h117q68 0 124 -28.5t88 -80t32 -117.5t-32 -117.5t-88 -80t-124 -28.5h-117v-155h-135v716zM335 283q51 0 79 28.5t28 69.5t-28 69.5t-79 28.5h-121v-196h121z" />
    <glyph glyph-name="germandbls" unicode="&#xdf;" horiz-adv-x="597" 
d="M269 -4v119q23 -4 51 -4q47 0 77.5 29.5t30.5 76.5q0 46 -35 76.5t-85 30.5h-28v115h20q45 0 72 25t27 65q0 35 -26.5 58.5t-66.5 23.5q-45 0 -71 -29.5t-26 -76.5v-505h-131v507q0 65 28 116t79.5 80t120.5 29q63 0 113 -24t78 -67.5t28 -99.5q0 -49 -22.5 -88.5
t-57.5 -61.5v-8q55 -24 84.5 -68t29.5 -108q0 -63 -29.5 -112t-82 -76t-119.5 -27q-32 0 -59 4z" />
    <glyph glyph-name="agrave" unicode="&#xe0;" horiz-adv-x="549" 
d="M123 5.5q-42 21.5 -66 60t-24 87.5q0 50 26.5 88.5t72.5 59t103 20.5q77 0 131 -23v17q0 40 -31 65.5t-79 25.5q-73 0 -118 -58l-92 66q37 48 92 73t121 25q115 0 175.5 -54t60.5 -158v-300h-129v52h-8q-55 -68 -142 -68q-51 0 -93 21.5zM308.5 102.5q27.5 16.5 42.5 43
t15 56.5q-49 23 -103 23q-48 0 -73 -20t-25 -52q0 -30 23 -48.5t58 -18.5t62.5 16.5zM130 730h153l42 -136h-106z" />
    <glyph glyph-name="aacute" unicode="&#xe1;" horiz-adv-x="549" 
d="M123 5.5q-42 21.5 -66 60t-24 87.5q0 50 26.5 88.5t72.5 59t103 20.5q77 0 131 -23v17q0 40 -31 65.5t-79 25.5q-73 0 -118 -58l-92 66q37 48 92 73t121 25q115 0 175.5 -54t60.5 -158v-300h-129v52h-8q-55 -68 -142 -68q-51 0 -93 21.5zM308.5 102.5q27.5 16.5 42.5 43
t15 56.5q-49 23 -103 23q-48 0 -73 -20t-25 -52q0 -30 23 -48.5t58 -18.5t62.5 16.5zM261 730h153l-90 -136h-105z" />
    <glyph glyph-name="acircumflex" unicode="&#xe2;" horiz-adv-x="549" 
d="M123 5.5q-42 21.5 -66 60t-24 87.5q0 50 26.5 88.5t72.5 59t103 20.5q77 0 131 -23v17q0 40 -31 65.5t-79 25.5q-73 0 -118 -58l-92 66q37 48 92 73t121 25q115 0 175.5 -54t60.5 -158v-300h-129v52h-8q-55 -68 -142 -68q-51 0 -93 21.5zM308.5 102.5q27.5 16.5 42.5 43
t15 56.5q-49 23 -103 23q-48 0 -73 -20t-25 -52q0 -30 23 -48.5t58 -18.5t62.5 16.5zM101 596l114 126h114l114 -126v-8h-125l-40 59h-12l-40 -59h-125v8z" />
    <glyph glyph-name="atilde" unicode="&#xe3;" horiz-adv-x="549" 
d="M123 5.5q-42 21.5 -66 60t-24 87.5q0 50 26.5 88.5t72.5 59t103 20.5q77 0 131 -23v17q0 40 -31 65.5t-79 25.5q-73 0 -118 -58l-92 66q37 48 92 73t121 25q115 0 175.5 -54t60.5 -158v-300h-129v52h-8q-55 -68 -142 -68q-51 0 -93 21.5zM308.5 102.5q27.5 16.5 42.5 43
t15 56.5q-49 23 -103 23q-48 0 -73 -20t-25 -52q0 -30 23 -48.5t58 -18.5t62.5 16.5zM292 600.5q-19 7.5 -43 20.5q-2 1 -15 8t-21 7q-25 0 -26 -29h-92q0 62 33.5 95t82.5 33q23 0 41 -7t46 -22q25 -14 33 -14q13 0 19 7t8 22h92q0 -62 -34 -95t-83 -33q-22 0 -41 7.5z" />
    <glyph glyph-name="adieresis" unicode="&#xe4;" horiz-adv-x="549" 
d="M123 5.5q-42 21.5 -66 60t-24 87.5q0 50 26.5 88.5t72.5 59t103 20.5q77 0 131 -23v17q0 40 -31 65.5t-79 25.5q-73 0 -118 -58l-92 66q37 48 92 73t121 25q115 0 175.5 -54t60.5 -158v-300h-129v52h-8q-55 -68 -142 -68q-51 0 -93 21.5zM308.5 102.5q27.5 16.5 42.5 43
t15 56.5q-49 23 -103 23q-48 0 -73 -20t-25 -52q0 -30 23 -48.5t58 -18.5t62.5 16.5zM126 614.5q-21 21.5 -21 50.5q0 31 21 51.5t51 20.5t50.5 -20.5t20.5 -51.5q0 -30 -20.5 -51t-50.5 -21t-51 21.5zM317 614.5q-21 21.5 -21 50.5q0 31 20.5 51.5t50.5 20.5
q31 0 51.5 -20.5t20.5 -51.5q0 -30 -21 -51t-51 -21q-29 0 -50 21.5z" />
    <glyph glyph-name="aring" unicode="&#xe5;" horiz-adv-x="549" 
d="M123 5.5q-42 21.5 -66 60t-24 87.5q0 50 26.5 88.5t72.5 59t103 20.5q77 0 131 -23v17q0 40 -31 65.5t-79 25.5q-73 0 -118 -58l-92 66q37 48 92 73t121 25q115 0 175.5 -54t60.5 -158v-300h-129v52h-8q-55 -68 -142 -68q-51 0 -93 21.5zM308.5 102.5q27.5 16.5 42.5 43
t15 56.5q-49 23 -103 23q-48 0 -73 -20t-25 -52q0 -30 23 -48.5t58 -18.5t62.5 16.5zM195.5 601.5q-31.5 31.5 -31.5 76.5t31.5 76.5t76.5 31.5t76.5 -31.5t31.5 -76.5t-31.5 -76.5t-76.5 -31.5t-76.5 31.5zM296.5 653.5q10.5 10.5 10.5 24.5t-10.5 24.5t-24.5 10.5
t-24.5 -10.5t-10.5 -24.5t10.5 -24.5t24.5 -10.5t24.5 10.5z" />
    <glyph glyph-name="ae" unicode="&#xe6;" horiz-adv-x="904" 
d="M126 5.5q-44 21.5 -68.5 60t-24.5 87.5q0 50 26.5 88.5t72.5 59t103 20.5q73 0 131 -25v13q0 44 -30 70.5t-78 26.5q-35 0 -60.5 -14.5t-37.5 -41.5l-100 45q27 57 80 87t121 30q122 0 185 -82q31 40 77 61t100 21q77 0 133 -33.5t85 -91.5t29 -132q0 -13 -1 -23t-2 -14
h-373q8 -58 46.5 -88t89.5 -30q43 0 74 19.5t49 52.5l108 -53q-36 -63 -94.5 -99t-138.5 -36q-62 0 -113.5 27t-87.5 75q-40 -53 -89 -77.5t-112 -24.5q-56 0 -100 21.5zM743 311q-2 21 -16 43t-40.5 36.5t-63.5 14.5q-44 0 -77 -25.5t-46 -68.5h243zM308.5 102.5
q27.5 16.5 42.5 43t15 56.5q-50 23 -103 23q-48 0 -73 -20t-25 -52q0 -30 23 -48.5t58 -18.5t62.5 16.5z" />
    <glyph glyph-name="ccedilla" unicode="&#xe7;" horiz-adv-x="559" 
d="M444.5 25q-55.5 -37 -132.5 -41l-14 -31q7 1 18 1q40 0 67 -26t27 -69q0 -42 -29.5 -69t-77.5 -27q-35 0 -61.5 18.5t-37.5 47.5l64 27q4 -12 13.5 -20t21.5 -8q15 0 24 9.5t9 22.5q0 14 -9 24t-24 10t-27 -14l-61 28l31 80q-62 11 -110 47t-75 91t-27 122q0 76 33.5 136
t93.5 94t135 34q83 0 142.5 -37.5t87.5 -102.5l-120 -50q-33 69 -111 69q-55 0 -92.5 -39.5t-37.5 -103.5t37.5 -103.5t92.5 -39.5q79 0 117 72l119 -52q-31 -63 -86.5 -100z" />
    <glyph glyph-name="egrave" unicode="&#xe8;" horiz-adv-x="572" 
d="M161.5 18q-59.5 34 -93.5 94.5t-34 135.5q0 71 33.5 131.5t92 96.5t131.5 36q78 0 133.5 -33.5t84.5 -91.5t29 -132q0 -13 -1 -24q-1 -12 -1 -13h-373q8 -57 46.5 -87.5t88.5 -30.5q82 0 124 72l108 -53q-36 -64 -95 -99.5t-139 -35.5q-75 0 -134.5 34zM412 311
q-2 21 -16.5 43t-41 36.5t-63.5 14.5q-43 0 -76 -25.5t-46 -68.5h243zM150 730h153l42 -136h-106z" />
    <glyph glyph-name="eacute" unicode="&#xe9;" horiz-adv-x="572" 
d="M161.5 18q-59.5 34 -93.5 94.5t-34 135.5q0 71 33.5 131.5t92 96.5t131.5 36q78 0 133.5 -33.5t84.5 -91.5t29 -132q0 -13 -1 -24q-1 -12 -1 -13h-373q8 -57 46.5 -87.5t88.5 -30.5q82 0 124 72l108 -53q-36 -64 -95 -99.5t-139 -35.5q-75 0 -134.5 34zM412 311
q-2 21 -16.5 43t-41 36.5t-63.5 14.5q-43 0 -76 -25.5t-46 -68.5h243zM281 730h153l-90 -136h-105z" />
    <glyph glyph-name="ecircumflex" unicode="&#xea;" horiz-adv-x="572" 
d="M161.5 18q-59.5 34 -93.5 94.5t-34 135.5q0 71 33.5 131.5t92 96.5t131.5 36q78 0 133.5 -33.5t84.5 -91.5t29 -132q0 -13 -1 -24q-1 -12 -1 -13h-373q8 -57 46.5 -87.5t88.5 -30.5q82 0 124 72l108 -53q-36 -64 -95 -99.5t-139 -35.5q-75 0 -134.5 34zM412 311
q-2 21 -16.5 43t-41 36.5t-63.5 14.5q-43 0 -76 -25.5t-46 -68.5h243zM121 596l114 126h114l114 -126v-8h-125l-40 59h-12l-40 -59h-125v8z" />
    <glyph glyph-name="edieresis" unicode="&#xeb;" horiz-adv-x="572" 
d="M161.5 18q-59.5 34 -93.5 94.5t-34 135.5q0 71 33.5 131.5t92 96.5t131.5 36q78 0 133.5 -33.5t84.5 -91.5t29 -132q0 -13 -1 -24q-1 -12 -1 -13h-373q8 -57 46.5 -87.5t88.5 -30.5q82 0 124 72l108 -53q-36 -64 -95 -99.5t-139 -35.5q-75 0 -134.5 34zM412 311
q-2 21 -16.5 43t-41 36.5t-63.5 14.5q-43 0 -76 -25.5t-46 -68.5h243zM146 614.5q-21 21.5 -21 50.5q0 31 21 51.5t51 20.5t50.5 -20.5t20.5 -51.5q0 -30 -20.5 -51t-50.5 -21t-51 21.5zM337 614.5q-21 21.5 -21 50.5q0 31 20.5 51.5t50.5 20.5q31 0 51.5 -20.5t20.5 -51.5
q0 -30 -21 -51t-51 -21q-29 0 -50 21.5z" />
    <glyph glyph-name="igrave" unicode="&#xec;" horiz-adv-x="271" 
d="M70 496h131v-496h-131v496zM-7 730h153l42 -136h-106z" />
    <glyph glyph-name="iacute" unicode="&#xed;" horiz-adv-x="271" 
d="M70 496h131v-496h-131v496zM124 730h153l-90 -136h-105z" />
    <glyph glyph-name="icircumflex" unicode="&#xee;" horiz-adv-x="271" 
d="M70 496h131v-496h-131v496zM-36 596l114 126h114l114 -126v-8h-125l-40 59h-12l-40 -59h-125v8z" />
    <glyph glyph-name="idieresis" unicode="&#xef;" horiz-adv-x="271" 
d="M2.5 616.5q-20.5 20.5 -20.5 48.5q0 29 20.5 49t48.5 20q29 0 49 -20t20 -49q0 -28 -20 -48.5t-49 -20.5q-28 0 -48.5 20.5zM170.5 616.5q-20.5 20.5 -20.5 48.5q0 29 20.5 49t48.5 20q29 0 49 -20t20 -49q0 -28 -20 -48.5t-49 -20.5q-28 0 -48.5 20.5zM70 496h131v-496
h-131v496z" />
    <glyph glyph-name="eth" unicode="&#xf0;" horiz-adv-x="590" 
d="M167.5 16.5q-56.5 32.5 -89.5 89.5t-33 127t32.5 126.5t86 88t113.5 31.5q34 0 61.5 -10t45.5 -25l7 6q-24 57 -82 97l-122 -54l-35 80l60 26q-40 16 -90 28l41 99q102 -24 176 -71l102 45l34 -78l-60 -27q65 -64 97.5 -149.5t32.5 -188.5q0 -82 -32.5 -144t-90.5 -95.5
t-131 -33.5q-67 0 -123.5 32.5zM379.5 137.5q35.5 36.5 35.5 94.5t-35 94.5t-86 36.5q-52 0 -87.5 -36.5t-35.5 -94.5t35.5 -94.5t86.5 -36.5t86.5 36.5z" />
    <glyph glyph-name="ntilde" unicode="&#xf1;" horiz-adv-x="589" 
d="M62 496h123v-64h8q23 37 63 58.5t90 21.5q91 0 138 -56t47 -153v-303h-131v287q0 51 -24.5 77.5t-68.5 26.5q-53 0 -83.5 -41t-30.5 -104v-246h-131v496zM326 600.5q-19 7.5 -43 20.5q-2 1 -15 8t-21 7q-25 0 -26 -29h-92q0 62 33.5 95t82.5 33q23 0 41 -7t46 -22
q25 -14 33 -14q13 0 19 7t8 22h92q0 -62 -34 -95t-83 -33q-22 0 -41 7.5z" />
    <glyph glyph-name="ograve" unicode="&#xf2;" horiz-adv-x="595" 
d="M162 18q-60 34 -94 94.5t-34 135.5q0 76 34 136t94 94t136 34q75 0 135 -34t94 -94.5t34 -135.5t-34 -135.5t-94 -94.5t-135 -34q-76 0 -136 34zM363.5 122.5q30.5 17.5 48.5 50t18 75.5t-18 75.5t-48.5 50t-65.5 17.5q-36 0 -66.5 -17.5t-48.5 -50t-18 -75.5t18 -75.5
t48.5 -50t66.5 -17.5q35 0 65.5 17.5zM156 730h153l42 -136h-106z" />
    <glyph glyph-name="oacute" unicode="&#xf3;" horiz-adv-x="595" 
d="M162 18q-60 34 -94 94.5t-34 135.5q0 76 34 136t94 94t136 34q75 0 135 -34t94 -94.5t34 -135.5t-34 -135.5t-94 -94.5t-135 -34q-76 0 -136 34zM363.5 122.5q30.5 17.5 48.5 50t18 75.5t-18 75.5t-48.5 50t-65.5 17.5q-36 0 -66.5 -17.5t-48.5 -50t-18 -75.5t18 -75.5
t48.5 -50t66.5 -17.5q35 0 65.5 17.5zM287 730h153l-90 -136h-105z" />
    <glyph glyph-name="ocircumflex" unicode="&#xf4;" horiz-adv-x="595" 
d="M162 18q-60 34 -94 94.5t-34 135.5q0 76 34 136t94 94t136 34q75 0 135 -34t94 -94.5t34 -135.5t-34 -135.5t-94 -94.5t-135 -34q-76 0 -136 34zM363.5 122.5q30.5 17.5 48.5 50t18 75.5t-18 75.5t-48.5 50t-65.5 17.5q-36 0 -66.5 -17.5t-48.5 -50t-18 -75.5t18 -75.5
t48.5 -50t66.5 -17.5q35 0 65.5 17.5zM127 596l114 126h114l114 -126v-8h-125l-40 59h-12l-40 -59h-125v8z" />
    <glyph glyph-name="otilde" unicode="&#xf5;" horiz-adv-x="595" 
d="M162 18q-60 34 -94 94.5t-34 135.5q0 76 34 136t94 94t136 34q75 0 135 -34t94 -94.5t34 -135.5t-34 -135.5t-94 -94.5t-135 -34q-76 0 -136 34zM363.5 122.5q30.5 17.5 48.5 50t18 75.5t-18 75.5t-48.5 50t-65.5 17.5q-36 0 -66.5 -17.5t-48.5 -50t-18 -75.5t18 -75.5
t48.5 -50t66.5 -17.5q35 0 65.5 17.5zM318 600.5q-19 7.5 -43 20.5q-2 1 -15 8t-21 7q-25 0 -26 -29h-92q0 62 33.5 95t82.5 33q23 0 41 -7t46 -22q25 -14 33 -14q13 0 19 7t8 22h92q0 -62 -34 -95t-83 -33q-22 0 -41 7.5z" />
    <glyph glyph-name="odieresis" unicode="&#xf6;" horiz-adv-x="595" 
d="M162 18q-60 34 -94 94.5t-34 135.5q0 76 34 136t94 94t136 34q75 0 135 -34t94 -94.5t34 -135.5t-34 -135.5t-94 -94.5t-135 -34q-76 0 -136 34zM363.5 122.5q30.5 17.5 48.5 50t18 75.5t-18 75.5t-48.5 50t-65.5 17.5q-36 0 -66.5 -17.5t-48.5 -50t-18 -75.5t18 -75.5
t48.5 -50t66.5 -17.5q35 0 65.5 17.5zM152 614.5q-21 21.5 -21 50.5q0 31 21 51.5t51 20.5t50.5 -20.5t20.5 -51.5q0 -30 -20.5 -51t-50.5 -21t-51 21.5zM343 614.5q-21 21.5 -21 50.5q0 31 20.5 51.5t50.5 20.5q31 0 51.5 -20.5t20.5 -51.5q0 -30 -21 -51t-51 -21
q-29 0 -50 21.5z" />
    <glyph glyph-name="divide" unicode="&#xf7;" horiz-adv-x="569" 
d="M226 410q-24 24 -24 58t24 58t58 24t58 -24t24 -58t-24 -58t-58 -24t-58 24zM56 325h457v-108h-457v108zM226 16q-24 24 -24 58t24 58t58 24t58 -24t24 -58t-24 -58t-58 -24t-58 24z" />
    <glyph glyph-name="oslash" unicode="&#xf8;" horiz-adv-x="595" 
d="M540 357q21 -50 21 -109q0 -75 -34 -135.5t-94 -94.5t-135 -34q-51 0 -93 15l-26 -41l-91 51l27 43q-39 37 -60 87t-21 109q0 76 34 136t94 94t136 34q53 0 94 -16l27 43l90 -51l-28 -45q38 -36 59 -86zM181 157l150 240q-15 4 -33 4q-38 0 -71 -18.5t-52.5 -53.5
t-19.5 -81q0 -52 26 -91zM368.5 113.5q32.5 18.5 52 53.5t19.5 81q0 53 -25 90l-149 -240q17 -3 32 -3q38 0 70.5 18.5z" />
    <glyph glyph-name="ugrave" unicode="&#xf9;" horiz-adv-x="589" 
d="M105 40q-47 56 -47 155v301h131v-285q0 -51 24 -78.5t68 -27.5q53 0 84 41t31 104v246h131v-496h-123v64h-8q-24 -37 -64 -58.5t-89 -21.5q-91 0 -138 56zM150 730h153l42 -136h-106z" />
    <glyph glyph-name="uacute" unicode="&#xfa;" horiz-adv-x="589" 
d="M105 40q-47 56 -47 155v301h131v-285q0 -51 24 -78.5t68 -27.5q53 0 84 41t31 104v246h131v-496h-123v64h-8q-24 -37 -64 -58.5t-89 -21.5q-91 0 -138 56zM281 730h153l-90 -136h-105z" />
    <glyph glyph-name="ucircumflex" unicode="&#xfb;" horiz-adv-x="589" 
d="M105 40q-47 56 -47 155v301h131v-285q0 -51 24 -78.5t68 -27.5q53 0 84 41t31 104v246h131v-496h-123v64h-8q-24 -37 -64 -58.5t-89 -21.5q-91 0 -138 56zM121 596l114 126h114l114 -126v-8h-125l-40 59h-12l-40 -59h-125v8z" />
    <glyph glyph-name="udieresis" unicode="&#xfc;" horiz-adv-x="589" 
d="M105 40q-47 56 -47 155v301h131v-285q0 -51 24 -78.5t68 -27.5q53 0 84 41t31 104v246h131v-496h-123v64h-8q-24 -37 -64 -58.5t-89 -21.5q-91 0 -138 56zM146 614.5q-21 21.5 -21 50.5q0 31 21 51.5t51 20.5t50.5 -20.5t20.5 -51.5q0 -30 -20.5 -51t-50.5 -21t-51 21.5z
M337 614.5q-21 21.5 -21 50.5q0 31 20.5 51.5t50.5 20.5q31 0 51.5 -20.5t20.5 -51.5q0 -30 -21 -51t-51 -21q-29 0 -50 21.5z" />
    <glyph glyph-name="yacute" unicode="&#xfd;" horiz-adv-x="565" 
d="M216 24l-209 472h149l126 -303h8l121 303h147l-310 -712h-141zM272 730h153l-90 -136h-105z" />
    <glyph glyph-name="thorn" unicode="&#xfe;" horiz-adv-x="614" 
d="M60 716h131v-210l-8 -69h8q19 32 58.5 53.5t92.5 21.5q65 0 119.5 -34t86.5 -94t32 -136t-32 -136t-86.5 -94t-119.5 -34q-53 0 -92.5 21.5t-58.5 54.5h-8l8 -70v-206h-131v932zM382 123q31 18 49.5 50.5t18.5 74.5q0 43 -18.5 75.5t-49.5 50t-66 17.5t-65.5 -17.5
t-49 -50t-18.5 -75.5t18.5 -75.5t49 -50t65.5 -17.5t66 18z" />
    <glyph glyph-name="ydieresis" unicode="&#xff;" horiz-adv-x="565" 
d="M216 24l-209 472h149l126 -303h8l121 303h147l-310 -712h-141zM137 614.5q-21 21.5 -21 50.5q0 31 21 51.5t51 20.5t50.5 -20.5t20.5 -51.5q0 -30 -20.5 -51t-50.5 -21t-51 21.5zM328 614.5q-21 21.5 -21 50.5q0 31 20.5 51.5t50.5 20.5q31 0 51.5 -20.5t20.5 -51.5
q0 -30 -21 -51t-51 -21q-29 0 -50 21.5z" />
    <glyph glyph-name="Amacron" unicode="&#x100;" horiz-adv-x="720" 
d="M283 716h154l269 -716h-149l-59 171h-275l-60 -171h-149zM454 295l-64 180l-26 86h-8l-26 -86l-64 -180h188zM212 893h296v-100h-296v100z" />
    <glyph glyph-name="amacron" unicode="&#x101;" horiz-adv-x="549" 
d="M123 5.5q-42 21.5 -66 60t-24 87.5q0 50 26.5 88.5t72.5 59t103 20.5q77 0 131 -23v17q0 40 -31 65.5t-79 25.5q-73 0 -118 -58l-92 66q37 48 92 73t121 25q115 0 175.5 -54t60.5 -158v-300h-129v52h-8q-55 -68 -142 -68q-51 0 -93 21.5zM308.5 102.5q27.5 16.5 42.5 43
t15 56.5q-49 23 -103 23q-48 0 -73 -20t-25 -52q0 -30 23 -48.5t58 -18.5t62.5 16.5zM124 715h296v-100h-296v100z" />
    <glyph glyph-name="Abreve" unicode="&#x102;" horiz-adv-x="720" 
d="M283 716h154l269 -716h-149l-59 171h-275l-60 -171h-149zM454 295l-64 180l-26 86h-8l-26 -86l-64 -180h188zM293.5 780.5q-31.5 17.5 -50.5 49t-19 69.5h93q0 -19 12 -32.5t32 -13.5q19 0 31 13.5t12 32.5h92q0 -38 -18.5 -69.5t-49.5 -49t-67 -17.5t-67.5 17.5z" />
    <glyph glyph-name="abreve" unicode="&#x103;" horiz-adv-x="549" 
d="M123 5.5q-42 21.5 -66 60t-24 87.5q0 50 26.5 88.5t72.5 59t103 20.5q77 0 131 -23v17q0 40 -31 65.5t-79 25.5q-73 0 -118 -58l-92 66q37 48 92 73t121 25q115 0 175.5 -54t60.5 -158v-300h-129v52h-8q-55 -68 -142 -68q-51 0 -93 21.5zM308.5 102.5q27.5 16.5 42.5 43
t15 56.5q-49 23 -103 23q-48 0 -73 -20t-25 -52q0 -30 23 -48.5t58 -18.5t62.5 16.5zM205.5 602.5q-31.5 17.5 -50.5 49t-19 69.5h93q0 -19 12 -32.5t32 -13.5q19 0 31 13.5t12 32.5h92q0 -38 -18.5 -69.5t-49.5 -49t-67 -17.5t-67.5 17.5z" />
    <glyph glyph-name="Aogonek" unicode="&#x104;" horiz-adv-x="720" 
d="M561 -192q-35 32 -35 84q0 57 53 103l-2 5h-20l-59 171h-275l-60 -171h-149l269 716h154l269 -716q-33 -23 -51 -43.5t-18 -44.5q0 -18 11 -29.5t29 -11.5t40 11v-95q-23 -11 -61 -11q-60 0 -95 32zM454 295l-64 180l-26 86h-8l-26 -86l-64 -180h188z" />
    <glyph glyph-name="aogonek" unicode="&#x105;" horiz-adv-x="549" 
d="M350 -192.5q-35 31.5 -35 83.5q0 33 16.5 59t39.5 44l-5 6v52h-8q-55 -68 -142 -68q-51 0 -93 21.5t-66 60t-24 87.5q0 50 26.5 88.5t72.5 59t103 20.5q77 0 131 -23v17q0 40 -31 65.5t-79 25.5q-73 0 -118 -58l-92 66q37 48 92 73t121 25q115 0 175.5 -54t60.5 -158
v-300q-33 -23 -50.5 -43.5t-17.5 -44.5q0 -18 11 -29.5t28 -11.5q19 0 41 11v-95q-24 -11 -62 -11q-60 0 -95 31.5zM308.5 102.5q27.5 16.5 42.5 43t15 56.5q-49 23 -103 23q-48 0 -73 -20t-25 -52q0 -30 23 -48.5t58 -18.5t62.5 16.5z" />
    <glyph glyph-name="Cacute" unicode="&#x106;" horiz-adv-x="746" 
d="M229 33.5q-86 49.5 -135.5 135t-49.5 189.5t49.5 189.5t135.5 135t190 49.5q162 0 268 -117l-95 -92q-71 81 -172 81q-67 0 -122 -30.5t-87 -86.5t-32 -129t32 -129t87 -86.5t122 -30.5q112 0 188 94l97 -91q-54 -64 -126 -97.5t-160 -33.5q-104 0 -190 49.5zM401 908
h153l-90 -136h-105z" />
    <glyph glyph-name="cacute" unicode="&#x107;" horiz-adv-x="559" 
d="M161 18q-60 34 -93.5 94t-33.5 136t33.5 136t93.5 94t135 34q83 0 142.5 -37.5t87.5 -102.5l-120 -50q-33 69 -111 69q-55 0 -92.5 -39.5t-37.5 -103.5t37.5 -103.5t92.5 -39.5q79 0 117 72l119 -52q-33 -66 -92.5 -103.5t-142.5 -37.5q-75 0 -135 34zM287 730h153
l-90 -136h-105z" />
    <glyph glyph-name="Ccircumflex" unicode="&#x108;" horiz-adv-x="746" 
d="M229 33.5q-86 49.5 -135.5 135t-49.5 189.5t49.5 189.5t135.5 135t190 49.5q162 0 268 -117l-95 -92q-71 81 -172 81q-67 0 -122 -30.5t-87 -86.5t-32 -129t32 -129t87 -86.5t122 -30.5q112 0 188 94l97 -91q-54 -64 -126 -97.5t-160 -33.5q-104 0 -190 49.5zM241 786
l114 126h114l114 -126v-8h-125l-40 59h-12l-40 -59h-125v8z" />
    <glyph glyph-name="ccircumflex" unicode="&#x109;" horiz-adv-x="559" 
d="M161 18q-60 34 -93.5 94t-33.5 136t33.5 136t93.5 94t135 34q83 0 142.5 -37.5t87.5 -102.5l-120 -50q-33 69 -111 69q-55 0 -92.5 -39.5t-37.5 -103.5t37.5 -103.5t92.5 -39.5q79 0 117 72l119 -52q-33 -66 -92.5 -103.5t-142.5 -37.5q-75 0 -135 34zM127 596l114 126
h114l114 -126v-8h-125l-40 59h-12l-40 -59h-125v8z" />
    <glyph glyph-name="Cdotaccent" unicode="&#x10a;" horiz-adv-x="746" 
d="M229 33.5q-86 49.5 -135.5 135t-49.5 189.5t49.5 189.5t135.5 135t190 49.5q162 0 268 -117l-95 -92q-71 81 -172 81q-67 0 -122 -30.5t-87 -86.5t-32 -129t32 -129t87 -86.5t122 -30.5q112 0 188 94l97 -91q-54 -64 -126 -97.5t-160 -33.5q-104 0 -190 49.5zM362 806
q-21 21 -21 50t21 50t50 21t49.5 -21t20.5 -50t-20.5 -50t-49.5 -21t-50 21z" />
    <glyph glyph-name="cdotaccent" unicode="&#x10b;" horiz-adv-x="559" 
d="M161 18q-60 34 -93.5 94t-33.5 136t33.5 136t93.5 94t135 34q83 0 142.5 -37.5t87.5 -102.5l-120 -50q-33 69 -111 69q-55 0 -92.5 -39.5t-37.5 -103.5t37.5 -103.5t92.5 -39.5q79 0 117 72l119 -52q-33 -66 -92.5 -103.5t-142.5 -37.5q-75 0 -135 34zM244.5 603.5
q-22.5 22.5 -22.5 53.5q0 32 22 54t54 22q31 0 53 -22t22 -54q0 -31 -22 -53.5t-53 -22.5t-53.5 22.5z" />
    <glyph glyph-name="Ccaron" unicode="&#x10c;" horiz-adv-x="746" 
d="M229 33.5q-86 49.5 -135.5 135t-49.5 189.5t49.5 189.5t135.5 135t190 49.5q162 0 268 -117l-95 -92q-71 81 -172 81q-67 0 -122 -30.5t-87 -86.5t-32 -129t32 -129t87 -86.5t122 -30.5q112 0 188 94l97 -91q-54 -64 -126 -97.5t-160 -33.5q-104 0 -190 49.5zM241 904v8
h125l40 -59h12l40 59h125v-8l-114 -126h-114z" />
    <glyph glyph-name="ccaron" unicode="&#x10d;" horiz-adv-x="559" 
d="M161 18q-60 34 -93.5 94t-33.5 136t33.5 136t93.5 94t135 34q83 0 142.5 -37.5t87.5 -102.5l-120 -50q-33 69 -111 69q-55 0 -92.5 -39.5t-37.5 -103.5t37.5 -103.5t92.5 -39.5q79 0 117 72l119 -52q-33 -66 -92.5 -103.5t-142.5 -37.5q-75 0 -135 34zM127 714v8h125
l40 -59h12l40 59h125v-8l-114 -126h-114z" />
    <glyph glyph-name="Dcaron" unicode="&#x10e;" horiz-adv-x="733" 
d="M79 716h242q112 0 195 -45t128 -126t45 -187t-45 -187t-128 -126t-195 -45h-242v716zM315 128q116 0 177.5 61.5t61.5 168.5t-61.5 168.5t-177.5 61.5h-101v-460h101zM177 904v8h125l40 -59h12l40 59h125v-8l-114 -126h-114z" />
    <glyph glyph-name="dcaron" unicode="&#x10f;" horiz-adv-x="729" 
d="M153.5 18q-54.5 34 -87 94t-32.5 136t32.5 136t87 94t119.5 34q52 0 91.5 -21t59.5 -54h8l-8 70v209h130v-716h-122v60h-8q-20 -33 -59.5 -54.5t-91.5 -21.5q-65 0 -119.5 34zM364 122.5q31 17.5 49.5 50t18.5 75.5t-18.5 75.5t-49.5 50t-66 17.5t-65.5 -17.5t-49 -50
t-18.5 -75.5q0 -42 18.5 -74.5t49 -50.5t65.5 -18t66 17.5zM609 716h138l-44 -215h-94v215z" />
    <glyph glyph-name="Dcroat" unicode="&#x110;" horiz-adv-x="725" 
d="M71 317h-73v110h73v289h242q112 0 195.5 -45t128 -126t44.5 -187t-44.5 -187t-128 -126t-195.5 -45h-242v317zM308 128q116 0 177 61.5t61 168.5t-61 168.5t-177 61.5h-102v-161h184v-110h-184v-189h102z" />
    <glyph glyph-name="dcroat" unicode="&#x111;" horiz-adv-x="612" 
d="M614 565h-60v-565h-122v60h-8q-20 -33 -59.5 -54.5t-91.5 -21.5q-65 0 -119.5 34t-87 94t-32.5 136t32.5 136t87 94t119.5 34q52 0 91.5 -21t59.5 -54h8l-8 69v59h-135v91h135v60h130v-60h60v-91zM364 122.5q31 17.5 49.5 50t18.5 75.5t-18.5 75.5t-49.5 50t-66 17.5
t-65.5 -17.5t-49 -50t-18.5 -75.5q0 -42 18.5 -74.5t49 -50.5t65.5 -18t66 17.5z" />
    <glyph glyph-name="Emacron" unicode="&#x112;" horiz-adv-x="589" 
d="M79 716h454v-128h-319v-166h287v-128h-287v-166h319v-128h-454v716zM158 893h296v-100h-296v100z" />
    <glyph glyph-name="emacron" unicode="&#x113;" horiz-adv-x="572" 
d="M161.5 18q-59.5 34 -93.5 94.5t-34 135.5q0 71 33.5 131.5t92 96.5t131.5 36q78 0 133.5 -33.5t84.5 -91.5t29 -132q0 -13 -1 -24q-1 -12 -1 -13h-373q8 -57 46.5 -87.5t88.5 -30.5q82 0 124 72l108 -53q-36 -64 -95 -99.5t-139 -35.5q-75 0 -134.5 34zM412 311
q-2 21 -16.5 43t-41 36.5t-63.5 14.5q-43 0 -76 -25.5t-46 -68.5h243zM144 715h296v-100h-296v100z" />
    <glyph glyph-name="Ebreve" unicode="&#x114;" horiz-adv-x="589" 
d="M79 716h454v-128h-319v-166h287v-128h-287v-166h319v-128h-454v716zM239.5 780.5q-31.5 17.5 -50.5 49t-19 69.5h93q0 -19 12 -32.5t32 -13.5q19 0 31 13.5t12 32.5h92q0 -38 -18.5 -69.5t-49.5 -49t-67 -17.5t-67.5 17.5z" />
    <glyph glyph-name="ebreve" unicode="&#x115;" horiz-adv-x="572" 
d="M161.5 18q-59.5 34 -93.5 94.5t-34 135.5q0 71 33.5 131.5t92 96.5t131.5 36q78 0 133.5 -33.5t84.5 -91.5t29 -132q0 -13 -1 -24q-1 -12 -1 -13h-373q8 -57 46.5 -87.5t88.5 -30.5q82 0 124 72l108 -53q-36 -64 -95 -99.5t-139 -35.5q-75 0 -134.5 34zM412 311
q-2 21 -16.5 43t-41 36.5t-63.5 14.5q-43 0 -76 -25.5t-46 -68.5h243zM225.5 602.5q-31.5 17.5 -50.5 49t-19 69.5h93q0 -19 12 -32.5t32 -13.5q19 0 31 13.5t12 32.5h92q0 -38 -18.5 -69.5t-49.5 -49t-67 -17.5t-67.5 17.5z" />
    <glyph glyph-name="Edotaccent" unicode="&#x116;" horiz-adv-x="589" 
d="M79 716h454v-128h-319v-166h287v-128h-287v-166h319v-128h-454v716zM256 806q-21 21 -21 50t21 50t50 21t49.5 -21t20.5 -50t-20.5 -50t-49.5 -21t-50 21z" />
    <glyph glyph-name="edotaccent" unicode="&#x117;" horiz-adv-x="572" 
d="M161.5 18q-59.5 34 -93.5 94.5t-34 135.5q0 71 33.5 131.5t92 96.5t131.5 36q78 0 133.5 -33.5t84.5 -91.5t29 -132q0 -13 -1 -24q-1 -12 -1 -13h-373q8 -57 46.5 -87.5t88.5 -30.5q82 0 124 72l108 -53q-36 -64 -95 -99.5t-139 -35.5q-75 0 -134.5 34zM412 311
q-2 21 -16.5 43t-41 36.5t-63.5 14.5q-43 0 -76 -25.5t-46 -68.5h243zM238.5 603.5q-22.5 22.5 -22.5 53.5q0 32 22 54t54 22q31 0 53 -22t22 -54q0 -31 -22 -53.5t-53 -22.5t-53.5 22.5z" />
    <glyph glyph-name="Eogonek" unicode="&#x118;" horiz-adv-x="589" 
d="M388 -192.5q-35 31.5 -35 83.5q0 36 19 63.5t44 45.5h-337v716h454v-128h-319v-166h287v-128h-287v-166h319v-128q-33 -23 -51 -43.5t-18 -44.5q0 -18 11 -29.5t29 -11.5t40 11v-95q-23 -11 -61 -11q-60 0 -95 31.5z" />
    <glyph glyph-name="eogonek" unicode="&#x119;" horiz-adv-x="572" 
d="M272 -193q-35 31 -35 76q0 61 53 101h-2q-73 1 -130.5 35.5t-90.5 94.5t-33 134q0 71 33.5 131.5t92 96.5t131.5 36q78 0 133.5 -33.5t84.5 -91.5t29 -132q0 -13 -1 -24q-1 -12 -1 -13h-373q8 -57 46.5 -87.5t88.5 -30.5q82 0 124 72l108 -53q-31 -54 -83 -92
q-56 -41 -77.5 -65.5t-21.5 -50.5q0 -17 11 -28.5t29 -11.5t40 11v-95q-24 -11 -62 -11q-59 0 -94 31zM412 311q-2 21 -16.5 43t-41 36.5t-63.5 14.5q-43 0 -76 -25.5t-46 -68.5h243z" />
    <glyph glyph-name="Ecaron" unicode="&#x11a;" horiz-adv-x="589" 
d="M79 716h454v-128h-319v-166h287v-128h-287v-166h319v-128h-454v716zM135 904v8h125l40 -59h12l40 59h125v-8l-114 -126h-114z" />
    <glyph glyph-name="ecaron" unicode="&#x11b;" horiz-adv-x="572" 
d="M161.5 18q-59.5 34 -93.5 94.5t-34 135.5q0 71 33.5 131.5t92 96.5t131.5 36q78 0 133.5 -33.5t84.5 -91.5t29 -132q0 -13 -1 -24q-1 -12 -1 -13h-373q8 -57 46.5 -87.5t88.5 -30.5q82 0 124 72l108 -53q-36 -64 -95 -99.5t-139 -35.5q-75 0 -134.5 34zM412 311
q-2 21 -16.5 43t-41 36.5t-63.5 14.5q-43 0 -76 -25.5t-46 -68.5h243zM121 714v8h125l40 -59h12l40 59h125v-8l-114 -126h-114z" />
    <glyph glyph-name="Gcircumflex" unicode="&#x11c;" horiz-adv-x="822" 
d="M232.5 32.5q-86.5 48.5 -137.5 134t-51 191.5t51 191.5t137.5 134t189.5 48.5q84 0 153.5 -29.5t118.5 -83.5l-93 -91q-36 38 -79.5 57t-101.5 19q-65 0 -120.5 -31t-88 -87t-32.5 -128t33 -128t88.5 -87t121.5 -31q99 0 165 59q20 19 34.5 46.5t21.5 60.5h-224v115h351
q7 -28 7 -63q0 -71 -21.5 -132t-65.5 -107q-49 -52 -116.5 -79.5t-151.5 -27.5q-103 0 -189.5 48.5zM251 786l114 126h114l114 -126v-8h-125l-40 59h-12l-40 -59h-125v8z" />
    <glyph glyph-name="gcircumflex" unicode="&#x11d;" horiz-adv-x="612" 
d="M175 -210.5q-51 21.5 -83 55t-45 71.5l125 50q14 -38 46 -60t73 -22q61 0 97.5 39t36.5 107v36h-8q-24 -33 -62 -51.5t-88 -18.5q-60 0 -113.5 32.5t-86.5 91t-33 134.5t33 135t86.5 91t113.5 32q50 0 88.5 -18t61.5 -51h8v53h125v-461q0 -81 -32.5 -141.5t-91 -93
t-135.5 -32.5q-65 0 -116 21.5zM358.5 131.5q29.5 16.5 48 48t18.5 74.5q0 44 -18 75.5t-48 47.5t-64 16t-63.5 -16.5t-48 -48t-18.5 -74.5t18.5 -74.5t48 -48t63.5 -16.5t63.5 16.5zM124 596l114 126h114l114 -126v-8h-125l-40 59h-12l-40 -59h-125v8z" />
    <glyph glyph-name="Gbreve" unicode="&#x11e;" horiz-adv-x="822" 
d="M232.5 32.5q-86.5 48.5 -137.5 134t-51 191.5t51 191.5t137.5 134t189.5 48.5q84 0 153.5 -29.5t118.5 -83.5l-93 -91q-36 38 -79.5 57t-101.5 19q-65 0 -120.5 -31t-88 -87t-32.5 -128t33 -128t88.5 -87t121.5 -31q99 0 165 59q20 19 34.5 46.5t21.5 60.5h-224v115h351
q7 -28 7 -63q0 -71 -21.5 -132t-65.5 -107q-49 -52 -116.5 -79.5t-151.5 -27.5q-103 0 -189.5 48.5zM355.5 780.5q-31.5 17.5 -50.5 49t-19 69.5h93q0 -19 12 -32.5t32 -13.5q19 0 31 13.5t12 32.5h92q0 -38 -18.5 -69.5t-49.5 -49t-67 -17.5t-67.5 17.5z" />
    <glyph glyph-name="gbreve" unicode="&#x11f;" horiz-adv-x="612" 
d="M175 -210.5q-51 21.5 -83 55t-45 71.5l125 50q14 -38 46 -60t73 -22q61 0 97.5 39t36.5 107v36h-8q-24 -33 -62 -51.5t-88 -18.5q-60 0 -113.5 32.5t-86.5 91t-33 134.5t33 135t86.5 91t113.5 32q50 0 88.5 -18t61.5 -51h8v53h125v-461q0 -81 -32.5 -141.5t-91 -93
t-135.5 -32.5q-65 0 -116 21.5zM358.5 131.5q29.5 16.5 48 48t18.5 74.5q0 44 -18 75.5t-48 47.5t-64 16t-63.5 -16.5t-48 -48t-18.5 -74.5t18.5 -74.5t48 -48t63.5 -16.5t63.5 16.5zM228.5 602.5q-31.5 17.5 -50.5 49t-19 69.5h93q0 -19 12 -32.5t32 -13.5q19 0 31 13.5
t12 32.5h92q0 -38 -18.5 -69.5t-49.5 -49t-67 -17.5t-67.5 17.5z" />
    <glyph glyph-name="Gdotaccent" unicode="&#x120;" horiz-adv-x="822" 
d="M232.5 32.5q-86.5 48.5 -137.5 134t-51 191.5t51 191.5t137.5 134t189.5 48.5q84 0 153.5 -29.5t118.5 -83.5l-93 -91q-36 38 -79.5 57t-101.5 19q-65 0 -120.5 -31t-88 -87t-32.5 -128t33 -128t88.5 -87t121.5 -31q99 0 165 59q20 19 34.5 46.5t21.5 60.5h-224v115h351
q7 -28 7 -63q0 -71 -21.5 -132t-65.5 -107q-49 -52 -116.5 -79.5t-151.5 -27.5q-103 0 -189.5 48.5zM372 806q-21 21 -21 50t21 50t50 21t49.5 -21t20.5 -50t-20.5 -50t-49.5 -21t-50 21z" />
    <glyph glyph-name="gdotaccent" unicode="&#x121;" horiz-adv-x="612" 
d="M175 -210.5q-51 21.5 -83 55t-45 71.5l125 50q14 -38 46 -60t73 -22q61 0 97.5 39t36.5 107v36h-8q-24 -33 -62 -51.5t-88 -18.5q-60 0 -113.5 32.5t-86.5 91t-33 134.5t33 135t86.5 91t113.5 32q50 0 88.5 -18t61.5 -51h8v53h125v-461q0 -81 -32.5 -141.5t-91 -93
t-135.5 -32.5q-65 0 -116 21.5zM358.5 131.5q29.5 16.5 48 48t18.5 74.5q0 44 -18 75.5t-48 47.5t-64 16t-63.5 -16.5t-48 -48t-18.5 -74.5t18.5 -74.5t48 -48t63.5 -16.5t63.5 16.5zM241.5 603.5q-22.5 22.5 -22.5 53.5q0 32 22 54t54 22q31 0 53 -22t22 -54
q0 -31 -22 -53.5t-53 -22.5t-53.5 22.5z" />
    <glyph glyph-name="Gcommaaccent" unicode="&#x122;" horiz-adv-x="822" 
d="M232.5 32.5q-86.5 48.5 -137.5 134t-51 191.5t51 191.5t137.5 134t189.5 48.5q84 0 153.5 -29.5t118.5 -83.5l-93 -91q-36 38 -79.5 57t-101.5 19q-65 0 -120.5 -31t-88 -87t-32.5 -128t33 -128t88.5 -87t121.5 -31q99 0 165 59q20 19 34.5 46.5t21.5 60.5h-224v115h351
q7 -28 7 -63q0 -71 -21.5 -132t-65.5 -107q-49 -52 -116.5 -79.5t-151.5 -27.5q-103 0 -189.5 48.5zM338 -253l45 70q-20 8 -31.5 25t-11.5 39q0 29 20.5 50t50.5 21t50.5 -21t20.5 -51q0 -21 -13 -44l-82 -121z" />
    <glyph glyph-name="gcommaaccent" unicode="&#x123;" horiz-adv-x="612" 
d="M175 -210.5q-51 21.5 -83 55t-45 71.5l125 50q14 -38 46 -60t73 -22q61 0 97.5 39t36.5 107v36h-8q-24 -33 -62 -51.5t-88 -18.5q-60 0 -113.5 32.5t-86.5 91t-33 134.5t33 135t86.5 91t113.5 32q50 0 88.5 -18t61.5 -51h8v53h125v-461q0 -81 -32.5 -141.5t-91 -93
t-135.5 -32.5q-65 0 -116 21.5zM358.5 131.5q29.5 16.5 48 48t18.5 74.5q0 44 -18 75.5t-48 47.5t-64 16t-63.5 -16.5t-48 -48t-18.5 -74.5t18.5 -74.5t48 -48t63.5 -16.5t63.5 16.5zM352 783l-45 -70q20 -8 31.5 -25t11.5 -39q0 -29 -20.5 -50t-50.5 -21t-50.5 21t-20.5 51
q0 21 13 44l82 121z" />
    <glyph glyph-name="Hcircumflex" unicode="&#x124;" horiz-adv-x="729" 
d="M79 716h135v-286h302v286h134v-716h-134v302h-302v-302h-135v716zM194 786l114 126h114l114 -126v-8h-125l-40 59h-12l-40 -59h-125v8z" />
    <glyph glyph-name="hcircumflex" unicode="&#x125;" horiz-adv-x="590" 
d="M62 716h131v-194l-8 -90h8q21 36 61.5 58t89.5 22q93 0 140.5 -55t47.5 -154v-303h-131v287q0 50 -25 77t-68 27q-52 0 -83.5 -42t-31.5 -104v-245h-131v716zM133 774l114 126h114l114 -126v-8h-125l-40 59h-12l-40 -59h-125v8z" />
    <glyph glyph-name="Hbar" unicode="&#x126;" horiz-adv-x="729" 
d="M713 493h-63v-493h-134v302h-302v-302h-135v493h-63v98h63v125h135v-125h302v125h134v-125h63v-98zM516 493h-302v-63h302v63z" />
    <glyph glyph-name="hbar" unicode="&#x127;" horiz-adv-x="590" 
d="M484.5 457q47.5 -55 47.5 -154v-303h-131v287q0 50 -25 77t-68 27q-52 0 -83.5 -42t-31.5 -104v-245h-131v565h-58v91h58v60h131v-60h136v-91h-136v-43l-8 -90h8q21 36 61.5 58t89.5 22q93 0 140.5 -55z" />
    <glyph glyph-name="Itilde" unicode="&#x128;" horiz-adv-x="293" 
d="M79 716h135v-716h-135v716zM166 778.5q-19 7.5 -43 20.5q-2 1 -15 8t-21 7q-25 0 -26 -29h-92q0 62 33.5 95t82.5 33q23 0 41 -7t46 -22q25 -14 33 -14q13 0 19 7t8 22h92q0 -62 -34 -95t-83 -33q-22 0 -41 7.5z" />
    <glyph glyph-name="itilde" unicode="&#x129;" horiz-adv-x="271" 
d="M70 496h131v-496h-131v496zM155 600.5q-19 7.5 -43 20.5q-2 1 -15 8t-21 7q-25 0 -26 -29h-92q0 62 33.5 95t82.5 33q23 0 41 -7t46 -22q25 -14 33 -14q13 0 19 7t8 22h92q0 -62 -34 -95t-83 -33q-22 0 -41 7.5z" />
    <glyph glyph-name="Imacron" unicode="&#x12a;" horiz-adv-x="293" 
d="M9 893h275v-100h-275v100zM79 716h135v-716h-135v716z" />
    <glyph glyph-name="imacron" unicode="&#x12b;" horiz-adv-x="271" 
d="M70 496h131v-496h-131v496zM-13 715h296v-100h-296v100z" />
    <glyph glyph-name="Ibreve" unicode="&#x12c;" horiz-adv-x="293" 
d="M79 716h135v-716h-135v716zM79.5 780.5q-31.5 17.5 -50.5 49t-19 69.5h93q0 -19 12 -32.5t32 -13.5q19 0 31 13.5t12 32.5h92q0 -38 -18.5 -69.5t-49.5 -49t-67 -17.5t-67.5 17.5z" />
    <glyph glyph-name="ibreve" unicode="&#x12d;" horiz-adv-x="271" 
d="M70 496h131v-496h-131v496zM68.5 602.5q-31.5 17.5 -50.5 49t-19 69.5h93q0 -19 12 -32.5t32 -13.5q19 0 31 13.5t12 32.5h92q0 -38 -18.5 -69.5t-49.5 -49t-67 -17.5t-67.5 17.5z" />
    <glyph glyph-name="Iogonek" unicode="&#x12e;" horiz-adv-x="293" 
d="M69 -192.5q-35 31.5 -35 83.5q0 58 56 104l-2 5h-9v716h135v-716q-33 -23 -51 -43.5t-18 -44.5q0 -18 11 -29.5t29 -11.5t40 11v-95q-24 -11 -62 -11q-59 0 -94 31.5z" />
    <glyph glyph-name="iogonek" unicode="&#x12f;" horiz-adv-x="271" 
d="M75.5 587q-24.5 25 -24.5 60t25 59.5t59 24.5q35 0 60 -24.5t25 -59.5t-25 -60t-60 -25t-59.5 25zM56 -192.5q-35 31.5 -35 83.5q0 57 54 102l-5 7v496h131v-496q-33 -23 -51 -43.5t-18 -44.5q0 -18 11 -29.5t29 -11.5t40 11v-95q-24 -11 -62 -11q-59 0 -94 31.5z" />
    <glyph glyph-name="Idotaccent" unicode="&#x130;" horiz-adv-x="293" 
d="M79 716h135v-716h-135v716zM96 806q-21 21 -21 50t21 50t50 21t49.5 -21t20.5 -50t-20.5 -50t-49.5 -21t-50 21z" />
    <glyph glyph-name="dotlessi" unicode="&#x131;" horiz-adv-x="271" 
d="M70 496h131v-496h-131v496z" />
    <glyph glyph-name="Jcircumflex" unicode="&#x134;" horiz-adv-x="564" 
d="M115 30.5q-64 46.5 -89 126.5l124 51q13 -47 42 -71.5t71 -24.5q47 0 73.5 30t26.5 84v490h134v-489q0 -78 -31 -132.5t-84 -82.5t-119 -28q-84 0 -148 46.5zM259 786l114 126h114l114 -126v-8h-125l-40 59h-12l-40 -59h-125v8z" />
    <glyph glyph-name="jcircumflex" unicode="&#x135;" horiz-adv-x="271" 
d="M-27 -219v127q26 -14 52 -14q45 0 45 59v543h131v-546q0 -90 -45 -133t-116 -43q-39 0 -67 7zM-36 596l114 126h114l114 -126v-8h-125l-40 59h-12l-40 -59h-125v8z" />
    <glyph glyph-name="Kcommaaccent" unicode="&#x136;" horiz-adv-x="679" 
d="M79 716h135v-307h8l262 307h163v-8l-259 -296l286 -404v-8h-165l-213 305l-82 -95v-210h-135v716zM272 -253l45 70q-20 8 -31.5 25t-11.5 39q0 29 20.5 50t50.5 21t50.5 -21t20.5 -51q0 -21 -13 -44l-82 -121z" />
    <glyph glyph-name="kcommaaccent" unicode="&#x137;" horiz-adv-x="546" 
d="M62 716h131v-390h6l170 170h162v-8l-185 -181l198 -299v-8h-155l-136 217l-60 -59v-158h-131v716zM210 -253l45 70q-20 8 -31.5 25t-11.5 39q0 29 20.5 50t50.5 21t50.5 -21t20.5 -51q0 -21 -13 -44l-82 -121z" />
    <glyph glyph-name="kgreenlandic" unicode="&#x138;" horiz-adv-x="529" 
d="M62 496h131v-212h8l161 212h154v-8l-178 -226l189 -254v-8h-154l-172 237h-8v-237h-131v496z" />
    <glyph glyph-name="Lacute" unicode="&#x139;" horiz-adv-x="546" 
d="M79 716h135v-588h303v-128h-438v716zM135 908h153l-90 -136h-105z" />
    <glyph glyph-name="lacute" unicode="&#x13a;" horiz-adv-x="255" 
d="M62 716h131v-716h-131v716zM116 908h153l-90 -136h-105z" />
    <glyph glyph-name="Lcommaaccent" unicode="&#x13b;" horiz-adv-x="546" 
d="M79 716h135v-588h303v-128h-438v716zM225 -253l45 70q-20 8 -31.5 25t-11.5 39q0 29 20.5 50t50.5 21t50.5 -21t20.5 -51q0 -21 -13 -44l-82 -121z" />
    <glyph glyph-name="lcommaaccent" unicode="&#x13c;" horiz-adv-x="255" 
d="M62 716h131v-716h-131v716zM54 -253l45 70q-20 8 -31.5 25t-11.5 39q0 29 20.5 50t50.5 21t50.5 -21t20.5 -51q0 -21 -13 -44l-82 -121z" />
    <glyph glyph-name="Lcaron" unicode="&#x13d;" horiz-adv-x="546" 
d="M79 716h135v-588h303v-128h-438v716zM356 716h138l-44 -215h-94v215z" />
    <glyph glyph-name="lcaron" unicode="&#x13e;" horiz-adv-x="395" 
d="M62 716h131v-716h-131v716zM275 716h138l-44 -215h-94v215z" />
    <glyph glyph-name="Ldot" unicode="&#x13f;" horiz-adv-x="546" 
d="M79 716h135v-588h303v-128h-438v716zM328.5 282.5q-25.5 25.5 -25.5 61.5t25.5 61.5t61.5 25.5t61 -25.5t25 -61.5t-25 -61.5t-61 -25.5t-61.5 25.5z" />
    <glyph glyph-name="Lslash" unicode="&#x141;" horiz-adv-x="628" 
d="M161 247l-54 -33l-59 93l113 71v338h134v-251l111 69l57 -92l-168 -105v-209h304v-128h-438v247z" />
    <glyph glyph-name="lslash" unicode="&#x142;" horiz-adv-x="429" 
d="M146 262l-46 -33l-65 86l111 81v320h131v-229l61 45l65 -87l-126 -92v-353h-131v262z" />
    <glyph glyph-name="Nacute" unicode="&#x143;" horiz-adv-x="737" 
d="M79 716h157l288 -480h8l-8 138v342h134v-716h-142l-304 507h-8l8 -138v-369h-133v716zM369 908h153l-90 -136h-105z" />
    <glyph glyph-name="nacute" unicode="&#x144;" horiz-adv-x="589" 
d="M62 496h123v-64h8q23 37 63 58.5t90 21.5q91 0 138 -56t47 -153v-303h-131v287q0 51 -24.5 77.5t-68.5 26.5q-53 0 -83.5 -41t-30.5 -104v-246h-131v496zM295 730h153l-90 -136h-105z" />
    <glyph glyph-name="Ncommaaccent" unicode="&#x145;" horiz-adv-x="737" 
d="M79 716h157l288 -480h8l-8 138v342h134v-716h-142l-304 507h-8l8 -138v-369h-133v716zM295 -253l45 70q-20 8 -31.5 25t-11.5 39q0 29 20.5 50t50.5 21t50.5 -21t20.5 -51q0 -21 -13 -44l-82 -121z" />
    <glyph glyph-name="ncommaaccent" unicode="&#x146;" horiz-adv-x="589" 
d="M62 496h123v-64h8q23 37 63 58.5t90 21.5q91 0 138 -56t47 -153v-303h-131v287q0 51 -24.5 77.5t-68.5 26.5q-53 0 -83.5 -41t-30.5 -104v-246h-131v496zM224 -253l45 70q-20 8 -31.5 25t-11.5 39q0 29 20.5 50t50.5 21t50.5 -21t20.5 -51q0 -21 -13 -44l-82 -121z" />
    <glyph glyph-name="Ncaron" unicode="&#x147;" horiz-adv-x="737" 
d="M79 716h157l288 -480h8l-8 138v342h134v-716h-142l-304 507h-8l8 -138v-369h-133v716zM209 904v8h125l40 -59h12l40 59h125v-8l-114 -126h-114z" />
    <glyph glyph-name="ncaron" unicode="&#x148;" horiz-adv-x="589" 
d="M62 496h123v-64h8q23 37 63 58.5t90 21.5q91 0 138 -56t47 -153v-303h-131v287q0 51 -24.5 77.5t-68.5 26.5q-53 0 -83.5 -41t-30.5 -104v-246h-131v496zM135 714v8h125l40 -59h12l40 59h125v-8l-114 -126h-114z" />
    <glyph glyph-name="Eng" unicode="&#x14a;" horiz-adv-x="737" 
d="M428 -219v126q24 -13 51 -13q24 0 34.5 14.5t10.5 44.5v48l-312 506h-8l8 -138v-369h-133v716h157l288 -470h8l-8 138v332h134v-766q0 -90 -46 -133t-118 -43q-38 0 -66 7z" />
    <glyph glyph-name="eng" unicode="&#x14b;" horiz-adv-x="589" 
d="M303 -219v127q26 -14 52 -14q45 0 45 59v334q0 51 -24.5 77.5t-68.5 26.5q-53 0 -83.5 -41t-30.5 -104v-246h-131v496h123v-64h8q23 37 63 58.5t90 21.5q91 0 138 -56t47 -153v-353q0 -90 -45 -133t-116 -43q-39 0 -67 7z" />
    <glyph glyph-name="Omacron" unicode="&#x14c;" horiz-adv-x="835" 
d="M227.5 33.5q-85.5 49.5 -134.5 135.5t-49 189t49 189t134.5 135.5t190.5 49.5t190.5 -49.5t134.5 -135.5t49 -189t-49 -189t-134.5 -135.5t-190.5 -49.5t-190.5 49.5zM538.5 143q54.5 31 86 87t31.5 128t-31.5 128t-86 87t-120.5 31t-121 -31t-86.5 -87t-31.5 -128
t31.5 -128t86.5 -87t121 -31t120.5 31zM270 893h296v-100h-296v100z" />
    <glyph glyph-name="omacron" unicode="&#x14d;" horiz-adv-x="595" 
d="M162 18q-60 34 -94 94.5t-34 135.5q0 76 34 136t94 94t136 34q75 0 135 -34t94 -94.5t34 -135.5t-34 -135.5t-94 -94.5t-135 -34q-76 0 -136 34zM363.5 122.5q30.5 17.5 48.5 50t18 75.5t-18 75.5t-48.5 50t-65.5 17.5q-36 0 -66.5 -17.5t-48.5 -50t-18 -75.5t18 -75.5
t48.5 -50t66.5 -17.5q35 0 65.5 17.5zM150 715h296v-100h-296v100z" />
    <glyph glyph-name="Obreve" unicode="&#x14e;" horiz-adv-x="835" 
d="M227.5 33.5q-85.5 49.5 -134.5 135.5t-49 189t49 189t134.5 135.5t190.5 49.5t190.5 -49.5t134.5 -135.5t49 -189t-49 -189t-134.5 -135.5t-190.5 -49.5t-190.5 49.5zM538.5 143q54.5 31 86 87t31.5 128t-31.5 128t-86 87t-120.5 31t-121 -31t-86.5 -87t-31.5 -128
t31.5 -128t86.5 -87t121 -31t120.5 31zM351.5 780.5q-31.5 17.5 -50.5 49t-19 69.5h93q0 -19 12 -32.5t32 -13.5q19 0 31 13.5t12 32.5h92q0 -38 -18.5 -69.5t-49.5 -49t-67 -17.5t-67.5 17.5z" />
    <glyph glyph-name="obreve" unicode="&#x14f;" horiz-adv-x="595" 
d="M162 18q-60 34 -94 94.5t-34 135.5q0 76 34 136t94 94t136 34q75 0 135 -34t94 -94.5t34 -135.5t-34 -135.5t-94 -94.5t-135 -34q-76 0 -136 34zM363.5 122.5q30.5 17.5 48.5 50t18 75.5t-18 75.5t-48.5 50t-65.5 17.5q-36 0 -66.5 -17.5t-48.5 -50t-18 -75.5t18 -75.5
t48.5 -50t66.5 -17.5q35 0 65.5 17.5zM231.5 602.5q-31.5 17.5 -50.5 49t-19 69.5h93q0 -19 12 -32.5t32 -13.5q19 0 31 13.5t12 32.5h92q0 -38 -18.5 -69.5t-49.5 -49t-67 -17.5t-67.5 17.5z" />
    <glyph glyph-name="Ohungarumlaut" unicode="&#x150;" horiz-adv-x="835" 
d="M227.5 33.5q-85.5 49.5 -134.5 135.5t-49 189t49 189t134.5 135.5t190.5 49.5t190.5 -49.5t134.5 -135.5t49 -189t-49 -189t-134.5 -135.5t-190.5 -49.5t-190.5 49.5zM538.5 143q54.5 31 86 87t31.5 128t-31.5 128t-86 87t-120.5 31t-121 -31t-86.5 -87t-31.5 -128
t31.5 -128t86.5 -87t121 -31t120.5 31zM309 908h153l-90 -136h-105zM507 908h153l-90 -136h-105z" />
    <glyph glyph-name="ohungarumlaut" unicode="&#x151;" horiz-adv-x="595" 
d="M162 18q-60 34 -94 94.5t-34 135.5q0 76 34 136t94 94t136 34q75 0 135 -34t94 -94.5t34 -135.5t-34 -135.5t-94 -94.5t-135 -34q-76 0 -136 34zM363.5 122.5q30.5 17.5 48.5 50t18 75.5t-18 75.5t-48.5 50t-65.5 17.5q-36 0 -66.5 -17.5t-48.5 -50t-18 -75.5t18 -75.5
t48.5 -50t66.5 -17.5q35 0 65.5 17.5zM189 730h153l-90 -136h-105zM387 730h153l-90 -136h-105z" />
    <glyph glyph-name="OE" unicode="&#x152;" horiz-adv-x="1156" 
d="M223 34q-83 50 -131 135.5t-48 188.5t48 188.5t131 135.5t182 50q78 0 138.5 -24.5t95.5 -67.5h7v76h454v-128h-319v-166h287v-128h-287v-166h319v-128h-454v75h-7q-36 -43 -96 -67t-138 -24q-99 0 -182 50zM538.5 143q54.5 31 86 87t31.5 128t-31.5 128t-86 87
t-120.5 31t-121 -31t-86.5 -87t-31.5 -128t31.5 -128t86.5 -87t121 -31t120.5 31z" />
    <glyph glyph-name="oe" unicode="&#x153;" horiz-adv-x="971" 
d="M162 18q-60 34 -94 94.5t-34 135.5q0 76 34 136t94 94t136 34q122 0 199 -100q34 46 84 73t108 27q78 0 134 -33.5t85 -91.5t29 -132q0 -13 -1 -24q-2 -12 -2 -13h-374q9 -57 47.5 -87.5t88.5 -30.5q43 0 74 19.5t50 52.5l108 -53q-36 -64 -95 -99.5t-139 -35.5
q-63 0 -114 27t-83 73q-76 -100 -199 -100q-76 0 -136 34zM810 311q-2 21 -16.5 43t-41 36.5t-63.5 14.5q-43 0 -76 -25.5t-46 -68.5h243zM363.5 122.5q30.5 17.5 48.5 50t18 75.5t-18 75.5t-48.5 50t-65.5 17.5q-36 0 -66.5 -17.5t-48.5 -50t-18 -75.5t18 -75.5t48.5 -50
t66.5 -17.5q35 0 65.5 17.5z" />
    <glyph glyph-name="Racute" unicode="&#x154;" horiz-adv-x="630" 
d="M79 716h261q70 0 124.5 -29t84.5 -80.5t30 -116.5q0 -69 -43.5 -122.5t-109.5 -77.5l-1 -7l192 -275v-8h-155l-185 269h-63v-269h-135v716zM339 393q46 0 75.5 28t29.5 71q0 41 -27.5 70t-75.5 29h-127v-198h125zM293 908h153l-90 -136h-105z" />
    <glyph glyph-name="racute" unicode="&#x155;" horiz-adv-x="418" 
d="M62 496h123v-68h8q18 36 57.5 59.5t84.5 23.5q34 0 62 -11v-131q-43 18 -83 18q-55 0 -88 -40.5t-33 -102.5v-244h-131v496zM217 730h153l-90 -136h-105z" />
    <glyph glyph-name="Rcommaaccent" unicode="&#x156;" horiz-adv-x="630" 
d="M79 716h261q70 0 124.5 -29t84.5 -80.5t30 -116.5q0 -69 -43.5 -122.5t-109.5 -77.5l-1 -7l192 -275v-8h-155l-185 269h-63v-269h-135v716zM339 393q46 0 75.5 28t29.5 71q0 41 -27.5 70t-75.5 29h-127v-198h125zM242 -253l45 70q-20 8 -31.5 25t-11.5 39q0 29 20.5 50
t50.5 21t50.5 -21t20.5 -51q0 -21 -13 -44l-82 -121z" />
    <glyph glyph-name="rcommaaccent" unicode="&#x157;" horiz-adv-x="418" 
d="M62 496h123v-68h8q18 36 57.5 59.5t84.5 23.5q34 0 62 -11v-131q-43 18 -83 18q-55 0 -88 -40.5t-33 -102.5v-244h-131v496zM54 -253l45 70q-20 8 -31.5 25t-11.5 39q0 29 20.5 50t50.5 21t50.5 -21t20.5 -51q0 -21 -13 -44l-82 -121z" />
    <glyph glyph-name="Rcaron" unicode="&#x158;" horiz-adv-x="630" 
d="M79 716h261q70 0 124.5 -29t84.5 -80.5t30 -116.5q0 -69 -43.5 -122.5t-109.5 -77.5l-1 -7l192 -275v-8h-155l-185 269h-63v-269h-135v716zM339 393q46 0 75.5 28t29.5 71q0 41 -27.5 70t-75.5 29h-127v-198h125zM133 904v8h125l40 -59h12l40 59h125v-8l-114 -126h-114z
" />
    <glyph glyph-name="rcaron" unicode="&#x159;" horiz-adv-x="418" 
d="M62 496h123v-68h8q18 36 57.5 59.5t84.5 23.5q34 0 62 -11v-131q-43 18 -83 18q-55 0 -88 -40.5t-33 -102.5v-244h-131v496zM57 714v8h125l40 -59h12l40 59h125v-8l-114 -126h-114z" />
    <glyph glyph-name="Sacute" unicode="&#x15a;" horiz-adv-x="585" 
d="M130 37q-72 53 -101 150l127 50q15 -57 51 -91t90 -34q45 0 77 22.5t32 62.5t-30.5 65.5t-108.5 54.5l-44 16q-69 24 -118 73.5t-49 124.5q0 56 29 102t82 72.5t120 26.5q97 0 153 -45.5t77 -106.5l-119 -50q-11 33 -38.5 55.5t-70.5 22.5q-44 0 -72.5 -20.5t-28.5 -53.5
q0 -32 27 -54.5t89 -43.5l45 -15q93 -32 142.5 -84.5t49.5 -137.5q0 -70 -36 -118.5t-92.5 -72.5t-116.5 -24q-94 0 -166 53zM278 908h153l-90 -136h-105z" />
    <glyph glyph-name="sacute" unicode="&#x15b;" horiz-adv-x="494" 
d="M106.5 23.5q-56.5 39.5 -80.5 99.5l117 50q16 -37 44.5 -55.5t66.5 -18.5q34 0 56 12.5t22 33.5t-18.5 33.5t-61.5 22.5l-66 15q-56 12 -98 49.5t-42 94.5q0 69 57 110.5t143 41.5q74 0 128 -28t79 -85l-112 -48q-14 28 -39.5 41.5t-55.5 13.5t-50.5 -11.5t-20.5 -30.5
q0 -18 16.5 -28.5t48.5 -18.5l75 -19q74 -18 112 -57t38 -94q0 -45 -27 -82t-75.5 -59t-108.5 -22q-91 0 -147.5 39.5zM235 730h153l-90 -136h-105z" />
    <glyph glyph-name="Scircumflex" unicode="&#x15c;" horiz-adv-x="585" 
d="M130 37q-72 53 -101 150l127 50q15 -57 51 -91t90 -34q45 0 77 22.5t32 62.5t-30.5 65.5t-108.5 54.5l-44 16q-69 24 -118 73.5t-49 124.5q0 56 29 102t82 72.5t120 26.5q97 0 153 -45.5t77 -106.5l-119 -50q-11 33 -38.5 55.5t-70.5 22.5q-44 0 -72.5 -20.5t-28.5 -53.5
q0 -32 27 -54.5t89 -43.5l45 -15q93 -32 142.5 -84.5t49.5 -137.5q0 -70 -36 -118.5t-92.5 -72.5t-116.5 -24q-94 0 -166 53zM118 786l114 126h114l114 -126v-8h-125l-40 59h-12l-40 -59h-125v8z" />
    <glyph glyph-name="scircumflex" unicode="&#x15d;" horiz-adv-x="494" 
d="M106.5 23.5q-56.5 39.5 -80.5 99.5l117 50q16 -37 44.5 -55.5t66.5 -18.5q34 0 56 12.5t22 33.5t-18.5 33.5t-61.5 22.5l-66 15q-56 12 -98 49.5t-42 94.5q0 69 57 110.5t143 41.5q74 0 128 -28t79 -85l-112 -48q-14 28 -39.5 41.5t-55.5 13.5t-50.5 -11.5t-20.5 -30.5
q0 -18 16.5 -28.5t48.5 -18.5l75 -19q74 -18 112 -57t38 -94q0 -45 -27 -82t-75.5 -59t-108.5 -22q-91 0 -147.5 39.5zM75 596l114 126h114l114 -126v-8h-125l-40 59h-12l-40 -59h-125v8z" />
    <glyph glyph-name="Scedilla" unicode="&#x15e;" horiz-adv-x="585" 
d="M508 84.5q-33 -47.5 -85.5 -72.5t-110.5 -28l-14 -31q7 1 18 1q40 0 67 -26t27 -69q0 -42 -29.5 -69t-77.5 -27q-35 0 -61.5 18.5t-37.5 47.5l64 27q4 -12 13.5 -20t21.5 -8q15 0 24 9.5t9 22.5q0 14 -9 24t-24 10t-27 -14l-61 28l31 80q-78 13 -135 64t-82 135l127 50
q15 -57 51 -91t90 -34q45 0 77 22.5t32 62.5t-30.5 65.5t-108.5 54.5l-44 16q-69 24 -118 73.5t-49 124.5q0 56 29 102t82 72.5t120 26.5q97 0 153 -45.5t77 -106.5l-119 -50q-11 33 -38.5 55.5t-70.5 22.5q-44 0 -72.5 -20.5t-28.5 -53.5q0 -32 27 -54.5t89 -43.5l45 -15
q93 -32 142.5 -84.5t49.5 -137.5q0 -67 -33 -114.5z" />
    <glyph glyph-name="scedilla" unicode="&#x15f;" horiz-adv-x="494" 
d="M441 69.5q-24 -35.5 -67 -58t-97 -26.5l-14 -32q7 1 18 1q40 0 67 -26t27 -69q0 -42 -29.5 -69t-77.5 -27q-35 0 -61.5 18.5t-37.5 47.5l64 27q4 -12 13.5 -20t21.5 -8q15 0 24 9.5t9 22.5q0 14 -9 24t-24 10t-27 -14l-61 28l31 79q-72 9 -118 46.5t-67 89.5l117 50
q16 -37 44.5 -55.5t66.5 -18.5q34 0 56 12.5t22 33.5t-18.5 33.5t-61.5 22.5l-66 15q-56 12 -98 49.5t-42 94.5q0 69 57 110.5t143 41.5q74 0 128 -28t79 -85l-112 -48q-14 28 -39.5 41.5t-55.5 13.5t-50.5 -11.5t-20.5 -30.5q0 -18 16.5 -28.5t48.5 -18.5l75 -19
q74 -18 112 -57t38 -94q0 -42 -24 -77.5z" />
    <glyph glyph-name="Scaron" unicode="&#x160;" horiz-adv-x="585" 
d="M130 37q-72 53 -101 150l127 50q15 -57 51 -91t90 -34q45 0 77 22.5t32 62.5t-30.5 65.5t-108.5 54.5l-44 16q-69 24 -118 73.5t-49 124.5q0 56 29 102t82 72.5t120 26.5q97 0 153 -45.5t77 -106.5l-119 -50q-11 33 -38.5 55.5t-70.5 22.5q-44 0 -72.5 -20.5t-28.5 -53.5
q0 -32 27 -54.5t89 -43.5l45 -15q93 -32 142.5 -84.5t49.5 -137.5q0 -70 -36 -118.5t-92.5 -72.5t-116.5 -24q-94 0 -166 53zM118 904v8h125l40 -59h12l40 59h125v-8l-114 -126h-114z" />
    <glyph glyph-name="scaron" unicode="&#x161;" horiz-adv-x="494" 
d="M106.5 23.5q-56.5 39.5 -80.5 99.5l117 50q16 -37 44.5 -55.5t66.5 -18.5q34 0 56 12.5t22 33.5t-18.5 33.5t-61.5 22.5l-66 15q-56 12 -98 49.5t-42 94.5q0 69 57 110.5t143 41.5q74 0 128 -28t79 -85l-112 -48q-14 28 -39.5 41.5t-55.5 13.5t-50.5 -11.5t-20.5 -30.5
q0 -18 16.5 -28.5t48.5 -18.5l75 -19q74 -18 112 -57t38 -94q0 -45 -27 -82t-75.5 -59t-108.5 -22q-91 0 -147.5 39.5zM75 714v8h125l40 -59h12l40 59h125v-8l-114 -126h-114z" />
    <glyph glyph-name="uni0162" unicode="&#x162;" horiz-adv-x="587" 
d="M244.5 -218.5q-26.5 18.5 -37.5 47.5l64 27q11 -28 36 -28q15 0 24 9.5t9 22.5t-9.5 23.5t-23.5 10.5q-16 0 -28 -14l-60 28l35 92h-28v588h-200v128h535v-128h-200v-588h-39l-21 -47q7 1 18 1q40 0 67 -26t27 -69q0 -42 -29.5 -69t-76.5 -27q-36 0 -62.5 18.5z" />
    <glyph glyph-name="uni0163" unicode="&#x163;" horiz-adv-x="410" 
d="M265 -8l-18 -39q7 1 18 1q39 0 66 -26t27 -69q0 -42 -29.5 -69t-76.5 -27q-35 0 -61.5 18.5t-37.5 47.5l64 27q4 -13 13 -21t22 -8q14 0 23.5 10t9.5 23t-9.5 23.5t-23.5 10.5t-28 -14l-60 28l40 98q-26 12 -43 29q-47 45 -47 128v221h-87v112h87v148h131v-148h122v-112
h-122v-197q0 -39 17 -56q14 -16 46 -16q17 0 30.5 4.5t30.5 14.5v-126q-42 -16 -90 -16h-14z" />
    <glyph glyph-name="Tcaron" unicode="&#x164;" horiz-adv-x="587" 
d="M226 588h-200v128h535v-128h-200v-588h-135v588zM122 904v8h125l40 -59h12l40 59h125v-8l-114 -126h-114z" />
    <glyph glyph-name="tcaron" unicode="&#x165;" horiz-adv-x="407" 
d="M295 716h118l-29 -165h-89v165zM212 3q-30 11 -51 32q-47 45 -47 128v221h-87v112h87v148h131v-148h122v-112h-122v-197q0 -39 17 -56q14 -16 46 -16q17 0 30.5 4.5t30.5 14.5v-126q-42 -16 -90 -16q-37 0 -67 11z" />
    <glyph glyph-name="Tbar" unicode="&#x166;" horiz-adv-x="587" 
d="M361 588v-161h126v-106h-126v-321h-135v321h-127v106h127v161h-200v128h535v-128h-200z" />
    <glyph glyph-name="tbar" unicode="&#x167;" horiz-adv-x="410" 
d="M338.5 119.5q13.5 4.5 30.5 14.5v-126q-42 -16 -90 -16q-37 0 -67 11t-51 32q-47 45 -47 128v54h-87v100h87v67h-87v112h87v148h131v-148h122v-112h-122v-67h108v-100h-108v-30q0 -39 17 -56q14 -16 46 -16q17 0 30.5 4.5z" />
    <glyph glyph-name="Utilde" unicode="&#x168;" horiz-adv-x="687" 
d="M196.5 20q-62.5 36 -97 104t-34.5 161v431h135v-439q0 -74 37.5 -119.5t105.5 -45.5q69 0 106.5 45.5t37.5 119.5v439h135v-431q0 -89 -34 -157t-97.5 -106t-147.5 -38t-146.5 36zM363 778.5q-19 7.5 -43 20.5q-2 1 -15 8t-21 7q-25 0 -26 -29h-92q0 62 33.5 95t82.5 33
q23 0 41 -7t46 -22q25 -14 33 -14q13 0 19 7t8 22h92q0 -62 -34 -95t-83 -33q-22 0 -41 7.5z" />
    <glyph glyph-name="utilde" unicode="&#x169;" horiz-adv-x="589" 
d="M105 40q-47 56 -47 155v301h131v-285q0 -51 24 -78.5t68 -27.5q53 0 84 41t31 104v246h131v-496h-123v64h-8q-24 -37 -64 -58.5t-89 -21.5q-91 0 -138 56zM312 600.5q-19 7.5 -43 20.5q-2 1 -15 8t-21 7q-25 0 -26 -29h-92q0 62 33.5 95t82.5 33q23 0 41 -7t46 -22
q25 -14 33 -14q13 0 19 7t8 22h92q0 -62 -34 -95t-83 -33q-22 0 -41 7.5z" />
    <glyph glyph-name="Umacron" unicode="&#x16a;" horiz-adv-x="687" 
d="M196.5 20q-62.5 36 -97 104t-34.5 161v431h135v-439q0 -74 37.5 -119.5t105.5 -45.5q69 0 106.5 45.5t37.5 119.5v439h135v-431q0 -89 -34 -157t-97.5 -106t-147.5 -38t-146.5 36zM195 893h296v-100h-296v100z" />
    <glyph glyph-name="umacron" unicode="&#x16b;" horiz-adv-x="589" 
d="M105 40q-47 56 -47 155v301h131v-285q0 -51 24 -78.5t68 -27.5q53 0 84 41t31 104v246h131v-496h-123v64h-8q-24 -37 -64 -58.5t-89 -21.5q-91 0 -138 56zM144 715h296v-100h-296v100z" />
    <glyph glyph-name="Ubreve" unicode="&#x16c;" horiz-adv-x="687" 
d="M196.5 20q-62.5 36 -97 104t-34.5 161v431h135v-439q0 -74 37.5 -119.5t105.5 -45.5q69 0 106.5 45.5t37.5 119.5v439h135v-431q0 -89 -34 -157t-97.5 -106t-147.5 -38t-146.5 36zM276.5 780.5q-31.5 17.5 -50.5 49t-19 69.5h93q0 -19 12 -32.5t32 -13.5q19 0 31 13.5
t12 32.5h92q0 -38 -18.5 -69.5t-49.5 -49t-67 -17.5t-67.5 17.5z" />
    <glyph glyph-name="ubreve" unicode="&#x16d;" horiz-adv-x="589" 
d="M105 40q-47 56 -47 155v301h131v-285q0 -51 24 -78.5t68 -27.5q53 0 84 41t31 104v246h131v-496h-123v64h-8q-24 -37 -64 -58.5t-89 -21.5q-91 0 -138 56zM225.5 602.5q-31.5 17.5 -50.5 49t-19 69.5h93q0 -19 12 -32.5t32 -13.5q19 0 31 13.5t12 32.5h92
q0 -38 -18.5 -69.5t-49.5 -49t-67 -17.5t-67.5 17.5z" />
    <glyph glyph-name="Uring" unicode="&#x16e;" horiz-adv-x="687" 
d="M196.5 20q-62.5 36 -97 104t-34.5 161v431h135v-439q0 -74 37.5 -119.5t105.5 -45.5q69 0 106.5 45.5t37.5 119.5v439h135v-431q0 -89 -34 -157t-97.5 -106t-147.5 -38t-146.5 36zM266.5 779.5q-31.5 31.5 -31.5 76.5t31.5 76.5t76.5 31.5t76.5 -31.5t31.5 -76.5
t-31.5 -76.5t-76.5 -31.5t-76.5 31.5zM367.5 831.5q10.5 10.5 10.5 24.5t-10.5 24.5t-24.5 10.5t-24.5 -10.5t-10.5 -24.5t10.5 -24.5t24.5 -10.5t24.5 10.5z" />
    <glyph glyph-name="uring" unicode="&#x16f;" horiz-adv-x="589" 
d="M105 40q-47 56 -47 155v301h131v-285q0 -51 24 -78.5t68 -27.5q53 0 84 41t31 104v246h131v-496h-123v64h-8q-24 -37 -64 -58.5t-89 -21.5q-91 0 -138 56zM215.5 601.5q-31.5 31.5 -31.5 76.5t31.5 76.5t76.5 31.5t76.5 -31.5t31.5 -76.5t-31.5 -76.5t-76.5 -31.5
t-76.5 31.5zM316.5 653.5q10.5 10.5 10.5 24.5t-10.5 24.5t-24.5 10.5t-24.5 -10.5t-10.5 -24.5t10.5 -24.5t24.5 -10.5t24.5 10.5z" />
    <glyph glyph-name="Uhungarumlaut" unicode="&#x170;" horiz-adv-x="687" 
d="M196.5 20q-62.5 36 -97 104t-34.5 161v431h135v-439q0 -74 37.5 -119.5t105.5 -45.5q69 0 106.5 45.5t37.5 119.5v439h135v-431q0 -89 -34 -157t-97.5 -106t-147.5 -38t-146.5 36zM234 908h153l-90 -136h-105zM432 908h153l-90 -136h-105z" />
    <glyph glyph-name="uhungarumlaut" unicode="&#x171;" horiz-adv-x="589" 
d="M105 40q-47 56 -47 155v301h131v-285q0 -51 24 -78.5t68 -27.5q53 0 84 41t31 104v246h131v-496h-123v64h-8q-24 -37 -64 -58.5t-89 -21.5q-91 0 -138 56zM183 730h153l-90 -136h-105zM381 730h153l-90 -136h-105z" />
    <glyph glyph-name="Uogonek" unicode="&#x172;" horiz-adv-x="687" 
d="M315 -192.5q-35 31.5 -35 83.5t47 95q-2 -1 -6 -1q-118 8 -187 87.5t-69 212.5v431h135v-439q0 -74 37.5 -119.5t105.5 -45.5q69 0 106.5 45.5t37.5 119.5v439h135v-431q0 -86 -32 -152.5t-92 -105.5q-51 -34 -79 -59t-28 -56q0 -18 11 -29.5t29 -11.5t40 11v-95
q-24 -11 -62 -11q-59 0 -94 31.5z" />
    <glyph glyph-name="uogonek" unicode="&#x173;" horiz-adv-x="589" 
d="M382 -192.5q-35 31.5 -35 83.5q0 33 17.5 59.5t42.5 43.5l-3 6v64h-8q-24 -37 -64 -58.5t-89 -21.5q-91 0 -138 56t-47 155v301h131v-285q0 -51 24 -78.5t68 -27.5q53 0 84 41t31 104v246h131v-496q-33 -23 -51 -43.5t-18 -44.5q0 -18 11 -29.5t29 -11.5t40 11v-95
q-24 -11 -62 -11q-59 0 -94 31.5z" />
    <glyph glyph-name="Wcircumflex" unicode="&#x174;" horiz-adv-x="983" 
d="M17 716h150l97 -402l12 -75h8l17 75l126 402h133l123 -402l15 -73h8l13 73l97 402h150l-185 -716h-146l-122 432l-15 77h-8l-16 -77l-128 -432h-139zM322 786l114 126h114l114 -126v-8h-125l-40 59h-12l-40 -59h-125v8z" />
    <glyph glyph-name="wcircumflex" unicode="&#x175;" horiz-adv-x="816" 
d="M6 496h147l83 -315h7l100 315h134l99 -315h7l82 315h145l-159 -496h-140l-101 316h-6l-100 -316h-140zM237 596l114 126h114l114 -126v-8h-125l-40 59h-12l-40 -59h-125v8z" />
    <glyph glyph-name="Ycircumflex" unicode="&#x176;" horiz-adv-x="641" 
d="M255 333l-241 383h161l143 -237h8l138 237h163l-237 -383v-333h-135v333zM149 786l114 126h114l114 -126v-8h-125l-40 59h-12l-40 -59h-125v8z" />
    <glyph glyph-name="ycircumflex" unicode="&#x177;" horiz-adv-x="565" 
d="M216 24l-209 472h149l126 -303h8l121 303h147l-310 -712h-141zM112 596l114 126h114l114 -126v-8h-125l-40 59h-12l-40 -59h-125v8z" />
    <glyph glyph-name="Ydieresis" unicode="&#x178;" horiz-adv-x="641" 
d="M255 333l-241 383h161l143 -237h8l138 237h163l-237 -383v-333h-135v333zM174 792.5q-21 21.5 -21 50.5q0 30 21 51t51 21t50.5 -21t20.5 -51t-20.5 -51t-50.5 -21t-51 21.5zM365 792.5q-21 21.5 -21 50.5q0 30 21 51t50 21q31 0 51.5 -21t20.5 -51t-21 -51t-51 -21
q-29 0 -50 21.5z" />
    <glyph glyph-name="Zacute" unicode="&#x179;" horiz-adv-x="606" 
d="M37 136l363 452h-347v128h504v-136l-359 -452h363v-128h-524v136zM294 908h153l-90 -136h-105z" />
    <glyph glyph-name="zacute" unicode="&#x17a;" horiz-adv-x="493" 
d="M36 107l255 278h-247v111h408v-107l-255 -278h260v-111h-421v107zM237 730h153l-90 -136h-105z" />
    <glyph glyph-name="Zdotaccent" unicode="&#x17b;" horiz-adv-x="606" 
d="M37 136l363 452h-347v128h504v-136l-359 -452h363v-128h-524v136zM255 806q-21 21 -21 50t21 50t50 21t49.5 -21t20.5 -50t-20.5 -50t-49.5 -21t-50 21z" />
    <glyph glyph-name="zdotaccent" unicode="&#x17c;" horiz-adv-x="493" 
d="M36 107l255 278h-247v111h408v-107l-255 -278h260v-111h-421v107zM194.5 603.5q-22.5 22.5 -22.5 53.5q0 32 22 54t54 22q31 0 53 -22t22 -54q0 -31 -22 -53.5t-53 -22.5t-53.5 22.5z" />
    <glyph glyph-name="Zcaron" unicode="&#x17d;" horiz-adv-x="606" 
d="M37 136l363 452h-347v128h504v-136l-359 -452h363v-128h-524v136zM134 904v8h125l40 -59h12l40 59h125v-8l-114 -126h-114z" />
    <glyph glyph-name="zcaron" unicode="&#x17e;" horiz-adv-x="493" 
d="M36 107l255 278h-247v111h408v-107l-255 -278h260v-111h-421v107zM77 714v8h125l40 -59h12l40 59h125v-8l-114 -126h-114z" />
    <glyph glyph-name="florin" unicode="&#x192;" horiz-adv-x="623" 
d="M465.5 578q-22.5 -19 -29.5 -54l-20 -104h113v-112h-135l-72 -365q-15 -74 -61 -118.5t-123 -44.5q-46 0 -80 11v128q32 -16 66 -16q60 0 75 74l65 331h-93v112h115l22 109q18 92 71.5 141.5t138.5 49.5q37 0 66 -10v-127q-32 14 -65 14q-31 0 -53.5 -19z" />
    <glyph glyph-name="Aringacute" unicode="&#x1fa;" horiz-adv-x="720" 
d="M706 0h-149l-59 171h-275l-60 -171h-149l251 667q-35 38 -35 89q0 45 27.5 80t70.5 46l29 71h116l-50 -84q31 -17 49 -47t18 -66q0 -51 -35 -88zM332 728q12 -12 28 -12q17 0 28.5 12t11.5 28q0 17 -11.5 28.5t-28.5 11.5q-16 0 -28 -11.5t-12 -28.5q0 -16 12 -28z
M454 295l-64 180l-26 86h-8l-26 -86l-64 -180h188z" />
    <glyph glyph-name="aringacute" unicode="&#x1fb;" horiz-adv-x="549" 
d="M311 848h-39l-1 44h76zM195.5 601.5q-31.5 31.5 -31.5 76.5t31.5 76.5t76.5 31.5t76.5 -31.5t31.5 -76.5t-31.5 -76.5t-76.5 -31.5t-76.5 31.5zM296.5 653.5q10.5 10.5 10.5 24.5t-10.5 24.5t-24.5 10.5t-24.5 -10.5t-10.5 -24.5t10.5 -24.5t24.5 -10.5t24.5 10.5z
M123 5.5q-42 21.5 -66 60t-24 87.5q0 50 26.5 88.5t72.5 59t103 20.5q77 0 131 -23v17q0 40 -31 65.5t-79 25.5q-73 0 -118 -58l-92 66q37 48 92 73t121 25q115 0 175.5 -54t60.5 -158v-300h-129v52h-8q-55 -68 -142 -68q-51 0 -93 21.5zM308.5 102.5q27.5 16.5 42.5 43
t15 56.5q-49 23 -103 23q-48 0 -73 -20t-25 -52q0 -30 23 -48.5t58 -18.5t62.5 16.5z" />
    <glyph glyph-name="AEacute" unicode="&#x1fc;" horiz-adv-x="1011" 
d="M424 716h531v-128h-320v-166h288v-128h-288v-166h320v-128h-454v173h-239l-98 -173h-158zM501 301v287h-10l-34 -70l-124 -217h168zM682 908h153l-90 -136h-105z" />
    <glyph glyph-name="aeacute" unicode="&#x1fd;" horiz-adv-x="904" 
d="M126 5.5q-44 21.5 -68.5 60t-24.5 87.5q0 50 26.5 88.5t72.5 59t103 20.5q73 0 131 -25v13q0 44 -30 70.5t-78 26.5q-35 0 -60.5 -14.5t-37.5 -41.5l-100 45q27 57 80 87t121 30q122 0 185 -82q31 40 77 61t100 21q77 0 133 -33.5t85 -91.5t29 -132q0 -13 -1 -23t-2 -14
h-373q8 -58 46.5 -88t89.5 -30q43 0 74 19.5t49 52.5l108 -53q-36 -63 -94.5 -99t-138.5 -36q-62 0 -113.5 27t-87.5 75q-40 -53 -89 -77.5t-112 -24.5q-56 0 -100 21.5zM743 311q-2 21 -16 43t-40.5 36.5t-63.5 14.5q-44 0 -77 -25.5t-46 -68.5h243zM308.5 102.5
q27.5 16.5 42.5 43t15 56.5q-50 23 -103 23q-48 0 -73 -20t-25 -52q0 -30 23 -48.5t58 -18.5t62.5 16.5zM435 730h153l-90 -136h-105z" />
    <glyph glyph-name="Oslashacute" unicode="&#x1fe;" horiz-adv-x="835" 
d="M757.5 518.5q34.5 -74.5 34.5 -160.5q0 -103 -49 -189t-134.5 -135.5t-190.5 -49.5q-78 0 -151 30l-38 -61l-91 59l37 59q-62 52 -96.5 126.5t-34.5 160.5q0 103 49 189t134.5 135.5t190.5 49.5q78 0 151 -30l38 61l91 -59l-37 -59q62 -52 96.5 -126.5zM196.5 261
q17.5 -45 48.5 -78l254 408q-41 13 -81 13q-66 0 -121 -31t-86.5 -87t-31.5 -128q0 -52 17.5 -97zM538.5 143q54.5 31 86 87t31.5 128q0 52 -17 96.5t-48 77.5l-254 -407q41 -13 81 -13q66 0 120.5 31zM407 908h153l-90 -136h-105z" />
    <glyph glyph-name="oslashacute" unicode="&#x1ff;" horiz-adv-x="595" 
d="M540 357q21 -50 21 -109q0 -75 -34 -135.5t-94 -94.5t-135 -34q-51 0 -93 15l-26 -41l-91 51l27 43q-39 37 -60 87t-21 109q0 76 34 136t94 94t136 34q53 0 94 -16l27 43l90 -51l-28 -45q38 -36 59 -86zM181 157l150 240q-15 4 -33 4q-38 0 -71 -18.5t-52.5 -53.5
t-19.5 -81q0 -52 26 -91zM368.5 113.5q32.5 18.5 52 53.5t19.5 81q0 53 -25 90l-149 -240q17 -3 32 -3q38 0 70.5 18.5zM287 730h153l-90 -136h-105z" />
    <glyph glyph-name="Scommaaccent" unicode="&#x218;" horiz-adv-x="585" 
d="M130 37q-72 53 -101 150l127 50q15 -57 51 -91t90 -34q45 0 77 22.5t32 62.5t-30.5 65.5t-108.5 54.5l-44 16q-69 24 -118 73.5t-49 124.5q0 56 29 102t82 72.5t120 26.5q97 0 153 -45.5t77 -106.5l-119 -50q-11 33 -38.5 55.5t-70.5 22.5q-44 0 -72.5 -20.5t-28.5 -53.5
q0 -32 27 -54.5t89 -43.5l45 -15q93 -32 142.5 -84.5t49.5 -137.5q0 -70 -36 -118.5t-92.5 -72.5t-116.5 -24q-94 0 -166 53zM220 -253l45 70q-20 8 -31.5 25t-11.5 39q0 29 20.5 50t50.5 21t50.5 -21t20.5 -51q0 -21 -13 -44l-82 -121z" />
    <glyph glyph-name="scommaaccent" unicode="&#x219;" horiz-adv-x="494" 
d="M106.5 23.5q-56.5 39.5 -80.5 99.5l117 50q16 -37 44.5 -55.5t66.5 -18.5q34 0 56 12.5t22 33.5t-18.5 33.5t-61.5 22.5l-66 15q-56 12 -98 49.5t-42 94.5q0 69 57 110.5t143 41.5q74 0 128 -28t79 -85l-112 -48q-14 28 -39.5 41.5t-55.5 13.5t-50.5 -11.5t-20.5 -30.5
q0 -18 16.5 -28.5t48.5 -18.5l75 -19q74 -18 112 -57t38 -94q0 -45 -27 -82t-75.5 -59t-108.5 -22q-91 0 -147.5 39.5zM177 -253l45 70q-20 8 -31.5 25t-11.5 39q0 29 20.5 50t50.5 21t50.5 -21t20.5 -51q0 -21 -13 -44l-82 -121z" />
    <glyph glyph-name="uni021A" unicode="&#x21a;" horiz-adv-x="587" 
d="M226 588h-200v128h535v-128h-200v-588h-135v588zM220 -253l45 70q-20 8 -31.5 25t-11.5 39q0 29 20.5 50t50.5 21t50.5 -21t20.5 -51q0 -21 -13 -44l-82 -121z" />
    <glyph glyph-name="uni021B" unicode="&#x21b;" horiz-adv-x="410" 
d="M212 3q-30 11 -51 32q-47 45 -47 128v221h-87v112h87v148h131v-148h122v-112h-122v-197q0 -39 17 -56q14 -16 46 -16q17 0 30.5 4.5t30.5 14.5v-126q-42 -16 -90 -16q-37 0 -67 11zM183 -253l45 70q-20 8 -31.5 25t-11.5 39q0 29 20.5 50t50.5 21t50.5 -21t20.5 -51
q0 -21 -13 -44l-82 -121z" />
    <glyph glyph-name="uni0237" unicode="&#x237;" horiz-adv-x="271" 
d="M-27 -219v127q26 -14 52 -14q45 0 45 59v543h131v-546q0 -90 -45 -133t-116 -43q-39 0 -67 7z" />
    <glyph glyph-name="uni0259" unicode="&#x259;" horiz-adv-x="572" 
d="M410.5 478q59.5 -34 93.5 -94.5t34 -135.5q0 -71 -33.5 -131.5t-92 -96.5t-131.5 -36q-78 0 -133.5 33.5t-84.5 91.5t-29 132q0 14 1 25t1 12h373q-8 57 -46.5 87.5t-88.5 30.5q-82 0 -124 -72l-108 53q36 64 95 99.5t139 35.5q75 0 134.5 -34zM160 185q2 -21 16.5 -43
t41 -36.5t63.5 -14.5q43 0 76 25.5t46 68.5h-243z" />
    <glyph glyph-name="circumflex" unicode="&#x2c6;" horiz-adv-x="456" 
d="M57 590l114 126h114l114 -126v-8h-125l-40 59h-12l-40 -59h-125v8z" />
    <glyph glyph-name="caron" unicode="&#x2c7;" horiz-adv-x="456" 
d="M57 708v8h125l40 -59h12l40 59h125v-8l-114 -126h-114z" />
    <glyph glyph-name="breve" unicode="&#x2d8;" horiz-adv-x="416" 
d="M141.5 596.5q-31.5 17.5 -50.5 49t-19 69.5h93q0 -19 12 -32.5t32 -13.5q19 0 31 13.5t12 32.5h92q0 -38 -18.5 -69.5t-49.5 -49t-67 -17.5t-67.5 17.5z" />
    <glyph glyph-name="dotaccent" unicode="&#x2d9;" horiz-adv-x="269" 
d="M81.5 597.5q-22.5 22.5 -22.5 53.5q0 32 22.5 54t53.5 22t53 -22t22 -54q0 -31 -22 -53.5t-53 -22.5t-53.5 22.5z" />
    <glyph glyph-name="ring" unicode="&#x2da;" horiz-adv-x="408" 
d="M127.5 595.5q-31.5 31.5 -31.5 76.5t31.5 76.5t76.5 31.5t76.5 -31.5t31.5 -76.5t-31.5 -76.5t-76.5 -31.5t-76.5 31.5zM228.5 647.5q10.5 10.5 10.5 24.5t-10.5 24.5t-24.5 10.5t-24.5 -10.5t-10.5 -24.5t10.5 -24.5t24.5 -10.5t24.5 10.5z" />
    <glyph glyph-name="ogonek" unicode="&#x2db;" horiz-adv-x="426" 
d="M123 -192.5q-35 31.5 -35 83.5q0 36 19 63.5t44 45.5h117q-33 -23 -51 -43.5t-18 -44.5q0 -18 11 -29.5t29 -11.5t40 11v-95q-23 -11 -61 -11q-60 0 -95 31.5z" />
    <glyph glyph-name="tilde" unicode="&#x2dc;" horiz-adv-x="419" 
d="M229 594.5q-19 7.5 -43 20.5q-2 1 -15 8t-21 7q-25 0 -26 -29h-92q0 62 33.5 95t82.5 33q23 0 41 -7t46 -22q24 -14 33 -14q13 0 19 7t8 22h92q0 -62 -34 -95t-83 -33q-22 0 -41 7.5z" />
    <glyph glyph-name="hungarumlaut" unicode="&#x2dd;" horiz-adv-x="476" 
d="M114 724h153l-90 -136h-105zM312 724h153l-90 -136h-105z" />
    <glyph glyph-name="gravecomb" unicode="&#x300;" horiz-adv-x="0" 
d="M-347 730h153l42 -136h-106z" />
    <glyph glyph-name="acutecomb" unicode="&#x301;" horiz-adv-x="0" 
d="M-249 730h153l-90 -136h-105z" />
    <glyph glyph-name="uni0302" unicode="&#x302;" horiz-adv-x="0" 
d="M-399 596l114 126h114l114 -126v-8h-125l-40 59h-12l-40 -59h-125v8z" />
    <glyph glyph-name="tildecomb" unicode="&#x303;" horiz-adv-x="0" 
d="M-190 600.5q-19 7.5 -43 20.5q-2 1 -15 8t-21 7q-25 0 -26 -29h-92q0 62 33.5 95t82.5 33q23 0 41 -7t46 -22q25 -14 33 -14q13 0 19 7t8 22h92q0 -62 -34 -95t-83 -33q-22 0 -41 7.5z" />
    <glyph glyph-name="uni0304" unicode="&#x304;" horiz-adv-x="0" 
d="M-356 715h296v-100h-296v100z" />
    <glyph glyph-name="uni0306" unicode="&#x306;" horiz-adv-x="0" 
d="M-274.5 602.5q-31.5 17.5 -50.5 49t-19 69.5h93q0 -19 12 -32.5t32 -13.5q19 0 31 13.5t12 32.5h92q0 -38 -18.5 -69.5t-49.5 -49t-67 -17.5t-67.5 17.5z" />
    <glyph glyph-name="uni0307" unicode="&#x307;" horiz-adv-x="0" 
d="M-187.5 603.5q-22.5 22.5 -22.5 53.5q0 32 22 54t54 22q31 0 53 -22t22 -54q0 -31 -22 -53.5t-53 -22.5t-53.5 22.5z" />
    <glyph glyph-name="uni0308" unicode="&#x308;" horiz-adv-x="0" 
d="M-372 614.5q-21 21.5 -21 50.5q0 31 21 51.5t51 20.5t50.5 -20.5t20.5 -51.5q0 -30 -20.5 -51t-50.5 -21t-51 21.5zM-181 614.5q-21 21.5 -21 50.5q0 31 20.5 51.5t50.5 20.5q31 0 51.5 -20.5t20.5 -51.5q0 -30 -21 -51t-51 -21q-29 0 -50 21.5z" />
    <glyph glyph-name="uni030A" unicode="&#x30a;" horiz-adv-x="0" 
d="M-280.5 601.5q-31.5 31.5 -31.5 76.5t31.5 76.5t76.5 31.5t76.5 -31.5t31.5 -76.5t-31.5 -76.5t-76.5 -31.5t-76.5 31.5zM-179.5 653.5q10.5 10.5 10.5 24.5t-10.5 24.5t-24.5 10.5t-24.5 -10.5t-10.5 -24.5t10.5 -24.5t24.5 -10.5t24.5 10.5z" />
    <glyph glyph-name="uni030B" unicode="&#x30b;" horiz-adv-x="0" 
d="M-362 730h153l-90 -136h-105zM-164 730h153l-90 -136h-105z" />
    <glyph glyph-name="uni030C" unicode="&#x30c;" horiz-adv-x="0" 
d="M-399 714v8h125l40 -59h12l40 59h125v-8l-114 -126h-114z" />
    <glyph glyph-name="uni0312" unicode="&#x312;" horiz-adv-x="0" 
d="M-143 783l-45 -70q20 -8 31.5 -25t11.5 -39q0 -29 -20.5 -50t-50.5 -21t-50.5 21t-20.5 51q0 21 13 44l82 121z" />
    <glyph glyph-name="uni0326" unicode="&#x326;" horiz-adv-x="0" 
d="M-289 -253l45 70q-20 8 -31.5 25t-11.5 39q0 29 20.5 50t50.5 21t50.5 -21t20.5 -51q0 -21 -13 -44l-82 -121z" />
    <glyph glyph-name="uni0327" unicode="&#x327;" horiz-adv-x="0" 
d="M-302.5 -218.5q-26.5 18.5 -37.5 47.5l64 27q4 -12 13.5 -20t21.5 -8q15 0 24 9.5t9 22.5q0 14 -9 24t-24 10t-27 -14l-61 28l36 92h68l-21 -47q7 1 18 1q40 0 67 -26t27 -69q0 -42 -29.5 -69t-77.5 -27q-35 0 -61.5 18.5z" />
    <glyph glyph-name="uni0328" unicode="&#x328;" horiz-adv-x="0" 
d="M-303 -192.5q-35 31.5 -35 83.5q0 36 19 63.5t44 45.5h117q-33 -23 -51 -43.5t-18 -44.5q0 -18 11 -29.5t29 -11.5t40 11v-95q-23 -11 -61 -11q-60 0 -95 31.5z" />
    <glyph glyph-name="uni0374" unicode="&#x374;" horiz-adv-x="314" 
d="M118 716h156l-133 -221h-101z" />
    <glyph glyph-name="uni0375" unicode="&#x375;" horiz-adv-x="314" 
d="M168 122h106l-77 -221h-157z" />
    <glyph glyph-name="uni037E" unicode="&#x37e;" horiz-adv-x="283" 
d="M80.5 360.5q-25.5 25.5 -25.5 61.5t25.5 61.5t61.5 25.5t61.5 -25.5t25.5 -61.5t-25.5 -61.5t-61.5 -25.5t-61.5 25.5zM50 -83l59 91q-23 9 -38 30t-15 49q0 36 25.5 61t61.5 25t61 -25t25 -61q0 -18 -5.5 -32.5t-19.5 -34.5l-95 -142z" />
    <glyph glyph-name="tonos" unicode="&#x384;" horiz-adv-x="442" 
d="M169 722h153l-88 -136h-105z" />
    <glyph glyph-name="dieresistonos" unicode="&#x385;" horiz-adv-x="464" 
d="M195 738h74v-144h-74v144zM51.5 618.5q-19.5 19.5 -19.5 46.5q0 28 19.5 47t46.5 19q28 0 47 -19t19 -47q0 -27 -19 -46.5t-47 -19.5q-27 0 -46.5 19.5zM319.5 618.5q-19.5 19.5 -19.5 46.5q0 28 19.5 47t46.5 19q28 0 47 -19t19 -47q0 -27 -19 -46.5t-47 -19.5
q-27 0 -46.5 19.5z" />
    <glyph glyph-name="Alphatonos" unicode="&#x386;" horiz-adv-x="720" 
d="M75 724h153l-90 -136h-105zM283 716h154l269 -716h-149l-59 171h-275l-60 -171h-149zM454 295l-64 180l-26 86h-8l-26 -86l-64 -180h188z" />
    <glyph glyph-name="anoteleia" unicode="&#x387;" horiz-adv-x="225" 
d="M51.5 262.5q-25.5 25.5 -25.5 61.5t25.5 61.5t61.5 25.5t61 -25.5t25 -61.5t-25 -61.5t-61 -25.5t-61.5 25.5z" />
    <glyph glyph-name="Epsilontonos" unicode="&#x388;" horiz-adv-x="666" 
d="M-33 724h153l-90 -136h-105zM156 716h454v-128h-319v-166h287v-128h-287v-166h319v-128h-454v716z" />
    <glyph glyph-name="Etatonos" unicode="&#x389;" horiz-adv-x="807" 
d="M-33 724h153l-90 -136h-105zM156 716h135v-286h302v286h134v-716h-134v302h-302v-302h-135v716z" />
    <glyph glyph-name="Iotatonos" unicode="&#x38a;" horiz-adv-x="370" 
d="M-33 724h153l-90 -136h-105zM156 716h135v-716h-135v716z" />
    <glyph glyph-name="Omicrontonos" unicode="&#x38c;" horiz-adv-x="811" 
d="M-33 724h153l-90 -136h-105zM203.5 33.5q-85.5 49.5 -134.5 135.5t-49 189t49 189t134.5 135.5t190.5 49.5t190.5 -49.5t134.5 -135.5t49 -189t-49 -189t-134.5 -135.5t-190.5 -49.5t-190.5 49.5zM514.5 143q54.5 31 86 87t31.5 128t-31.5 128t-86 87t-120.5 31t-121 -31
t-86.5 -87t-31.5 -128t31.5 -128t86.5 -87t121 -31t120.5 31z" />
    <glyph glyph-name="Upsilontonos" unicode="&#x38e;" horiz-adv-x="764" 
d="M-33 724h153l-90 -136h-105zM378 333l-241 383h161l143 -237h8l138 237h163l-237 -383v-333h-135v333z" />
    <glyph glyph-name="Omegatonos" unicode="&#x38f;" horiz-adv-x="796" 
d="M-33 724h153l-90 -136h-105zM45 117h135v8q-65 39 -106 108.5t-41 164.5q0 90 46.5 167t128.5 122t183 45t182.5 -45t128 -122t46.5 -167q0 -95 -41 -164.5t-106 -108.5v-8h135v-117h-299v164q76 22 125.5 81t49.5 144q0 61 -30 110t-80.5 77t-110.5 28t-111 -28t-81 -77
t-30 -110q0 -85 49.5 -144t125.5 -81v-164h-299v117z" />
    <glyph glyph-name="iotadieresistonos" unicode="&#x390;" horiz-adv-x="271" 
d="M70 496h131v-496h-131v496zM98 738h74v-144h-74v144zM-45.5 618.5q-19.5 19.5 -19.5 46.5q0 28 19.5 47t46.5 19q28 0 47 -19t19 -47q0 -27 -19 -46.5t-47 -19.5q-27 0 -46.5 19.5zM222.5 618.5q-19.5 19.5 -19.5 46.5q0 28 19.5 47t46.5 19q28 0 47 -19t19 -47
q0 -27 -19 -46.5t-47 -19.5q-27 0 -46.5 19.5z" />
    <glyph glyph-name="Alpha" unicode="&#x391;" horiz-adv-x="720" 
d="M283 716h154l269 -716h-149l-59 171h-275l-60 -171h-149zM454 295l-64 180l-26 86h-8l-26 -86l-64 -180h188z" />
    <glyph glyph-name="Beta" unicode="&#x392;" horiz-adv-x="642" 
d="M79 716h280q60 0 110.5 -25t79.5 -68t29 -94q0 -54 -26.5 -93.5t-69.5 -60.5v-8q56 -20 89 -63.5t33 -104.5q0 -59 -31.5 -104.5t-85 -70t-118.5 -24.5h-290v716zM349 424q45 0 71 24.5t26 61.5q0 36 -25.5 60.5t-67.5 24.5h-139v-171h135zM364 123q49 0 76.5 25.5
t27.5 66.5t-28 67t-80 26h-146v-185h150z" />
    <glyph glyph-name="Gamma" unicode="&#x393;" horiz-adv-x="543" 
d="M79 716h438v-128h-303v-588h-135v716z" />
    <glyph glyph-name="uni0394" unicode="&#x394;" horiz-adv-x="712" 
d="M279 716h154l265 -716h-684zM507 124l-147 425h-8l-147 -425h302z" />
    <glyph glyph-name="Epsilon" unicode="&#x395;" horiz-adv-x="589" 
d="M79 716h454v-128h-319v-166h287v-128h-287v-166h319v-128h-454v716z" />
    <glyph glyph-name="Zeta" unicode="&#x396;" horiz-adv-x="606" 
d="M37 136l363 452h-347v128h504v-136l-359 -452h363v-128h-524v136z" />
    <glyph glyph-name="Eta" unicode="&#x397;" horiz-adv-x="729" 
d="M79 716h135v-286h302v286h134v-716h-134v302h-302v-302h-135v716z" />
    <glyph glyph-name="Theta" unicode="&#x398;" horiz-adv-x="849" 
d="M227.5 33.5q-85.5 49.5 -134.5 135.5t-49 189t49 189t134.5 135.5t190.5 49.5t190.5 -49.5t134.5 -135.5t49 -189t-49 -189t-134.5 -135.5t-190.5 -49.5t-190.5 49.5zM538.5 143q54.5 31 86 87t31.5 128t-31.5 128t-86 87t-120.5 31t-121 -31t-86.5 -87t-31.5 -128
t31.5 -128t86.5 -87t121 -31t120.5 31zM266 417h308v-118h-308v118z" />
    <glyph glyph-name="Iota" unicode="&#x399;" horiz-adv-x="293" 
d="M79 716h135v-716h-135v716z" />
    <glyph glyph-name="Kappa" unicode="&#x39a;" horiz-adv-x="667" 
d="M79 716h135v-336h8l256 336h166v-8l-277 -353l295 -347v-8h-170l-270 319h-8v-319h-135v716z" />
    <glyph glyph-name="Lambda" unicode="&#x39b;" horiz-adv-x="704" 
d="M275 716h154l261 -716h-150l-161 477l-23 84h-8l-23 -84l-161 -477h-150z" />
    <glyph glyph-name="Mu" unicode="&#x39c;" horiz-adv-x="895" 
d="M79 716h174l190 -503h8l191 503h174v-716h-134v353l8 119h-8l-182 -472h-105l-183 472h-8l8 -119v-353h-133v716z" />
    <glyph glyph-name="Nu" unicode="&#x39d;" horiz-adv-x="737" 
d="M79 716h157l288 -480h8l-8 138v342h134v-716h-142l-304 507h-8l8 -138v-369h-133v716z" />
    <glyph glyph-name="Xi" unicode="&#x39e;" horiz-adv-x="551" 
d="M32 716h487v-128h-487v128zM64 421h423v-126h-423v126zM32 128h487v-128h-487v128z" />
    <glyph glyph-name="Omicron" unicode="&#x39f;" horiz-adv-x="835" 
d="M227.5 33.5q-85.5 49.5 -134.5 135.5t-49 189t49 189t134.5 135.5t190.5 49.5t190.5 -49.5t134.5 -135.5t49 -189t-49 -189t-134.5 -135.5t-190.5 -49.5t-190.5 49.5zM538.5 143q54.5 31 86 87t31.5 128t-31.5 128t-86 87t-120.5 31t-121 -31t-86.5 -87t-31.5 -128
t31.5 -128t86.5 -87t121 -31t120.5 31z" />
    <glyph glyph-name="Pi" unicode="&#x3a0;" horiz-adv-x="708" 
d="M79 716h550v-716h-135v588h-280v-588h-135v716z" />
    <glyph glyph-name="Rho" unicode="&#x3a1;" horiz-adv-x="605" 
d="M79 716h252q68 0 124 -28.5t88 -80t32 -117.5t-32 -118t-88 -80.5t-124 -28.5h-117v-263h-135v716zM335 391q51 0 79 28.5t28 70.5q0 41 -28 69.5t-79 28.5h-121v-197h121z" />
    <glyph glyph-name="Sigma" unicode="&#x3a3;" horiz-adv-x="536" 
d="M47 133l190 233l-190 217v133h458v-125h-296l188 -225l-188 -241h296v-125h-458v133z" />
    <glyph glyph-name="Tau" unicode="&#x3a4;" horiz-adv-x="587" 
d="M226 588h-200v128h535v-128h-200v-588h-135v588z" />
    <glyph glyph-name="Upsilon" unicode="&#x3a5;" horiz-adv-x="641" 
d="M255 333l-241 383h161l143 -237h8l138 237h163l-237 -383v-333h-135v333z" />
    <glyph glyph-name="Phi" unicode="&#x3a6;" horiz-adv-x="824" 
d="M744.5 218.5q-36.5 -63.5 -104.5 -105t-160 -53.5v-92h-135v92q-92 12 -160 53.5t-104.5 105t-36.5 139.5t36.5 139.5t104.5 105t160 53.5v92h135v-92q92 -12 160 -53.5t104.5 -105t36.5 -139.5t-36.5 -139.5zM223 244q44 -46 122 -60v348q-78 -14 -122 -60t-44 -114
t44 -114zM601.5 244q43.5 46 43.5 114t-43.5 114t-121.5 60v-348q78 14 121.5 60z" />
    <glyph glyph-name="Chi" unicode="&#x3a7;" horiz-adv-x="692" 
d="M253 374l-217 342h167l139 -234h8l139 234h167l-217 -342l235 -374h-168l-156 258h-8l-156 -258h-168z" />
    <glyph glyph-name="Psi" unicode="&#x3a8;" horiz-adv-x="788" 
d="M327 156q-71 0 -131.5 36t-96.5 103t-36 154v267h135v-274q0 -68 33.5 -113t95.5 -45v432h134v-432q62 0 95.5 45t33.5 113v274h135v-267q0 -87 -36 -154t-96.5 -103t-131.5 -36v-156h-134v156z" />
    <glyph glyph-name="uni03A9" unicode="&#x3a9;" horiz-adv-x="811" 
d="M60 117h135v8q-65 39 -106 108.5t-41 164.5q0 90 46.5 167t128.5 122t183 45t182.5 -45t128 -122t46.5 -167q0 -95 -41 -164.5t-106 -108.5v-8h135v-117h-299v164q76 22 125.5 81t49.5 144q0 61 -30 110t-80.5 77t-110.5 28t-111 -28t-81 -77t-30 -110q0 -85 49.5 -144
t125.5 -81v-164h-299v117z" />
    <glyph glyph-name="Iotadieresis" unicode="&#x3aa;" horiz-adv-x="293" 
d="M10 809q-20 20 -20 47q0 28 20 47.5t47 19.5q28 0 47.5 -19.5t19.5 -47.5q0 -27 -19.5 -47t-47.5 -20q-27 0 -47 20zM188 809q-20 20 -20 47q0 28 20 47.5t48 19.5t47.5 -19.5t19.5 -47.5q0 -27 -19.5 -47t-47.5 -20t-48 20zM79 716h135v-716h-135v716z" />
    <glyph glyph-name="Upsilondieresis" unicode="&#x3ab;" horiz-adv-x="641" 
d="M255 333l-241 383h161l143 -237h8l138 237h163l-237 -383v-333h-135v333zM176 792.5q-21 21.5 -21 50.5q0 30 21 51t51 21t50.5 -21t20.5 -51t-20.5 -51t-50.5 -21t-51 21.5zM367 792.5q-21 21.5 -21 50.5q0 30 21 51t50 21q31 0 51.5 -21t20.5 -51t-21 -51t-51 -21
q-29 0 -50 21.5z" />
    <glyph glyph-name="alphatonos" unicode="&#x3ac;" horiz-adv-x="613" 
d="M153.5 18q-54.5 34 -87 94t-32.5 136t32.5 136t87 94t119.5 34q52 0 91.5 -21t59.5 -54h8v59h122v-496h-122v60h-8q-20 -33 -59.5 -54.5t-91.5 -21.5q-65 0 -119.5 34zM364 122.5q31 17.5 49.5 50t18.5 75.5t-18.5 75.5t-49.5 50t-66 17.5t-65.5 -17.5t-49 -50
t-18.5 -75.5q0 -42 18.5 -74.5t49 -50.5t65.5 -18t66 17.5zM276 722h153l-88 -136h-105z" />
    <glyph glyph-name="epsilontonos" unicode="&#x3ad;" horiz-adv-x="513" 
d="M100 25.5q-58 41.5 -58 114.5q0 36 21.5 66.5t58.5 46.5v8q-60 31 -60 108q0 39 25.5 72t70 52t99.5 19q60 0 106 -19t86 -60l-77 -75q-44 50 -115 50q-34 0 -56 -15t-22 -37q0 -26 20.5 -41t52.5 -15h76v-94h-78q-39 0 -61 -16t-22 -40q0 -26 25 -41.5t67 -15.5
q72 0 129 63l80 -81q-81 -91 -209 -91q-101 0 -159 41.5zM244 722h153l-88 -136h-105z" />
    <glyph glyph-name="etatonos" unicode="&#x3ae;" horiz-adv-x="589" 
d="M400 287q0 49 -24.5 76.5t-68.5 27.5q-53 0 -83.5 -41t-30.5 -104v-246h-131v496h123v-64h8q23 37 63 58.5t90 21.5q89 0 137 -57t48 -152v-519h-131v503zM293 722h153l-88 -136h-105z" />
    <glyph glyph-name="iotatonos" unicode="&#x3af;" horiz-adv-x="271" 
d="M70 496h131v-496h-131v496zM122 722h153l-88 -136h-105z" />
    <glyph glyph-name="upsilondieresistonos" unicode="&#x3b0;" horiz-adv-x="583" 
d="M173.5 13q-53.5 29 -84.5 80.5t-31 115.5v287h131v-258q0 -63 31 -98t78 -35q49 0 84.5 36.5t35.5 101.5q0 57 -22 119t-63 134h142q33 -58 53.5 -124.5t20.5 -133.5q0 -85 -35.5 -142t-94 -84.5t-127.5 -27.5q-65 0 -118.5 29zM245 738h74v-144h-74v144zM101.5 618.5
q-19.5 19.5 -19.5 46.5q0 28 19.5 47t46.5 19q28 0 47 -19t19 -47q0 -27 -19 -46.5t-47 -19.5q-27 0 -46.5 19.5zM369.5 618.5q-19.5 19.5 -19.5 46.5q0 28 19.5 47t46.5 19q28 0 47 -19t19 -47q0 -27 -19 -46.5t-47 -19.5q-27 0 -46.5 19.5z" />
    <glyph glyph-name="alpha" unicode="&#x3b1;" horiz-adv-x="613" 
d="M153.5 18q-54.5 34 -87 94t-32.5 136t32.5 136t87 94t119.5 34q52 0 91.5 -21t59.5 -54h8v59h122v-496h-122v60h-8q-20 -33 -59.5 -54.5t-91.5 -21.5q-65 0 -119.5 34zM364 122.5q31 17.5 49.5 50t18.5 75.5t-18.5 75.5t-49.5 50t-66 17.5t-65.5 -17.5t-49 -50
t-18.5 -75.5q0 -42 18.5 -74.5t49 -50.5t65.5 -18t66 17.5z" />
    <glyph glyph-name="beta" unicode="&#x3b2;" horiz-adv-x="597" 
d="M78 507q0 65 28 116t79.5 80t120.5 29q63 0 113 -24t78 -67.5t28 -99.5q0 -52 -22.5 -89.5t-57.5 -60.5v-8q114 -50 114 -179q0 -65 -29.5 -115t-79 -77.5t-107.5 -27.5q-43 0 -75.5 14.5t-58.5 44.5h-8l8 -76v-183h-131v723zM396.5 135.5q31.5 32.5 31.5 80.5
q0 46 -35 77t-85 31h-29v115h21q45 0 72 25t27 65q0 36 -26.5 59t-66.5 23q-45 0 -71 -29.5t-26 -74.5v-285q0 -57 29.5 -88t80.5 -31q46 0 77.5 32.5z" />
    <glyph glyph-name="gamma" unicode="&#x3b3;" horiz-adv-x="589" 
d="M228 4l-221 492h149l135 -322h7l137 322h147l-223 -492v-220h-131v220z" />
    <glyph glyph-name="delta" unicode="&#x3b4;" horiz-adv-x="595" 
d="M162 18q-60 34 -94 94.5t-34 135.5q0 65 26 117.5t69.5 87t95.5 47.5l-149 116v100h431v-111h-233l177 -139q54 -43 82 -98.5t28 -119.5q0 -75 -34 -135.5t-94 -94.5t-135 -34q-76 0 -136 34zM363.5 122.5q30.5 17.5 48.5 50t18 75.5t-18 75.5t-48.5 50t-65.5 17.5
q-36 0 -66.5 -17.5t-48.5 -50t-18 -75.5t18 -75.5t48.5 -50t66.5 -17.5q35 0 65.5 17.5z" />
    <glyph glyph-name="epsilon" unicode="&#x3b5;" horiz-adv-x="513" 
d="M100 25.5q-58 41.5 -58 114.5q0 36 21.5 66.5t58.5 46.5v8q-60 31 -60 108q0 39 25.5 72t70 52t99.5 19q60 0 106 -19t86 -60l-77 -75q-44 50 -115 50q-34 0 -56 -15t-22 -37q0 -26 20.5 -41t52.5 -15h76v-94h-78q-39 0 -61 -16t-22 -40q0 -26 25 -41.5t67 -15.5
q72 0 129 63l80 -81q-81 -91 -209 -91q-101 0 -159 41.5z" />
    <glyph glyph-name="zeta" unicode="&#x3b6;" horiz-adv-x="511" 
d="M321 -64q18 0 27.5 9t9.5 23t-9.5 23t-27.5 9h-121q-82 0 -126 39.5t-44 102.5q0 76 68 124l169 119h-222v111h409v-106q-39 -27 -127 -88t-134 -94q-29 -22 -29 -49q0 -23 16.5 -35.5t43.5 -12.5h108q67 0 108 -36.5t41 -96.5q0 -71 -44 -108.5t-116 -37.5v104z" />
    <glyph glyph-name="eta" unicode="&#x3b7;" horiz-adv-x="589" 
d="M400 287q0 49 -24.5 76.5t-68.5 27.5q-53 0 -83.5 -41t-30.5 -104v-246h-131v496h123v-64h8q23 37 63 58.5t90 21.5q89 0 137 -57t48 -152v-519h-131v503z" />
    <glyph glyph-name="theta" unicode="&#x3b8;" horiz-adv-x="691" 
d="M186 30.5q-65 46.5 -100.5 128t-35.5 183.5t35.5 183.5t100.5 128t151 46.5t151 -46.5t100.5 -128t35.5 -183.5t-35.5 -183.5t-100.5 -128t-151 -46.5t-151 46.5zM486 416q-14 74 -53 117.5t-96 43.5t-96 -43.5t-53 -117.5h298zM442 161.5q41 54.5 49 142.5h-308
q8 -88 49 -142.5t105 -54.5t105 54.5z" />
    <glyph glyph-name="iota" unicode="&#x3b9;" horiz-adv-x="271" 
d="M70 496h131v-496h-131v496z" />
    <glyph glyph-name="kappa" unicode="&#x3ba;" horiz-adv-x="529" 
d="M62 496h131v-212h8l161 212h154v-8l-178 -226l189 -254v-8h-154l-172 237h-8v-237h-131v496z" />
    <glyph glyph-name="lambda" unicode="&#x3bb;" horiz-adv-x="559" 
d="M213 466l-109 240h141l307 -706h-146l-119 297h-7l-124 -297h-149z" />
    <glyph glyph-name="uni03BC" unicode="&#x3bc;" horiz-adv-x="589" 
d="M58 496h131v-284q0 -51 25.5 -79t66.5 -28q53 0 84 41t31 104v246h131v-496h-123v54h-8q-45 -70 -130 -70q-43 0 -77 24h-8l8 -65v-159h-131v712z" />
    <glyph glyph-name="nu" unicode="&#x3bd;" horiz-adv-x="566" 
d="M6 496h149l124 -318h7l126 318h148l-213 -496h-130z" />
    <glyph glyph-name="xi" unicode="&#x3be;" horiz-adv-x="547" 
d="M357 -64q18 0 28 9t10 23t-10 23t-28 9h-79q-77 0 -133 27t-85.5 73.5t-29.5 105.5q0 114 110 170v8q-40 25 -62.5 59.5t-22.5 93.5q0 54 29.5 98.5t80.5 70.5t113 26q76 0 127 -26.5t92 -73.5l-91 -88q-48 71 -119 71q-48 0 -75 -25t-27 -64q0 -45 32 -70.5t77 -25.5
h102v-113h-108q-57 0 -92 -26.5t-35 -70.5q0 -46 34 -71.5t99 -25.5h54q81 0 125 -40.5t44 -103.5q0 -72 -44 -109.5t-116 -37.5v104z" />
    <glyph glyph-name="omicron" unicode="&#x3bf;" horiz-adv-x="595" 
d="M162 18q-60 34 -94 94.5t-34 135.5q0 76 34 136t94 94t136 34q75 0 135 -34t94 -94.5t34 -135.5t-34 -135.5t-94 -94.5t-135 -34q-76 0 -136 34zM363.5 122.5q30.5 17.5 48.5 50t18 75.5t-18 75.5t-48.5 50t-65.5 17.5q-36 0 -66.5 -17.5t-48.5 -50t-18 -75.5t18 -75.5
t48.5 -50t66.5 -17.5q35 0 65.5 17.5z" />
    <glyph glyph-name="pi" unicode="&#x3c0;" horiz-adv-x="742" 
d="M492.5 43q-46.5 51 -46.5 136v205h-176v-384h-131v384h-115v112h674v-112h-121v-199q0 -33 16 -53.5t45 -20.5q26 0 60 19v-125q-43 -13 -80 -13q-79 0 -125.5 51z" />
    <glyph glyph-name="rho" unicode="&#x3c1;" horiz-adv-x="615" 
d="M61 234q0 81 32.5 144t90.5 98.5t133 35.5q82 0 142 -34.5t91 -94.5t31 -135q0 -76 -29.5 -136.5t-82 -94t-116.5 -33.5q-56 0 -96 21t-65 55h-8l8 -70v-206h-131v450zM383 122.5q31 17.5 49.5 50t18.5 75.5t-18.5 75.5t-49.5 50t-66 17.5t-65.5 -17.5t-49 -50
t-18.5 -75.5t18.5 -75.5t49 -50t65.5 -17.5t66 17.5z" />
    <glyph glyph-name="uni03C2" unicode="&#x3c2;" horiz-adv-x="554" 
d="M359 -80q19 0 28.5 9t9.5 23t-9.5 23t-27.5 9h-40q-90 0 -154.5 34t-98 94t-33.5 136t33.5 136t93.5 94t135 34q83 0 142.5 -37.5t87.5 -102.5l-120 -50q-14 34 -42.5 51.5t-68.5 17.5q-55 0 -92.5 -39.5t-37.5 -103.5t42.5 -103.5t117.5 -39.5h31q73 0 118.5 -40
t45.5 -103q0 -71 -44.5 -108.5t-116.5 -37.5v104z" />
    <glyph glyph-name="sigma" unicode="&#x3c3;" horiz-adv-x="620" 
d="M159 17q-59 33 -92 91.5t-33 131.5t33 131.5t92 91.5t133 33h312v-111h-41l-74 8v-8q28 -27 44.5 -65t16.5 -80q0 -73 -33 -131.5t-92 -91.5t-133 -33t-133 33zM383 141.5q37 36.5 37 98.5t-37 98.5t-91 36.5t-90.5 -36.5t-36.5 -98.5t36.5 -98.5t90.5 -36.5t91 36.5z
" />
    <glyph glyph-name="tau" unicode="&#x3c4;" horiz-adv-x="493" 
d="M181 375h-154v121h439v-121h-154v-375h-131v375z" />
    <glyph glyph-name="upsilon" unicode="&#x3c5;" horiz-adv-x="583" 
d="M173.5 13q-53.5 29 -84.5 80.5t-31 115.5v287h131v-258q0 -63 31 -98t78 -35q49 0 84.5 36.5t35.5 101.5q0 57 -22 119t-63 134h142q33 -58 53.5 -124.5t20.5 -133.5q0 -85 -35.5 -142t-94 -84.5t-127.5 -27.5q-65 0 -118.5 29z" />
    <glyph glyph-name="phi" unicode="&#x3c6;" horiz-adv-x="754" 
d="M671 131.5q-33 -57.5 -93 -94.5t-138 -48v-205h-132v204q-117 17 -187.5 88.5t-70.5 179.5q0 163 163 256l60 -108q-43 -27 -68 -62t-25 -86q0 -59 34.5 -97t93.5 -51v242q0 77 45.5 119.5t116.5 42.5q69 0 122 -32.5t82.5 -90t29.5 -128.5q0 -72 -33 -129.5zM538 163
q35 41 35 109q0 52 -25 87.5t-63 35.5q-20 0 -32.5 -15t-12.5 -41v-231q63 14 98 55z" />
    <glyph glyph-name="chi" unicode="&#x3c7;" horiz-adv-x="525" 
d="M184 252l-171 244h155l92 -139h7l85 139h160l-173 -244l174 -252h-155l-93 143h-7l-92 -143h-154z" />
    <glyph glyph-name="psi" unicode="&#x3c8;" horiz-adv-x="736" 
d="M312 -16q-72 0 -130 30.5t-91 87.5t-33 131v263h131v-261q0 -66 35.5 -98t87.5 -32v391h133v-390q51 0 88.5 36t37.5 110q0 64 -16 121t-50 123h136q28 -56 44.5 -121.5t16.5 -127.5q0 -87 -39.5 -146.5t-99 -88t-118.5 -28.5v-200h-133v200z" />
    <glyph glyph-name="omega" unicode="&#x3c9;" horiz-adv-x="815" 
d="M144 12.5q-50 28.5 -80 86t-30 140.5q0 68 19.5 134t51.5 123h148q-41 -66 -62 -127.5t-21 -125.5q0 -59 24.5 -95t65.5 -36q38 0 62 32t24 96v135h123v-135q0 -64 24 -96t62 -32q41 0 65.5 36t24.5 95q0 64 -21 125.5t-62 127.5h149q32 -58 51 -123.5t19 -133.5
q0 -83 -30 -140.5t-80 -86t-111 -28.5q-106 0 -152 93q-47 -93 -153 -93q-61 0 -111 28.5z" />
    <glyph glyph-name="iotadieresis" unicode="&#x3ca;" horiz-adv-x="271" 
d="M2.5 616.5q-20.5 20.5 -20.5 48.5q0 29 20.5 49t48.5 20q29 0 49 -20t20 -49q0 -28 -20 -48.5t-49 -20.5q-28 0 -48.5 20.5zM170.5 616.5q-20.5 20.5 -20.5 48.5q0 29 20.5 49t48.5 20q29 0 49 -20t20 -49q0 -28 -20 -48.5t-49 -20.5q-28 0 -48.5 20.5zM70 496h131v-496
h-131v496z" />
    <glyph glyph-name="upsilondieresis" unicode="&#x3cb;" horiz-adv-x="583" 
d="M173.5 13q-53.5 29 -84.5 80.5t-31 115.5v287h131v-258q0 -63 31 -98t78 -35q49 0 84.5 36.5t35.5 101.5q0 57 -22 119t-63 134h142q33 -58 53.5 -124.5t20.5 -133.5q0 -85 -35.5 -142t-94 -84.5t-127.5 -27.5q-65 0 -118.5 29zM136 614.5q-21 21.5 -21 50.5
q0 31 21 51.5t51 20.5t50.5 -20.5t20.5 -51.5q0 -30 -20.5 -51t-50.5 -21t-51 21.5zM327 614.5q-21 21.5 -21 50.5q0 31 20.5 51.5t50.5 20.5q31 0 51.5 -20.5t20.5 -51.5q0 -30 -21 -51t-51 -21q-29 0 -50 21.5z" />
    <glyph glyph-name="omicrontonos" unicode="&#x3cc;" horiz-adv-x="595" 
d="M162 18q-60 34 -94 94.5t-34 135.5q0 76 34 136t94 94t136 34q75 0 135 -34t94 -94.5t34 -135.5t-34 -135.5t-94 -94.5t-135 -34q-76 0 -136 34zM363.5 122.5q30.5 17.5 48.5 50t18 75.5t-18 75.5t-48.5 50t-65.5 17.5q-36 0 -66.5 -17.5t-48.5 -50t-18 -75.5t18 -75.5
t48.5 -50t66.5 -17.5q35 0 65.5 17.5zM285 722h153l-88 -136h-105z" />
    <glyph glyph-name="upsilontonos" unicode="&#x3cd;" horiz-adv-x="583" 
d="M173.5 13q-53.5 29 -84.5 80.5t-31 115.5v287h131v-258q0 -63 31 -98t78 -35q49 0 84.5 36.5t35.5 101.5q0 57 -22 119t-63 134h142q33 -58 53.5 -124.5t20.5 -133.5q0 -85 -35.5 -142t-94 -84.5t-127.5 -27.5q-65 0 -118.5 29zM269 722h153l-88 -136h-105z" />
    <glyph glyph-name="omegatonos" unicode="&#x3ce;" horiz-adv-x="815" 
d="M144 12.5q-50 28.5 -80 86t-30 140.5q0 68 19.5 134t51.5 123h148q-41 -66 -62 -127.5t-21 -125.5q0 -59 24.5 -95t65.5 -36q38 0 62 32t24 96v135h123v-135q0 -64 24 -96t62 -32q41 0 65.5 36t24.5 95q0 64 -21 125.5t-62 127.5h149q32 -58 51 -123.5t19 -133.5
q0 -83 -30 -140.5t-80 -86t-111 -28.5q-106 0 -152 93q-47 -93 -153 -93q-61 0 -111 28.5zM395 722h153l-88 -136h-105z" />
    <glyph glyph-name="uni03D1" unicode="&#x3d1;" horiz-adv-x="661" 
d="M173.5 14q-55.5 30 -85.5 84.5t-30 126.5v271h124v-262q0 -64 34.5 -98.5t87.5 -34.5q52 0 83.5 34.5t31.5 98.5v40q-58 17 -105.5 58t-75 100t-27.5 126q0 82 45.5 128t117.5 46q78 0 123.5 -47t45.5 -124v-186h89v-107h-89v-42q0 -112 -63.5 -177t-175.5 -65
q-75 0 -130.5 30zM419 568q0 26 -12 41.5t-33 15.5q-20 0 -32 -17t-12 -50q0 -56 23.5 -102t65.5 -68v180z" />
    <glyph glyph-name="uni03D2" unicode="&#x3d2;" horiz-adv-x="661" 
d="M263 312l-125 247q-13 25 -27.5 35.5t-32.5 10.5q-25 0 -52 -20v124q13 7 34 11t40 4q45 0 80.5 -21t64.5 -81l82 -166h8l82 166q29 60 64.5 81t79.5 21q20 0 40.5 -4t34.5 -11v-124q-27 20 -53 20q-19 0 -33 -10.5t-26 -35.5l-126 -247v-312h-135v312z" />
    <glyph glyph-name="uni03D3" unicode="&#x3d3;" horiz-adv-x="786" 
d="M-33 724h153l-90 -136h-105zM388 312l-125 247q-13 25 -27.5 35.5t-32.5 10.5q-25 0 -52 -20v124q13 7 34 11t40 4q45 0 80.5 -21t64.5 -81l82 -166h8l82 166q29 60 64.5 81t79.5 21q20 0 40.5 -4t34.5 -11v-124q-27 20 -53 20q-19 0 -33 -10.5t-26 -35.5l-126 -247v-312
h-135v312z" />
    <glyph glyph-name="uni03D4" unicode="&#x3d4;" horiz-adv-x="661" 
d="M263 312l-125 247q-13 25 -27.5 35.5t-32.5 10.5q-25 0 -52 -20v124q13 7 34 11t40 4q45 0 80.5 -21t64.5 -81l82 -166h8l82 166q29 60 64.5 81t79.5 21q20 0 40.5 -4t34.5 -11v-124q-27 20 -53 20q-19 0 -33 -10.5t-26 -35.5l-126 -247v-312h-135v312zM186 792.5
q-21 21.5 -21 50.5q0 30 21 51t51 21t50.5 -21t20.5 -51t-20.5 -51t-50.5 -21t-51 21.5zM377 792.5q-21 21.5 -21 50.5q0 30 21 51t50 21q31 0 51.5 -21t20.5 -51t-21 -51t-51 -21q-29 0 -50 21.5z" />
    <glyph glyph-name="uni03D6" unicode="&#x3d6;" horiz-adv-x="925" 
d="M199 12.5q-50 28.5 -80 86t-30 140.5q0 75 30 157h-74v100h835v-100h-74q30 -82 30 -157q0 -83 -30 -140.5t-80 -86t-111 -28.5q-52 0 -90.5 24.5t-62.5 68.5q-23 -44 -61.5 -68.5t-91.5 -24.5q-60 0 -110 28.5zM377 144q24 32 24 96v90h123v-90q0 -64 24 -96t62 -32
q41 0 65.5 36t24.5 95q0 73 -32 153h-411q-32 -76 -32 -153q0 -59 24.5 -95t65.5 -36q38 0 62 32z" />
    <glyph glyph-name="uni0400" unicode="&#x400;" horiz-adv-x="589" 
d="M79 716h454v-128h-319v-166h287v-128h-287v-166h319v-128h-454v716zM164 908h153l42 -136h-106z" />
    <glyph glyph-name="uni0401" unicode="&#x401;" horiz-adv-x="589" 
d="M79 716h454v-128h-319v-166h287v-128h-287v-166h319v-128h-454v716zM160 792.5q-21 21.5 -21 50.5q0 30 21 51t51 21t50.5 -21t20.5 -51t-20.5 -51t-50.5 -21t-51 21.5zM351 792.5q-21 21.5 -21 50.5q0 30 21 51t50 21q31 0 51.5 -21t20.5 -51t-21 -51t-51 -21
q-29 0 -50 21.5z" />
    <glyph glyph-name="uni0402" unicode="&#x402;" horiz-adv-x="793" 
d="M219 588h-193v128h525v-128h-197v-147l-8 -75h8q32 33 77.5 52.5t102.5 19.5q60 0 111.5 -27t82 -77.5t30.5 -115.5q0 -108 -63.5 -162.5t-169.5 -55.5h-30v120h22q50 0 78 26.5t28 68.5q0 45 -31.5 72t-84.5 27q-48 0 -89.5 -21.5t-63.5 -54.5v-238h-135v588z" />
    <glyph glyph-name="uni0403" unicode="&#x403;" horiz-adv-x="543" 
d="M79 716h438v-128h-303v-588h-135v716zM287 908h153l-90 -136h-105z" />
    <glyph glyph-name="uni0404" unicode="&#x404;" horiz-adv-x="745" 
d="M704 115q-53 -64 -127.5 -97.5t-161.5 -33.5q-105 0 -190 49.5t-133 135t-48 189.5t48 189.5t133 135t190 49.5q164 0 270 -117l-93 -92q-33 38 -78 59.5t-100 21.5q-88 0 -152 -50.5t-81 -136.5h314v-118h-314q17 -86 81 -136.5t152 -50.5q59 0 108.5 24.5t86.5 69.5z
" />
    <glyph glyph-name="uni0405" unicode="&#x405;" horiz-adv-x="585" 
d="M130 37q-72 53 -101 150l127 50q15 -57 51 -91t90 -34q45 0 77 22.5t32 62.5t-30.5 65.5t-108.5 54.5l-44 16q-69 24 -118 73.5t-49 124.5q0 56 29 102t82 72.5t120 26.5q97 0 153 -45.5t77 -106.5l-119 -50q-11 33 -38.5 55.5t-70.5 22.5q-44 0 -72.5 -20.5t-28.5 -53.5
q0 -32 27 -54.5t89 -43.5l45 -15q93 -32 142.5 -84.5t49.5 -137.5q0 -70 -36 -118.5t-92.5 -72.5t-116.5 -24q-94 0 -166 53z" />
    <glyph glyph-name="uni0406" unicode="&#x406;" horiz-adv-x="293" 
d="M79 716h135v-716h-135v716z" />
    <glyph glyph-name="uni0407" unicode="&#x407;" horiz-adv-x="293" 
d="M10 800q-20 20 -20 47q0 28 20 48t47 20q28 0 47.5 -20t19.5 -48q0 -27 -19.5 -47t-47.5 -20q-27 0 -47 20zM188 800q-20 20 -20 47q0 28 20 48t48 20t47.5 -20t19.5 -48q0 -27 -19.5 -47t-47.5 -20t-48 20zM79 716h135v-716h-135v716z" />
    <glyph glyph-name="uni0408" unicode="&#x408;" horiz-adv-x="564" 
d="M115 30.5q-64 46.5 -89 126.5l124 51q13 -47 42 -71.5t71 -24.5q47 0 73.5 30t26.5 84v490h134v-489q0 -78 -31 -132.5t-84 -82.5t-119 -28q-84 0 -148 46.5z" />
    <glyph glyph-name="uni0409" unicode="&#x409;" horiz-adv-x="1103" 
d="M26 -3v127q11 -5 34 -5q40 0 60 23q18 19 24.5 60t6.5 118v396h508v-285h156q70 0 127 -25t90 -73.5t33 -116.5q0 -69 -33 -117.5t-90 -73.5t-127 -25h-291v588h-238v-323q0 -83 -16.5 -137.5t-50.5 -87.5q-52 -48 -147 -48q-29 0 -46 5zM820 125q48 0 75.5 25.5
t27.5 65.5t-27.5 65t-75.5 25h-161v-181h161z" />
    <glyph glyph-name="uni040A" unicode="&#x40a;" horiz-adv-x="1082" 
d="M79 716h135v-285h288v285h135v-285h157q70 0 127 -25t90 -73.5t33 -116.5q0 -69 -33 -117.5t-90 -73.5t-127 -25h-292v306h-288v-306h-135v716zM799 125q48 0 75.5 25.5t27.5 65.5t-27.5 65t-75.5 25h-162v-181h162z" />
    <glyph glyph-name="uni040B" unicode="&#x40b;" horiz-adv-x="791" 
d="M219 588h-193v128h525v-128h-197v-147l-8 -75h8q31 33 76 52.5t102 19.5q58 0 103.5 -24.5t72 -72.5t26.5 -114v-227h-129v198q0 55 -30 85.5t-83 30.5q-43 0 -79.5 -21t-58.5 -55v-238h-135v588z" />
    <glyph glyph-name="uni040C" unicode="&#x40c;" horiz-adv-x="667" 
d="M79 716h135v-336h8l256 336h166v-8l-277 -353l295 -347v-8h-170l-270 319h-8v-319h-135v716zM323 908h153l-90 -136h-105z" />
    <glyph glyph-name="uni040D" unicode="&#x40d;" horiz-adv-x="729" 
d="M79 716h133v-360l-8 -138h8l291 498h147v-716h-134v351l8 138h-8l-285 -489h-152v716zM222 908h153l42 -136h-106z" />
    <glyph glyph-name="uni040E" unicode="&#x40e;" horiz-adv-x="634" 
d="M127 -12.5q-16 3.5 -31 10.5v128q37 -21 64 -21q22 0 37 9.5t27 32.5l25 51l-235 518h146l153 -362h8l155 362h144l-272 -599q-31 -69 -75.5 -101t-103.5 -32q-26 0 -42 3.5zM250.5 780.5q-31.5 17.5 -50.5 49t-19 69.5h93q0 -19 12 -32.5t32 -13.5q19 0 31 13.5t12 32.5
h92q0 -38 -18.5 -69.5t-49.5 -49t-67 -17.5t-67.5 17.5z" />
    <glyph glyph-name="uni040F" unicode="&#x40f;" horiz-adv-x="708" 
d="M289 0h-210v716h135v-588h280v588h135v-716h-210v-163h-130v163z" />
    <glyph glyph-name="uni0410" unicode="&#x410;" horiz-adv-x="720" 
d="M283 716h154l269 -716h-149l-59 171h-275l-60 -171h-149zM454 295l-64 180l-26 86h-8l-26 -86l-64 -180h188z" />
    <glyph glyph-name="uni0411" unicode="&#x411;" horiz-adv-x="640" 
d="M79 716h451v-124h-316v-158h145q67 0 122.5 -25.5t88 -74.5t32.5 -116t-32.5 -116.5t-88 -75.5t-122.5 -26h-280v716zM364 125q47 0 75 26.5t28 66.5q0 41 -27 67t-76 26h-150v-186h150z" />
    <glyph glyph-name="uni0412" unicode="&#x412;" horiz-adv-x="642" 
d="M79 716h280q60 0 110.5 -25t79.5 -68t29 -94q0 -54 -26.5 -93.5t-69.5 -60.5v-8q56 -20 89 -63.5t33 -104.5q0 -59 -31.5 -104.5t-85 -70t-118.5 -24.5h-290v716zM349 424q45 0 71 24.5t26 61.5q0 36 -25.5 60.5t-67.5 24.5h-139v-171h135zM364 123q49 0 76.5 25.5
t27.5 66.5t-28 67t-80 26h-146v-185h150z" />
    <glyph glyph-name="uni0413" unicode="&#x413;" horiz-adv-x="543" 
d="M79 716h438v-128h-303v-588h-135v716z" />
    <glyph glyph-name="uni0414" unicode="&#x414;" horiz-adv-x="809" 
d="M764 128v-280h-129v152h-461v-152h-129v280h90q33 61 49 161.5t16 218.5v208h485v-588h79zM551 128v460h-217v-103q0 -224 -60 -357h277z" />
    <glyph glyph-name="uni0415" unicode="&#x415;" horiz-adv-x="589" 
d="M79 716h454v-128h-319v-166h287v-128h-287v-166h319v-128h-454v716z" />
    <glyph glyph-name="uni0416" unicode="&#x416;" horiz-adv-x="966" 
d="M5 8l267 345l-252 355v8h164l224 -327h8v327h134v-327h8l224 327h164v-8l-252 -355l267 -345v-8h-172l-231 313h-8v-313h-134v313h-8l-231 -313h-172v8z" />
    <glyph glyph-name="uni0417" unicode="&#x417;" horiz-adv-x="581" 
d="M133 31q-68 47 -93 137l122 48q13 -52 46 -80.5t81 -28.5t81.5 30t33.5 74q0 45 -37 75t-94 30h-57v113h51q49 0 82.5 25t33.5 72q0 38 -28.5 63.5t-72.5 25.5q-41 0 -69 -23.5t-40 -57.5l-114 47q21 60 79 105.5t146 45.5q67 0 118.5 -25t80 -69.5t28.5 -100.5t-22 -92
t-61 -62v-8q49 -23 78 -67t29 -106q0 -60 -31.5 -110t-87.5 -79t-127 -29q-88 0 -156 47z" />
    <glyph glyph-name="uni0418" unicode="&#x418;" horiz-adv-x="729" 
d="M79 716h133v-360l-8 -138h8l291 498h147v-716h-134v351l8 138h-8l-285 -489h-152v716z" />
    <glyph glyph-name="uni0419" unicode="&#x419;" horiz-adv-x="729" 
d="M79 716h133v-360l-8 -138h8l291 498h147v-716h-134v351l8 138h-8l-285 -489h-152v716zM297.5 780.5q-31.5 17.5 -50.5 49t-19 69.5h93q0 -19 12 -32.5t32 -13.5q19 0 31 13.5t12 32.5h92q0 -38 -18.5 -69.5t-49.5 -49t-67 -17.5t-67.5 17.5z" />
    <glyph glyph-name="uni041A" unicode="&#x41a;" horiz-adv-x="667" 
d="M79 716h135v-336h8l256 336h166v-8l-277 -353l295 -347v-8h-170l-270 319h-8v-319h-135v716z" />
    <glyph glyph-name="uni041B" unicode="&#x41b;" horiz-adv-x="738" 
d="M26 -3v127q11 -5 34 -5q40 0 60 23q18 19 24.5 60t6.5 118v396h508v-716h-135v588h-238v-323q0 -83 -16.5 -137.5t-50.5 -87.5q-52 -48 -147 -48q-29 0 -46 5z" />
    <glyph glyph-name="uni041C" unicode="&#x41c;" horiz-adv-x="895" 
d="M79 716h174l190 -503h8l191 503h174v-716h-134v353l8 119h-8l-182 -472h-105l-183 472h-8l8 -119v-353h-133v716z" />
    <glyph glyph-name="uni041D" unicode="&#x41d;" horiz-adv-x="729" 
d="M79 716h135v-286h302v286h134v-716h-134v302h-302v-302h-135v716z" />
    <glyph glyph-name="uni041E" unicode="&#x41e;" horiz-adv-x="835" 
d="M227.5 33.5q-85.5 49.5 -134.5 135.5t-49 189t49 189t134.5 135.5t190.5 49.5t190.5 -49.5t134.5 -135.5t49 -189t-49 -189t-134.5 -135.5t-190.5 -49.5t-190.5 49.5zM538.5 143q54.5 31 86 87t31.5 128t-31.5 128t-86 87t-120.5 31t-121 -31t-86.5 -87t-31.5 -128
t31.5 -128t86.5 -87t121 -31t120.5 31z" />
    <glyph glyph-name="uni041F" unicode="&#x41f;" horiz-adv-x="708" 
d="M79 716h550v-716h-135v588h-280v-588h-135v716z" />
    <glyph glyph-name="uni0420" unicode="&#x420;" horiz-adv-x="605" 
d="M79 716h252q68 0 124 -28.5t88 -80t32 -117.5t-32 -118t-88 -80.5t-124 -28.5h-117v-263h-135v716zM335 391q51 0 79 28.5t28 70.5q0 41 -28 69.5t-79 28.5h-121v-197h121z" />
    <glyph glyph-name="uni0421" unicode="&#x421;" horiz-adv-x="746" 
d="M229 33.5q-86 49.5 -135.5 135t-49.5 189.5t49.5 189.5t135.5 135t190 49.5q162 0 268 -117l-95 -92q-71 81 -172 81q-67 0 -122 -30.5t-87 -86.5t-32 -129t32 -129t87 -86.5t122 -30.5q112 0 188 94l97 -91q-54 -64 -126 -97.5t-160 -33.5q-104 0 -190 49.5z" />
    <glyph glyph-name="uni0422" unicode="&#x422;" horiz-adv-x="587" 
d="M226 588h-200v128h535v-128h-200v-588h-135v588z" />
    <glyph glyph-name="uni0423" unicode="&#x423;" horiz-adv-x="634" 
d="M127 -12.5q-16 3.5 -31 10.5v128q37 -21 64 -21q22 0 37 9.5t27 32.5l25 51l-235 518h146l153 -362h8l155 362h144l-272 -599q-31 -69 -75.5 -101t-103.5 -32q-26 0 -42 3.5z" />
    <glyph glyph-name="uni0424" unicode="&#x424;" horiz-adv-x="840" 
d="M758.5 216.5q-38.5 -63.5 -108.5 -104.5t-162 -52v-108h-135v108q-92 11 -162 52t-108.5 104.5t-38.5 141.5t38.5 141.5t108.5 104.5t162 52v108h135v-108q92 -11 162 -52t108.5 -104.5t38.5 -141.5t-38.5 -141.5zM225 242.5q46 -46.5 128 -60.5v352q-82 -14 -128 -60.5
t-46 -115.5t46 -115.5zM615 243q46 47 46 115t-46 115t-127 60v-350q81 13 127 60z" />
    <glyph glyph-name="uni0425" unicode="&#x425;" horiz-adv-x="692" 
d="M253 374l-217 342h167l139 -234h8l139 234h167l-217 -342l235 -374h-168l-156 258h-8l-156 -258h-168z" />
    <glyph glyph-name="uni0426" unicode="&#x426;" horiz-adv-x="766" 
d="M590 0h-511v716h135v-588h283v588h135v-588h89v-296h-131v168z" />
    <glyph glyph-name="uni0427" unicode="&#x427;" horiz-adv-x="622" 
d="M429 309q-29 -23 -67.5 -36t-82.5 -13q-67 0 -120 27.5t-83 79.5t-30 122v227h135v-205q0 -59 34.5 -91t89.5 -32q39 0 68.5 13t55.5 40v275h135v-716h-135v309z" />
    <glyph glyph-name="uni0428" unicode="&#x428;" horiz-adv-x="947" 
d="M79 716h135v-588h192v588h135v-588h193v588h134v-716h-789v716z" />
    <glyph glyph-name="uni0429" unicode="&#x429;" horiz-adv-x="993" 
d="M818 0h-739v716h135v-588h192v588h135v-588h193v588h134v-588h80v-296h-130v168z" />
    <glyph glyph-name="uni042A" unicode="&#x42a;" horiz-adv-x="784" 
d="M217 593h-191v123h326v-245h133q71 0 130.5 -27t95 -80t35.5 -127t-35.5 -127.5t-95 -81.5t-130.5 -28h-268v593zM497 125q51 0 82.5 33t31.5 79t-31.5 79t-82.5 33h-145v-224h145z" />
    <glyph glyph-name="uni042B" unicode="&#x42b;" horiz-adv-x="890" 
d="M79 716h135v-245h133q71 0 130.5 -27t95 -80t35.5 -127t-35.5 -127.5t-95 -81.5t-130.5 -28h-268v716zM676 716h135v-716h-135v716zM359 125q51 0 82.5 33t31.5 79t-31.5 79t-82.5 33h-145v-224h145z" />
    <glyph glyph-name="uni042C" unicode="&#x42c;" horiz-adv-x="646" 
d="M79 716h135v-245h133q71 0 130.5 -27t95 -80t35.5 -127t-35.5 -127.5t-95 -81.5t-130.5 -28h-268v716zM359 125q51 0 82.5 33t31.5 79t-31.5 79t-82.5 33h-145v-224h145z" />
    <glyph glyph-name="uni042D" unicode="&#x42d;" horiz-adv-x="745" 
d="M519.5 682.5q84.5 -49.5 133 -135t48.5 -189.5t-48.5 -189.5t-133 -135t-189.5 -49.5q-87 0 -162 33.5t-127 97.5l95 91q37 -45 86 -69.5t108 -24.5q88 0 152 50t82 137h-314v118h314q-18 87 -82 137t-152 50q-55 0 -100 -21.5t-77 -59.5l-94 92q106 117 271 117
q105 0 189.5 -49.5z" />
    <glyph glyph-name="uni042E" unicode="&#x42e;" horiz-adv-x="1105" 
d="M878.5 682.5q85.5 -49.5 134.5 -135.5t49 -189t-49 -189t-134.5 -135.5t-190.5 -49.5q-95 0 -175 41.5t-131 114t-64 162.5h-104v-302h-135v716h135v-286h107q16 87 67 155.5t129 107.5t171 39q105 0 190.5 -49.5zM808.5 143q54.5 31 86 87t31.5 128t-31.5 128t-86 87
t-120.5 31t-121 -31t-86.5 -87t-31.5 -128t31.5 -128t86.5 -87t121 -31t120.5 31z" />
    <glyph glyph-name="uni042F" unicode="&#x42f;" horiz-adv-x="645" 
d="M28 8l192 275l-1 7q-66 24 -109.5 77.5t-43.5 122.5q0 65 30 116.5t84.5 80.5t124.5 29h261v-716h-134v269h-64l-185 -269h-155v8zM432 393v198h-128q-47 0 -74.5 -29t-27.5 -70q0 -43 29 -71t75 -28h126z" />
    <glyph glyph-name="uni0430" unicode="&#x430;" horiz-adv-x="549" 
d="M123 5.5q-42 21.5 -66 60t-24 87.5q0 50 26.5 88.5t72.5 59t103 20.5q77 0 131 -23v17q0 40 -31 65.5t-79 25.5q-73 0 -118 -58l-92 66q37 48 92 73t121 25q115 0 175.5 -54t60.5 -158v-300h-129v52h-8q-55 -68 -142 -68q-51 0 -93 21.5zM308.5 102.5q27.5 16.5 42.5 43
t15 56.5q-49 23 -103 23q-48 0 -73 -20t-25 -52q0 -30 23 -48.5t58 -18.5t62.5 16.5z" />
    <glyph glyph-name="uni0431" unicode="&#x431;" horiz-adv-x="610" 
d="M184 19.5q-60 35.5 -95 110t-35 187.5q0 124 29.5 202.5t83.5 122.5q73 61 184 61q53 0 71 6.5t24 23.5h112q-7 -77 -54 -107t-143 -30q-71 0 -115 -34q-26 -20 -43.5 -52t-21.5 -74h8q25 35 67 55.5t97 20.5q63 0 116 -36t84 -96.5t31 -131.5q0 -76 -34 -136t-94 -94
t-136 -34t-136 35.5zM386.5 122.5q30.5 17.5 48.5 50t18 75.5t-18 75.5t-48.5 50t-66.5 17.5q-35 0 -65.5 -17.5t-48.5 -50t-18 -75.5t18 -75.5t48.5 -50t65.5 -17.5q36 0 66.5 17.5z" />
    <glyph glyph-name="uni0432" unicode="&#x432;" horiz-adv-x="528" 
d="M62 496h262q43 0 79 -17.5t57 -48t21 -65.5q0 -38 -17 -64.5t-46 -40.5v-8q37 -16 59 -45.5t22 -67.5q0 -43 -23.5 -74.5t-60.5 -48t-78 -16.5h-275v496zM303 302q21 0 36 13.5t15 34.5q0 20 -15 33.5t-36 13.5h-117v-95h117zM322 103q25 0 41 15t16 38t-16 38t-41 15
h-136v-106h136z" />
    <glyph glyph-name="uni0433" unicode="&#x433;" horiz-adv-x="452" 
d="M62 496h363v-112h-232v-384h-131v496z" />
    <glyph glyph-name="uni0434" unicode="&#x434;" horiz-adv-x="667" 
d="M32 115h60q19 30 31.5 90.5t12.5 122.5v168h425v-381h74v-267h-117v152h-369v-152h-117v267zM435 115v266h-174v-64q0 -54 -9.5 -107t-27.5 -95h211z" />
    <glyph glyph-name="uni0435" unicode="&#x435;" horiz-adv-x="572" 
d="M161.5 18q-59.5 34 -93.5 94.5t-34 135.5q0 71 33.5 131.5t92 96.5t131.5 36q78 0 133.5 -33.5t84.5 -91.5t29 -132q0 -13 -1 -24q-1 -12 -1 -13h-373q8 -57 46.5 -87.5t88.5 -30.5q82 0 124 72l108 -53q-36 -64 -95 -99.5t-139 -35.5q-75 0 -134.5 34zM412 311
q-2 21 -16.5 43t-41 36.5t-63.5 14.5q-43 0 -76 -25.5t-46 -68.5h243z" />
    <glyph glyph-name="uni0436" unicode="&#x436;" horiz-adv-x="779" 
d="M2 8l185 254l-175 226v8h149l155 -208h8v208h131v-208h8l156 208h149v-8l-176 -226l185 -254v-8h-149l-165 232h-8v-232h-131v232h-8l-165 -232h-149v8z" />
    <glyph glyph-name="uni0437" unicode="&#x437;" horiz-adv-x="514" 
d="M46 75l81 81q57 -63 128 -63q42 0 67 15.5t25 41.5q0 24 -22 40t-61 16h-78v94h76q32 0 52.5 15t20.5 41q0 22 -22 37t-56 15q-71 0 -114 -50l-78 75q40 41 86 60t106 19q55 0 99.5 -19t70 -52t25.5 -72q0 -77 -60 -108v-8q37 -16 58.5 -46.5t21.5 -66.5
q0 -73 -58 -114.5t-159 -41.5q-126 0 -209 91z" />
    <glyph glyph-name="uni0438" unicode="&#x438;" horiz-adv-x="586" 
d="M62 496h131v-205l-8 -96h8l201 301h130v-496h-130v205l8 96h-8l-201 -301h-131v496z" />
    <glyph glyph-name="uni0439" unicode="&#x439;" horiz-adv-x="586" 
d="M62 496h131v-205l-8 -96h8l201 301h130v-496h-130v205l8 96h-8l-201 -301h-131v496zM226.5 602.5q-31.5 17.5 -50.5 49t-19 69.5h93q0 -19 12 -32.5t32 -13.5q19 0 31 13.5t12 32.5h92q0 -38 -18.5 -69.5t-49.5 -49t-67 -17.5t-67.5 17.5z" />
    <glyph glyph-name="uni043A" unicode="&#x43a;" horiz-adv-x="529" 
d="M62 496h131v-212h8l161 212h154v-8l-178 -226l189 -254v-8h-154l-172 237h-8v-237h-131v496z" />
    <glyph glyph-name="uni043B" unicode="&#x43b;" horiz-adv-x="641" 
d="M47 0v115q16 -5 33 -5q31 0 43.5 33t12.5 117v236h443v-496h-125v379h-194v-149q0 -128 -40.5 -183t-112.5 -55q-38 0 -60 8z" />
    <glyph glyph-name="uni043C" unicode="&#x43c;" horiz-adv-x="708" 
d="M60 496h156l134 -263h8l133 263h157v-496h-126v204l8 96h-8l-122 -236h-92l-123 236h-8l8 -96v-204h-125v496z" />
    <glyph glyph-name="uni043D" unicode="&#x43d;" horiz-adv-x="595" 
d="M62 496h131v-183h210v183h130v-496h-130v191h-210v-191h-131v496z" />
    <glyph glyph-name="uni043E" unicode="&#x43e;" horiz-adv-x="595" 
d="M162 18q-60 34 -94 94.5t-34 135.5q0 76 34 136t94 94t136 34q75 0 135 -34t94 -94.5t34 -135.5t-34 -135.5t-94 -94.5t-135 -34q-76 0 -136 34zM363.5 122.5q30.5 17.5 48.5 50t18 75.5t-18 75.5t-48.5 50t-65.5 17.5q-36 0 -66.5 -17.5t-48.5 -50t-18 -75.5t18 -75.5
t48.5 -50t66.5 -17.5q35 0 65.5 17.5z" />
    <glyph glyph-name="uni043F" unicode="&#x43f;" horiz-adv-x="583" 
d="M62 496h459v-496h-131v375h-197v-375h-131v496z" />
    <glyph glyph-name="uni0440" unicode="&#x440;" horiz-adv-x="612" 
d="M58 496h123v-59h8q19 32 58.5 53.5t92.5 21.5q65 0 119.5 -34t86.5 -94t32 -136t-32 -136t-86.5 -94t-119.5 -34q-53 0 -92.5 21.5t-58.5 54.5h-8l8 -71v-205h-131v712zM380 123q31 18 49.5 50.5t18.5 74.5q0 43 -18.5 75.5t-49.5 50t-66 17.5t-65.5 -17.5t-49 -50
t-18.5 -75.5t18.5 -75.5t49 -50t65.5 -17.5t66 18z" />
    <glyph glyph-name="uni0441" unicode="&#x441;" horiz-adv-x="559" 
d="M161 18q-60 34 -93.5 94t-33.5 136t33.5 136t93.5 94t135 34q83 0 142.5 -37.5t87.5 -102.5l-120 -50q-33 69 -111 69q-55 0 -92.5 -39.5t-37.5 -103.5t37.5 -103.5t92.5 -39.5q79 0 117 72l119 -52q-33 -66 -92.5 -103.5t-142.5 -37.5q-75 0 -135 34z" />
    <glyph glyph-name="uni0442" unicode="&#x442;" horiz-adv-x="493" 
d="M181 375h-154v121h439v-121h-154v-375h-131v375z" />
    <glyph glyph-name="uni0443" unicode="&#x443;" horiz-adv-x="565" 
d="M216 24l-209 472h149l126 -303h8l121 303h147l-310 -712h-141z" />
    <glyph glyph-name="uni0444" unicode="&#x444;" horiz-adv-x="779" 
d="M658.5 71.5q-76.5 -68.5 -203.5 -83.5v-204h-131v204q-127 15 -203.5 83.5t-76.5 176.5t76.5 176.5t203.5 83.5v208h131v-208q127 -15 203.5 -83.5t76.5 -176.5t-76.5 -176.5zM210.5 152q40.5 -38 113.5 -49v290q-73 -11 -113.5 -49t-40.5 -96t40.5 -96zM568.5 152.5
q40.5 37.5 40.5 95.5t-40.5 95.5t-113.5 49.5v-290q73 12 113.5 49.5z" />
    <glyph glyph-name="uni0445" unicode="&#x445;" horiz-adv-x="525" 
d="M184 252l-171 244h155l92 -139h7l85 139h160l-173 -244l174 -252h-155l-93 143h-7l-92 -143h-154z" />
    <glyph glyph-name="uni0446" unicode="&#x446;" horiz-adv-x="624" 
d="M475 0h-413v496h131v-379h197v379h131v-379h72v-269h-118v152z" />
    <glyph glyph-name="uni0447" unicode="&#x447;" horiz-adv-x="542" 
d="M350 177q-47 -19 -109 -19q-92 0 -148 53.5t-56 145.5v139h133v-129q0 -90 97 -90q49 0 83 21v198h130v-496h-130v177z" />
    <glyph glyph-name="uni0448" unicode="&#x448;" horiz-adv-x="822" 
d="M62 496h128v-379h147v379h128v-379h147v379h128v-496h-678v496z" />
    <glyph glyph-name="uni0449" unicode="&#x449;" horiz-adv-x="866" 
d="M694 0h-632v496h128v-379h147v379h128v-379h147v379h128v-379h72v-269h-118v152z" />
    <glyph glyph-name="uni044A" unicode="&#x44a;" horiz-adv-x="616" 
d="M151 393h-124v103h248v-162h129q81 0 133 -45.5t52 -121.5t-52 -121.5t-133 -45.5h-253v393zM399 103q30 0 50 17t20 47q0 29 -20 46.5t-50 17.5h-124v-128h124z" />
    <glyph glyph-name="uni044B" unicode="&#x44b;" horiz-adv-x="749" 
d="M62 496h124v-162h129q81 0 133.5 -45.5t52.5 -121.5t-52.5 -121.5t-133.5 -45.5h-253v496zM562 496h125v-496h-125v496zM310 103q31 0 51 17t20 47q0 29 -20 46.5t-51 17.5h-124v-128h124z" />
    <glyph glyph-name="uni044C" unicode="&#x44c;" horiz-adv-x="528" 
d="M62 496h124v-162h129q81 0 133.5 -45.5t52.5 -121.5t-52.5 -121.5t-133.5 -45.5h-253v496zM310 103q31 0 51 17t20 47q0 29 -20 46.5t-51 17.5h-124v-128h124z" />
    <glyph glyph-name="uni044D" unicode="&#x44d;" horiz-adv-x="549" 
d="M116 22.5q-59 38.5 -88 103.5l105 46q17 -38 49 -59t78 -21q50 0 86 28.5t48 80.5h-203v93h203q-12 52 -48 81t-86 29q-42 0 -74 -20t-48 -55l-105 43q28 65 86 102.5t140 37.5q75 0 133 -34t90.5 -94t32.5 -136t-32.5 -136t-90.5 -94t-133 -34q-84 0 -143 38.5z" />
    <glyph glyph-name="uni044E" unicode="&#x44e;" horiz-adv-x="830" 
d="M412.5 10q-54.5 26 -90.5 73t-47 108h-78v-191h-131v496h131v-183h80q20 89 89.5 144t166.5 55q76 0 136 -34t93.5 -94.5t33.5 -135.5t-33.5 -135.5t-93.5 -94.5t-136 -34q-66 0 -120.5 26zM598.5 122.5q30.5 17.5 49 50t18.5 75.5t-18.5 75.5t-49 50t-65.5 17.5
t-65.5 -17.5t-49 -50t-18.5 -75.5t18.5 -75.5t49 -50t65.5 -17.5t65.5 17.5z" />
    <glyph glyph-name="uni044F" unicode="&#x44f;" horiz-adv-x="517" 
d="M3 8l125 167l-3 6q-47 19 -76 59.5t-29 91.5q0 48 25 85.5t67.5 58t92.5 20.5h250v-496h-124v165h-70l-119 -165h-139v8zM331 267v126h-115q-30 0 -50.5 -17t-20.5 -46t20.5 -46t50.5 -17h115z" />
    <glyph glyph-name="uni0450" unicode="&#x450;" horiz-adv-x="572" 
d="M161.5 18q-59.5 34 -93.5 94.5t-34 135.5q0 71 33.5 131.5t92 96.5t131.5 36q78 0 133.5 -33.5t84.5 -91.5t29 -132q0 -13 -1 -24q-1 -12 -1 -13h-373q8 -57 46.5 -87.5t88.5 -30.5q82 0 124 72l108 -53q-36 -64 -95 -99.5t-139 -35.5q-75 0 -134.5 34zM412 311
q-2 21 -16.5 43t-41 36.5t-63.5 14.5q-43 0 -76 -25.5t-46 -68.5h243zM150 730h153l42 -136h-106z" />
    <glyph glyph-name="uni0451" unicode="&#x451;" horiz-adv-x="572" 
d="M161.5 18q-59.5 34 -93.5 94.5t-34 135.5q0 71 33.5 131.5t92 96.5t131.5 36q78 0 133.5 -33.5t84.5 -91.5t29 -132q0 -13 -1 -24q-1 -12 -1 -13h-373q8 -57 46.5 -87.5t88.5 -30.5q82 0 124 72l108 -53q-36 -64 -95 -99.5t-139 -35.5q-75 0 -134.5 34zM412 311
q-2 21 -16.5 43t-41 36.5t-63.5 14.5q-43 0 -76 -25.5t-46 -68.5h243zM146 614.5q-21 21.5 -21 50.5q0 31 21 51.5t51 20.5t50.5 -20.5t20.5 -51.5q0 -30 -20.5 -51t-50.5 -21t-51 21.5zM337 614.5q-21 21.5 -21 50.5q0 31 20.5 51.5t50.5 20.5q31 0 51.5 -20.5t20.5 -51.5
q0 -30 -21 -51t-51 -21q-29 0 -50 21.5z" />
    <glyph glyph-name="uni0452" unicode="&#x452;" horiz-adv-x="590" 
d="M304 -219v127q26 -14 52 -14q45 0 45 59v334q0 50 -25 77t-68 27q-52 0 -83.5 -42t-31.5 -104v-245h-131v565h-58v91h58v60h131v-60h136v-91h-136v-43l-8 -90h8q21 36 61.5 58t89.5 22q93 0 140.5 -55t47.5 -154v-353q0 -90 -45 -133t-116 -43q-39 0 -67 7z" />
    <glyph glyph-name="uni0453" unicode="&#x453;" horiz-adv-x="452" 
d="M62 496h363v-112h-232v-384h-131v496zM232 730h153l-90 -136h-105z" />
    <glyph glyph-name="uni0454" unicode="&#x454;" horiz-adv-x="549" 
d="M159 18q-59 34 -92 94t-33 136t33.5 136t92.5 94t133 34q82 0 138.5 -37.5t84.5 -102.5l-104 -43q-17 35 -48 55t-73 20q-50 0 -86.5 -29t-48.5 -81h202v-93h-202q12 -51 48.5 -80t86.5 -29q89 0 126 80l104 -46q-29 -66 -87 -104t-141 -38q-75 0 -134 34z" />
    <glyph glyph-name="uni0455" unicode="&#x455;" horiz-adv-x="494" 
d="M106.5 23.5q-56.5 39.5 -80.5 99.5l117 50q16 -37 44.5 -55.5t66.5 -18.5q34 0 56 12.5t22 33.5t-18.5 33.5t-61.5 22.5l-66 15q-56 12 -98 49.5t-42 94.5q0 69 57 110.5t143 41.5q74 0 128 -28t79 -85l-112 -48q-14 28 -39.5 41.5t-55.5 13.5t-50.5 -11.5t-20.5 -30.5
q0 -18 16.5 -28.5t48.5 -18.5l75 -19q74 -18 112 -57t38 -94q0 -45 -27 -82t-75.5 -59t-108.5 -22q-91 0 -147.5 39.5z" />
    <glyph glyph-name="uni0456" unicode="&#x456;" horiz-adv-x="271" 
d="M75.5 587q-24.5 25 -24.5 60t25 59.5t59 24.5q35 0 60 -24.5t25 -59.5t-25 -60t-60 -25t-59.5 25zM70 496h131v-496h-131v496z" />
    <glyph glyph-name="uni0457" unicode="&#x457;" horiz-adv-x="271" 
d="M2.5 616.5q-20.5 20.5 -20.5 48.5q0 29 20.5 49t48.5 20q29 0 49 -20t20 -49q0 -28 -20 -48.5t-49 -20.5q-28 0 -48.5 20.5zM170.5 616.5q-20.5 20.5 -20.5 48.5q0 29 20.5 49t48.5 20q29 0 49 -20t20 -49q0 -28 -20 -48.5t-49 -20.5q-28 0 -48.5 20.5zM70 496h131v-496
h-131v496z" />
    <glyph glyph-name="uni0458" unicode="&#x458;" horiz-adv-x="271" 
d="M75.5 587q-24.5 25 -24.5 60t25 59.5t59 24.5q35 0 60 -24.5t25 -59.5t-25 -60t-60 -25t-59.5 25zM-27 -219v127q26 -14 52 -14q45 0 45 59v543h131v-546q0 -90 -45 -133t-116 -43q-39 0 -67 7z" />
    <glyph glyph-name="uni0459" unicode="&#x459;" horiz-adv-x="917" 
d="M47 0v115q16 -5 33 -5q31 0 43.5 33t12.5 117v236h443v-171h126q80 0 131.5 -44t51.5 -118t-51.5 -118.5t-131.5 -44.5h-251v379h-194v-149q0 -128 -40.5 -183t-112.5 -55q-38 0 -60 8zM700 103q30 0 49 16t19 44q0 27 -19 43.5t-49 16.5h-121v-120h121z" />
    <glyph glyph-name="uni045A" unicode="&#x45a;" horiz-adv-x="886" 
d="M62 496h131v-171h198v171h130v-171h154q79 0 130.5 -44t51.5 -118t-51.5 -118.5t-130.5 -44.5h-284v223h-198v-223h-131v496zM669 103q31 0 49.5 16t18.5 44q0 27 -19 43.5t-49 16.5h-148v-120h148z" />
    <glyph glyph-name="uni045B" unicode="&#x45b;" horiz-adv-x="590" 
d="M484.5 457q47.5 -55 47.5 -154v-303h-131v287q0 50 -25 77t-68 27q-52 0 -83.5 -42t-31.5 -104v-245h-131v565h-58v91h58v60h131v-60h136v-91h-136v-43l-8 -90h8q21 36 61.5 58t89.5 22q93 0 140.5 -55z" />
    <glyph glyph-name="uni045C" unicode="&#x45c;" horiz-adv-x="529" 
d="M62 496h131v-212h8l161 212h154v-8l-178 -226l189 -254v-8h-154l-172 237h-8v-237h-131v496zM254 730h153l-90 -136h-105z" />
    <glyph glyph-name="uni045D" unicode="&#x45d;" horiz-adv-x="586" 
d="M62 496h131v-205l-8 -96h8l201 301h130v-496h-130v205l8 96h-8l-201 -301h-131v496zM151 730h153l42 -136h-106z" />
    <glyph glyph-name="uni045E" unicode="&#x45e;" horiz-adv-x="565" 
d="M216 24l-209 472h149l126 -303h8l121 303h147l-310 -712h-141zM216.5 602.5q-31.5 17.5 -50.5 49t-19 69.5h93q0 -19 12 -32.5t32 -13.5q19 0 31 13.5t12 32.5h92q0 -38 -18.5 -69.5t-49.5 -49t-67 -17.5t-67.5 17.5z" />
    <glyph glyph-name="uni045F" unicode="&#x45f;" horiz-adv-x="590" 
d="M236 0h-174v496h131v-375h204v375h131v-496h-175v-152h-117v152z" />
    <glyph glyph-name="uni0490" unicode="&#x490;" horiz-adv-x="549" 
d="M72 716h319v123h134v-251h-318v-588h-135v716z" />
    <glyph glyph-name="uni0491" unicode="&#x491;" horiz-adv-x="441" 
d="M56 496h248v108h113v-220h-230v-384h-131v496z" />
    <glyph glyph-name="uni04AE" unicode="&#x4ae;" horiz-adv-x="641" 
d="M255 333l-241 383h161l143 -237h8l138 237h163l-237 -383v-333h-135v333z" />
    <glyph glyph-name="uni04AF" unicode="&#x4af;" horiz-adv-x="549" 
d="M208 1l-202 495h147l122 -331l124 331h144l-204 -495v-217h-131v217z" />
    <glyph glyph-name="uni04B0" unicode="&#x4b0;" horiz-adv-x="641" 
d="M255 263h-172v98h154l-223 355h161l143 -237h8l138 237h163l-220 -355h155v-98h-172v-263h-135v263z" />
    <glyph glyph-name="uni04B1" unicode="&#x4b1;" horiz-adv-x="549" 
d="M208 0h-141v90h105l-15 36l-151 370h147l122 -331l124 331h144l-153 -370l-15 -36h106v-90h-142v-216h-131v216z" />
    <glyph glyph-name="uni0E3F" unicode="&#xe3f;" horiz-adv-x="618" 
d="M264 0h-192v684h192v100h89v-100q56 -1 104 -25t76 -64.5t28 -89.5q0 -53 -25 -89.5t-67 -56.5v-8q55 -21 86 -61t31 -99t-30 -102t-82 -66t-117 -23h-4v-100h-89v100zM264 406v159h-61v-159h61zM413.5 430q21.5 22 21.5 55t-21.5 56t-58.5 24h-2v-159q39 2 60.5 24z
M264 120v174h-61v-174h61zM359 120q46 1 71.5 25.5t25.5 62.5t-25.5 61.5t-73.5 24.5h-4v-174h6z" />
    <glyph glyph-name="Wgrave" unicode="&#x1e80;" horiz-adv-x="983" 
d="M17 716h150l97 -402l12 -75h8l17 75l126 402h133l123 -402l15 -73h8l13 73l97 402h150l-185 -716h-146l-122 432l-15 77h-8l-16 -77l-128 -432h-139zM351 908h153l42 -136h-106z" />
    <glyph glyph-name="wgrave" unicode="&#x1e81;" horiz-adv-x="816" 
d="M6 496h147l83 -315h7l100 315h134l99 -315h7l82 315h145l-159 -496h-140l-101 316h-6l-100 -316h-140zM266 730h153l42 -136h-106z" />
    <glyph glyph-name="Wacute" unicode="&#x1e82;" horiz-adv-x="983" 
d="M17 716h150l97 -402l12 -75h8l17 75l126 402h133l123 -402l15 -73h8l13 73l97 402h150l-185 -716h-146l-122 432l-15 77h-8l-16 -77l-128 -432h-139zM482 908h153l-90 -136h-105z" />
    <glyph glyph-name="wacute" unicode="&#x1e83;" horiz-adv-x="816" 
d="M6 496h147l83 -315h7l100 315h134l99 -315h7l82 315h145l-159 -496h-140l-101 316h-6l-100 -316h-140zM397 730h153l-90 -136h-105z" />
    <glyph glyph-name="Wdieresis" unicode="&#x1e84;" horiz-adv-x="983" 
d="M17 716h150l97 -402l12 -75h8l17 75l126 402h133l123 -402l15 -73h8l13 73l97 402h150l-185 -716h-146l-122 432l-15 77h-8l-16 -77l-128 -432h-139zM347 792.5q-21 21.5 -21 50.5q0 30 21 51t51 21t50.5 -21t20.5 -51t-20.5 -51t-50.5 -21t-51 21.5zM538 792.5
q-21 21.5 -21 50.5q0 30 21 51t50 21q31 0 51.5 -21t20.5 -51t-21 -51t-51 -21q-29 0 -50 21.5z" />
    <glyph glyph-name="wdieresis" unicode="&#x1e85;" horiz-adv-x="816" 
d="M6 496h147l83 -315h7l100 315h134l99 -315h7l82 315h145l-159 -496h-140l-101 316h-6l-100 -316h-140zM262 614.5q-21 21.5 -21 50.5q0 31 21 51.5t51 20.5t50.5 -20.5t20.5 -51.5q0 -30 -20.5 -51t-50.5 -21t-51 21.5zM453 614.5q-21 21.5 -21 50.5q0 31 20.5 51.5
t50.5 20.5q31 0 51.5 -20.5t20.5 -51.5q0 -30 -21 -51t-51 -21q-29 0 -50 21.5z" />
    <glyph glyph-name="Ygrave" unicode="&#x1ef2;" horiz-adv-x="641" 
d="M255 333l-241 383h161l143 -237h8l138 237h163l-237 -383v-333h-135v333zM178 908h153l42 -136h-106z" />
    <glyph glyph-name="ygrave" unicode="&#x1ef3;" horiz-adv-x="565" 
d="M216 24l-209 472h149l126 -303h8l121 303h147l-310 -712h-141zM141 730h153l42 -136h-106z" />
    <glyph glyph-name="uni2000" unicode="&#x2000;" horiz-adv-x="415" 
d="M0 0z" />
    <glyph glyph-name="uni2001" unicode="&#x2001;" horiz-adv-x="830" 
d="M0 0z" />
    <glyph glyph-name="uni2002" unicode="&#x2002;" horiz-adv-x="415" 
d="M0 0z" />
    <glyph glyph-name="uni2003" unicode="&#x2003;" horiz-adv-x="830" 
d="M0 0z" />
    <glyph glyph-name="uni2004" unicode="&#x2004;" horiz-adv-x="275" 
d="M0 0z" />
    <glyph glyph-name="uni2005" unicode="&#x2005;" horiz-adv-x="207" 
d="M0 0z" />
    <glyph glyph-name="uni2006" unicode="&#x2006;" horiz-adv-x="138" 
d="M0 0z" />
    <glyph glyph-name="uni2007" unicode="&#x2007;" 
d="M0 0z" />
    <glyph glyph-name="uni2008" unicode="&#x2008;" horiz-adv-x="232" 
d="M0 0z" />
    <glyph glyph-name="uni2009" unicode="&#x2009;" horiz-adv-x="138" 
d="M0 0z" />
    <glyph glyph-name="uni200A" unicode="&#x200a;" horiz-adv-x="70" 
d="M0 0z" />
    <glyph glyph-name="endash" unicode="&#x2013;" horiz-adv-x="621" 
d="M61 368h499v-116h-499v116z" />
    <glyph glyph-name="emdash" unicode="&#x2014;" horiz-adv-x="927" 
d="M61 368h805v-116h-805v116z" />
    <glyph glyph-name="uni2015" unicode="&#x2015;" horiz-adv-x="1066" 
d="M61 368h944v-116h-944v116z" />
    <glyph glyph-name="quoteleft" unicode="&#x2018;" horiz-adv-x="269" 
d="M73.5 475.5q-25.5 25.5 -25.5 61.5q0 18 6 32.5t19 33.5l87 129l59 -39l-51 -78q23 -9 38 -29.5t15 -48.5q0 -36 -25 -61.5t-61 -25.5t-61.5 25.5z" />
    <glyph glyph-name="quoteright" unicode="&#x2019;" horiz-adv-x="269" 
d="M50 489l51 78q-23 9 -38 30t-15 48q0 36 25.5 61.5t61.5 25.5t61 -25.5t25 -61.5q0 -18 -6 -32.5t-19 -33.5l-87 -129z" />
    <glyph glyph-name="quotesinglbase" unicode="&#x201a;" horiz-adv-x="269" 
d="M50 -78l57 77q-26 7 -42.5 29t-16.5 50q0 36 25.5 61.5t61.5 25.5t61 -25.5t25 -61.5q0 -18 -6 -32.5t-19 -33.5l-87 -129z" />
    <glyph glyph-name="quotedblleft" unicode="&#x201c;" horiz-adv-x="488" 
d="M73.5 475.5q-25.5 25.5 -25.5 61.5q0 18 6 32.5t19 33.5l87 129l59 -39l-51 -78q23 -9 38 -29.5t15 -48.5q0 -36 -25 -61.5t-61 -25.5t-61.5 25.5zM292.5 475.5q-25.5 25.5 -25.5 61.5q0 18 6 32.5t19 33.5l87 129l59 -39l-51 -78q23 -9 38 -29.5t15 -48.5
q0 -36 -25 -61.5t-61 -25.5t-61.5 25.5z" />
    <glyph glyph-name="quotedblright" unicode="&#x201d;" horiz-adv-x="488" 
d="M50 489l57 77q-26 7 -42.5 29t-16.5 50q0 36 25.5 61.5t61.5 25.5t61 -25.5t25 -61.5q0 -18 -6 -32.5t-19 -33.5l-87 -129zM269 489l57 77q-26 7 -42.5 29t-16.5 50q0 36 25.5 61.5t61.5 25.5t61 -25.5t25 -61.5q0 -18 -6 -32.5t-19 -33.5l-87 -129z" />
    <glyph glyph-name="quotedblbase" unicode="&#x201e;" horiz-adv-x="479" 
d="M50 -78l57 77q-26 7 -42.5 29t-16.5 50q0 36 25.5 61.5t61.5 25.5t61 -25.5t25 -61.5q0 -18 -6 -32.5t-19 -33.5l-87 -129zM259 -78l57 77q-26 7 -42.5 29t-16.5 50q0 36 25.5 61.5t61.5 25.5t61 -25.5t25 -61.5q0 -18 -6 -32.5t-19 -33.5l-87 -129z" />
    <glyph glyph-name="dagger" unicode="&#x2020;" horiz-adv-x="463" 
d="M173 479h-141v106h141v131h116v-131h142v-106h-142v-321h-116v321z" />
    <glyph glyph-name="daggerdbl" unicode="&#x2021;" horiz-adv-x="463" 
d="M173 147h-141v106h141v226h-141v106h141v131h116v-131h142v-106h-142v-226h142v-106h-142v-147h-116v147z" />
    <glyph glyph-name="bullet" unicode="&#x2022;" horiz-adv-x="421" 
d="M145.5 210.5q-30.5 17.5 -48 48t-17.5 65.5t17.5 65.5t48 48t65.5 17.5t65 -17.5t47.5 -48t17.5 -65.5t-17.5 -65.5t-47.5 -48t-65 -17.5t-65.5 17.5z" />
    <glyph glyph-name="ellipsis" unicode="&#x2026;" horiz-adv-x="764" 
d="M79.5 19.5q-25.5 25.5 -25.5 61.5t25.5 61t61.5 25t61 -25t25 -61t-25 -61.5t-61 -25.5t-61.5 25.5zM320.5 19.5q-25.5 25.5 -25.5 61.5t25.5 61t61.5 25t61 -25t25 -61t-25 -61.5t-61 -25.5t-61.5 25.5zM562.5 19.5q-25.5 25.5 -25.5 61.5t25.5 61t61.5 25t61 -25
t25 -61t-25 -61.5t-61 -25.5t-61.5 25.5z" />
    <glyph glyph-name="perthousand" unicode="&#x2030;" horiz-adv-x="1105" 
d="M124.5 381q-40.5 23 -63.5 62t-23 86t23 86t63.5 62t89.5 23q50 0 90.5 -23t63.5 -62t23 -86t-23 -86t-63.5 -62t-90.5 -23q-49 0 -89.5 23zM165 37l444 663l79 -53l-444 -663zM263.5 476q19.5 20 19.5 53t-19.5 53t-49.5 20q-29 0 -49 -20.5t-20 -52.5t20 -52.5
t49 -20.5q30 0 49.5 20zM548.5 7q-40.5 23 -63.5 62t-23 86t23 86t63.5 62t89.5 23q40 0 72.5 -17.5t54.5 -47.5q21 30 53.5 47.5t72.5 17.5q49 0 89.5 -23t63.5 -62t23 -86t-23 -86t-63.5 -62t-89.5 -23q-40 0 -72.5 17.5t-53.5 47.5q-22 -30 -54.5 -47.5t-72.5 -17.5
q-49 0 -89.5 23zM687.5 102q19.5 20 19.5 53t-19.5 53t-49.5 20q-29 0 -49 -20.5t-20 -52.5t20 -52.5t49 -20.5q30 0 49.5 20zM940.5 102q19.5 20 19.5 53t-19.5 53t-49.5 20q-29 0 -49 -20.5t-20 -52.5t20 -52.5t49 -20.5q30 0 49.5 20z" />
    <glyph glyph-name="uni2031" unicode="&#x2031;" horiz-adv-x="1346" 
d="M118.5 381q-40.5 23 -63.5 62t-23 86t23 86t63.5 62t89.5 23q50 0 90.5 -23t63.5 -62t23 -86t-23 -86t-63.5 -62t-90.5 -23q-49 0 -89.5 23zM159 37l444 663l79 -53l-444 -663zM257.5 476q19.5 20 19.5 53t-19.5 53t-49.5 20q-29 0 -49 -20.5t-20 -52.5t20 -52.5
t49 -20.5q30 0 49.5 20zM542.5 7q-40.5 23 -63.5 62t-23 86t23 86t63.5 62t89.5 23q40 0 72.5 -17.5t54.5 -47.5q21 30 53.5 47.5t72.5 17.5t72.5 -17.5t53.5 -47.5q21 30 54 47.5t73 17.5q49 0 89.5 -23t63.5 -62t23 -86t-23 -86t-63.5 -62t-89.5 -23q-40 0 -73 17.5
t-54 47.5q-21 -30 -53.5 -47.5t-72.5 -17.5t-72.5 17.5t-53.5 47.5q-22 -30 -54.5 -47.5t-72.5 -17.5q-49 0 -89.5 23zM681.5 102q19.5 20 19.5 53t-19.5 53t-49.5 20q-29 0 -49 -20.5t-20 -52.5t20 -52.5t49 -20.5q30 0 49.5 20zM934.5 102q19.5 20 19.5 53t-19.5 53
t-49.5 20q-29 0 -49 -20.5t-20 -52.5t20 -52.5t49 -20.5q30 0 49.5 20zM1187 102.5q20 20.5 20 52.5t-20 52.5t-49 20.5q-30 0 -49.5 -20t-19.5 -53t19.5 -53t49.5 -20q29 0 49 20.5z" />
    <glyph glyph-name="guilsinglleft" unicode="&#x2039;" horiz-adv-x="387" 
d="M40 271l212 230l75 -69l-150 -161l150 -161l-75 -69z" />
    <glyph glyph-name="guilsinglright" unicode="&#x203a;" horiz-adv-x="387" 
d="M60 110l150 161l-150 161l75 69l212 -230l-212 -230z" />
    <glyph glyph-name="exclamdbl" unicode="&#x203c;" horiz-adv-x="525" 
d="M73 510v206h135v-206l-13 -264h-109zM79.5 19.5q-25.5 25.5 -25.5 61.5t25.5 61t61.5 25t61 -25t25 -61t-25 -61.5t-61 -25.5t-61.5 25.5zM317 510v206h135v-206l-13 -264h-109zM323.5 19.5q-25.5 25.5 -25.5 61.5t25.5 61t61.5 25t61 -25t25 -61t-25 -61.5t-61 -25.5
t-61.5 25.5z" />
    <glyph glyph-name="uni2042" unicode="&#x2042;" horiz-adv-x="914" 
d="M311 429l66 91l-3 9l-100 35l30 88l99 -36l8 4v107h93v-107l8 -4l99 36l31 -88l-101 -35l-3 -9l67 -91l-75 -54l-68 93h-9l-68 -93zM77 27l66 91l-3 9l-100 35l31 88l99 -36l7 4v107h94v-107l7 -4l99 36l31 -88l-100 -35l-3 -9l66 -91l-75 -54l-68 93h-8l-68 -93zM543 27
l66 91l-3 9l-100 35l31 88l99 -36l7 4v107h94v-107l7 -4l99 36l31 -88l-100 -35l-3 -9l66 -91l-75 -54l-68 93h-8l-68 -93z" />
    <glyph glyph-name="uni2043" unicode="&#x2043;" horiz-adv-x="416" 
d="M72 372h272v-124h-272v124z" />
    <glyph glyph-name="fraction" unicode="&#x2044;" horiz-adv-x="192" 
d="M-176 37l465 694l79 -53l-465 -694z" />
    <glyph glyph-name="uni2047" unicode="&#x2047;" horiz-adv-x="999" 
d="M194 279q0 48 20 83t72 80q30 27 43.5 47t13.5 46q0 31 -23 52.5t-61 21.5q-40 0 -66 -23.5t-36 -58.5l-115 48q19 64 74 110.5t139 46.5q63 0 112.5 -25t77 -68.5t27.5 -96.5q0 -52 -22 -88.5t-66 -78.5q-34 -32 -46.5 -55t-12.5 -58v-16h-131v33zM197 19.5
q-25 25.5 -25 61.5t25 61t61 25t61.5 -25t25.5 -61t-25.5 -61.5t-61.5 -25.5t-61 25.5zM667 279q0 48 20 83t72 80q30 27 43.5 47t13.5 46q0 31 -23 52.5t-61 21.5q-40 0 -66 -23.5t-36 -58.5l-115 48q19 64 74 110.5t139 46.5q63 0 112.5 -25t77 -68.5t27.5 -96.5
q0 -52 -22 -88.5t-66 -78.5q-34 -32 -46.5 -55t-12.5 -58v-16h-131v33zM670 19.5q-25 25.5 -25 61.5t25 61t61 25t61.5 -25t25.5 -61t-25.5 -61.5t-61.5 -25.5t-61 25.5z" />
    <glyph glyph-name="uni2048" unicode="&#x2048;" horiz-adv-x="772" 
d="M194 279q0 48 20 83t72 80q30 27 43.5 47t13.5 46q0 31 -23 52.5t-61 21.5q-40 0 -66 -23.5t-36 -58.5l-115 48q19 64 74 110.5t139 46.5q63 0 112.5 -25t77 -68.5t27.5 -96.5q0 -52 -22 -88.5t-66 -78.5q-34 -32 -46.5 -55t-12.5 -58v-16h-131v33zM197 19.5
q-25 25.5 -25 61.5t25 61t61 25t61.5 -25t25.5 -61t-25.5 -61.5t-61.5 -25.5t-61 25.5zM563 510v206h135v-206l-13 -264h-109zM569.5 19.5q-25.5 25.5 -25.5 61.5t25.5 61t61.5 25t61 -25t25 -61t-25 -61.5t-61 -25.5t-61.5 25.5z" />
    <glyph glyph-name="uni2049" unicode="&#x2049;" horiz-adv-x="768" 
d="M437 279q0 48 20 83t72 80q30 27 43.5 47t13.5 46q0 31 -23 52.5t-61 21.5q-40 0 -66 -23.5t-36 -58.5l-115 48q19 64 74 110.5t139 46.5q63 0 112.5 -25t77 -68.5t27.5 -96.5q0 -52 -22 -88.5t-66 -78.5q-34 -32 -46.5 -55t-12.5 -58v-16h-131v33zM440 19.5
q-25 25.5 -25 61.5t25 61t61 25t61.5 -25t25.5 -61t-25.5 -61.5t-61.5 -25.5t-61 25.5zM73 510v206h135v-206l-13 -264h-109zM79.5 19.5q-25.5 25.5 -25.5 61.5t25.5 61t61.5 25t61 -25t25 -61t-25 -61.5t-61 -25.5t-61.5 25.5z" />
    <glyph glyph-name="uni204E" unicode="&#x204e;" horiz-adv-x="428" 
d="M60 37l72 98l-3 9l-107 38l31 89l105 -37l9 3v114h94v-114l8 -3l106 37l31 -89l-107 -38l-3 -9l72 -98l-76 -55l-74 100h-8l-74 -100z" />
    <glyph glyph-name="uni2051" unicode="&#x2051;" horiz-adv-x="448" 
d="M77 429l66 91l-3 9l-100 35l31 88l99 -36l7 4v107h94v-107l7 -4l99 36l31 -88l-100 -35l-3 -9l66 -91l-75 -54l-68 93h-8l-68 -93zM77 32l66 90l-3 9l-100 35l31 88l99 -35l7 4v106h94v-106l7 -4l99 35l31 -88l-100 -35l-3 -9l66 -90l-75 -55l-68 94h-8l-68 -94z" />
    <glyph glyph-name="uni2055" unicode="&#x2055;" horiz-adv-x="685" 
d="M291 202l-115 -115l-72 72l115 115h-163v102h163l-115 115l72 72l115 -115v163h103v-163l114 115l73 -72l-116 -115h164v-102h-164l116 -115l-73 -72l-114 115v-163h-103v163z" />
    <glyph glyph-name="uni2074" unicode="&#x2074;" horiz-adv-x="362" 
d="M200 415h-172v64l171 237h87v-227h48v-74h-48v-65h-86v65zM200 489v107h-8l-76 -107h84z" />
    <glyph glyph-name="franc" unicode="&#x20a3;" horiz-adv-x="577" 
d="M219 568v-176h286v-116h-286v-86h128v-76h-128v-114h-123v114h-69v76h69v494h441v-116h-318z" />
    <glyph glyph-name="lira" unicode="&#x20a4;" horiz-adv-x="557" 
d="M538 131q-39 -131 -172 -131h-318v106q32 12 54 34t34 49h-98v76h104q-3 23 -19 61h-85v76h47q-22 47 -22 96q0 54 27.5 100.5t76.5 74t111 27.5q87 0 140 -42.5t72 -105.5l-116 -47q-8 33 -32 56t-64 23q-41 0 -66 -26t-25 -64q0 -42 25 -92h154v-76h-119q12 -38 13 -61
h106v-76h-114q-11 -39 -42 -66l5 -7h149q56 0 72 59z" />
    <glyph glyph-name="uni20A9" unicode="&#x20a9;" horiz-adv-x="1012" 
d="M139 326h-102v76h83l-76 282h146l68 -282h93l90 282h135l88 -282h92l68 282h146l-74 -282h74v-76h-93l-85 -326h-139l-95 326h-100l-100 -326h-132zM536 402l-7 25l-16 83h-8l-16 -83l-8 -25h55zM303 224l15 64l11 38h-54l9 -38l11 -64h8zM718 225l12 63l9 38h-53l11 -38
l14 -63h7z" />
    <glyph glyph-name="dong" unicode="&#x20ab;" horiz-adv-x="599" 
d="M151.5 16q-53.5 32 -85.5 89.5t-32 131.5t32 131.5t85.5 89.5t114.5 32q52 0 88.5 -21t56.5 -54h8l-8 70v54h-140v74h140v71h131v-71h59v-74h-59v-539h-123v59h-8q-20 -33 -56.5 -54t-88.5 -21q-61 0 -114.5 32zM383.5 140q35.5 35 35.5 97t-35.5 97t-90.5 35
q-54 0 -91 -35.5t-37 -96.5t37 -96.5t91 -35.5q55 0 90.5 35zM66 -84h476v-96h-476v96z" />
    <glyph glyph-name="Euro" unicode="&#x20ac;" horiz-adv-x="661" 
d="M633 29q-79 -45 -174 -45q-117 0 -206 63t-125 168h-100v94h80q-1 11 -1 33t1 33h-80v94h100q36 105 125 168t206 63q87 0 160 -44l-62 -107q-41 27 -97 27q-60 0 -110.5 -28t-79.5 -79h202v-94h-232q-2 -22 -2 -33t2 -33h232v-94h-202q29 -51 79.5 -79t110.5 -28
q36 0 64 8.5t54 25.5z" />
    <glyph glyph-name="uni20AE" unicode="&#x20ae;" horiz-adv-x="561" 
d="M219 100l-113 -70h-6v109l119 75v56l-119 -75v114l119 75v184h-193v116h509v-116h-193v-113l112 71h7v-110l-119 -75v-55l119 75v-114l-119 -75v-172h-123v100z" />
    <glyph glyph-name="uni20B1" unicode="&#x20b1;" horiz-adv-x="667" 
d="M648 434h-61q-13 -83 -75.5 -129t-155.5 -46h-128v-259h-123v434h-76v76h76v174h251q92 0 155 -46t76 -128h61v-76zM228 510h234q-12 26 -37 42t-61 16h-136v-58zM425.5 391q25.5 16 36.5 43h-234v-59h136q36 0 61.5 16z" />
    <glyph glyph-name="uni20B8" unicode="&#x20b8;" horiz-adv-x="561" 
d="M26 684h509v-112h-509v112zM219 400h-193v112h509v-112h-193v-400h-123v400z" />
    <glyph glyph-name="uni20B9" unicode="&#x20b9;" horiz-adv-x="585" 
d="M449 608q35 -38 46 -96h64v-76h-64q-12 -73 -67 -120t-128 -54h-7l-1 -8l241 -246v-8h-173l-252 259v117h164q34 0 60.5 16t37.5 44h-344v76h344q-11 27 -36 43.5t-60 16.5h-248v112h533v-76h-110z" />
    <glyph glyph-name="uni20BA" unicode="&#x20ba;" horiz-adv-x="554" 
d="M528 261q0 -73 -35 -132.5t-96.5 -94t-138.5 -34.5h-115v165l-117 -73v113l117 73v76l-117 -73v114l117 73v216h122v-145l122 77v-114l-122 -77v-76l122 78v-114l-122 -77v-125q64 6 104 49t40 101h119z" />
    <glyph glyph-name="uni20BD" unicode="&#x20bd;" horiz-adv-x="618" 
d="M103 114h-76v76h76v69h-76v112h76v313h251q67 0 120.5 -25.5t83.5 -73.5t30 -113q0 -66 -30 -114t-83.5 -73.5t-120.5 -25.5h-128v-69h131v-76h-131v-114h-123v114zM362 375q48 0 76.5 27.5t28.5 69.5q0 41 -28.5 68.5t-76.5 27.5h-136v-193h136z" />
    <glyph glyph-name="uni2103" unicode="&#x2103;" horiz-adv-x="969" 
d="M97.5 459.5q-30.5 17.5 -48 47t-17.5 64.5t17.5 65t48 47t65.5 17t65 -17t47.5 -47t17.5 -65t-17.5 -64.5t-47.5 -47t-65 -17.5t-65.5 17.5zM477.5 31.5q-82.5 47.5 -130 129t-47.5 181.5t47.5 181.5t130 129t182.5 47.5q152 0 255 -113l-90 -88q-67 77 -165 77
q-64 0 -116.5 -29t-82.5 -82t-30 -123t30 -123t82.5 -82t116.5 -29q107 0 181 90l92 -88q-51 -62 -120 -94t-153 -32q-100 0 -182.5 47.5zM198.5 534.5q14.5 15.5 14.5 36.5q0 22 -14 37t-36 15t-36.5 -15t-14.5 -37q0 -21 14.5 -36.5t36.5 -15.5q21 0 35.5 15.5z" />
    <glyph glyph-name="uni2109" unicode="&#x2109;" horiz-adv-x="833" 
d="M97.5 459.5q-30.5 17.5 -48 47t-17.5 64.5t17.5 65t48 47t65.5 17t65 -17t47.5 -47t17.5 -65t-17.5 -64.5t-47.5 -47t-65 -17.5t-65.5 17.5zM366 684h435v-124h-305v-164h275v-124h-275v-272h-130v684zM198.5 534.5q14.5 15.5 14.5 36.5q0 22 -14 37t-36 15t-36.5 -15
t-14.5 -37q0 -21 14.5 -36.5t36.5 -15.5q21 0 35.5 15.5z" />
    <glyph glyph-name="uni2113" unicode="&#x2113;" horiz-adv-x="455" 
d="M152.5 38q-47.5 46 -47.5 128v102h-89v107h89v183q0 80 43.5 127t121.5 47q43 0 78 -23t55 -63.5t20 -91.5q0 -67 -25 -124.5t-69 -97.5t-100 -57v-94q0 -35 16 -53.5t43 -18.5q18 0 33 5t37 18v-127q-22 -7 -39.5 -10t-42.5 -3q-76 0 -123.5 46zM285.5 453.5
q18.5 43.5 18.5 100.5q0 35 -10.5 53t-27.5 18q-37 0 -37 -58v-177q38 20 56.5 63.5z" />
    <glyph glyph-name="uni2114" unicode="&#x2114;" horiz-adv-x="847" 
d="M701 472.5q54 -33.5 86 -93t32 -134.5t-32 -134.5t-86 -93t-117 -33.5q-53 0 -91.5 21t-58.5 54h-8v-59h-123v572h-84v-572h-131v572h-64v72h64v72h131v-72h84v72h131v-72h131v-72h-131v-71l-8 -70h8q20 33 58.5 54t91.5 21q63 0 117 -33.5zM622.5 122.5
q30.5 17.5 48.5 49t18 73.5t-18 73.5t-48.5 49t-65.5 17.5t-65 -17t-48 -49t-18 -74t18 -74t48 -49t65 -17t65.5 17.5z" />
    <glyph glyph-name="uni2116" unicode="&#x2116;" horiz-adv-x="1093" 
d="M801.5 413q-39.5 23 -62 62t-22.5 86t22.5 86t62 62t87.5 23t87.5 -23t62 -62t22.5 -86t-22.5 -86t-62 -62t-87.5 -23t-87.5 23zM72 716h157l288 -480h8l-8 138v342h134v-716h-142l-304 507h-8l8 -138v-369h-133v716zM945 500q23 24 23 61q0 38 -22.5 61.5t-56.5 23.5
q-33 0 -56 -24t-23 -61t23 -61t56 -24t56 24zM749 323h280v-85h-280v85z" />
    <glyph glyph-name="uni2117" unicode="&#x2117;" horiz-adv-x="532" 
d="M151 303q-53 31 -84 84t-31 115t31 115t84 84t115 31t115 -31t84 -84t31 -115t-31 -115t-84 -84t-115 -31t-115 31zM357.5 344.5q41.5 24.5 66 66.5t24.5 91q0 50 -24.5 91.5t-66 66t-91.5 24.5q-49 0 -91 -24.5t-66.5 -66t-24.5 -91.5q0 -49 25 -90.5t66.5 -66.5
t90.5 -25q50 0 91.5 24.5zM197 615h96q29 0 51 -21t22 -51t-22 -51t-51 -21h-50v-82h-46v226zM289 515q13 0 22 8t9 20q0 11 -8.5 19.5t-21.5 8.5h-47v-56h46z" />
    <glyph glyph-name="prescription" unicode="&#x211e;" horiz-adv-x="726" 
d="M259 -152l156 222l-138 199h-70v-269h-135v716h261q70 0 124.5 -28t84.5 -77.5t30 -112.5q0 -75 -43.5 -130t-113.5 -78l-1 -8l75 -107l80 115h137v-8l-145 -210l157 -224v-8h-144l-87 125l-86 -125h-142v8zM332 396q46 0 75.5 26.5t29.5 69.5q0 40 -27.5 68t-75.5 28
h-127v-192h125z" />
    <glyph glyph-name="uni2120" unicode="&#x2120;" horiz-adv-x="498" 
d="M50 502q-25 16 -34 44l41 18q5 -15 19 -25.5t28 -10.5t25 7t11 18q0 12 -12 20t-40 16q-29 7 -46.5 24t-17.5 42q0 29 23.5 47t56.5 18q25 0 47.5 -14.5t30.5 -37.5l-40 -16q-2 8 -13 17t-25 9q-15 0 -24.5 -6.5t-9.5 -16.5q0 -16 39 -28q35 -11 56 -27t21 -47
q0 -33 -26 -50t-56 -17q-29 0 -54 16zM222 716h62l63 -162h2l63 162h62v-226h-44v118l2 44h-2l-66 -162h-32l-66 162h-2l2 -44v-118h-44v226z" />
    <glyph glyph-name="trademark" unicode="&#x2122;" horiz-adv-x="501" 
d="M77 674h-69v42h181v-42h-66v-184h-46v184zM225 716h62l63 -162h2l63 162h62v-226h-44v118l2 44h-2l-66 -162h-32l-66 162h-2l2 -44v-118h-44v226z" />
    <glyph glyph-name="uni2126" unicode="&#x2126;" horiz-adv-x="811" 
d="M60 117h135v8q-65 39 -106 108.5t-41 164.5q0 90 46.5 167t128.5 122t183 45t182.5 -45t128 -122t46.5 -167q0 -95 -41 -164.5t-106 -108.5v-8h135v-117h-299v164q76 22 125.5 81t49.5 144q0 61 -30 110t-80.5 77t-110.5 28t-111 -28t-81 -77t-30 -110q0 -85 49.5 -144
t125.5 -81v-164h-299v117z" />
    <glyph glyph-name="estimated" unicode="&#x212e;" horiz-adv-x="784" 
d="M218.5 33q-82.5 49 -128.5 134.5t-46 190.5q0 100 44.5 185.5t124 137t179.5 51.5q104 0 182.5 -46.5t122 -131t43.5 -196.5q0 -14 -1 -22h-551v-185q37 -52 95.5 -77.5t123.5 -25.5q81 0 144 37t98 119l68 -28q-34 -82 -115.5 -137t-195.5 -55q-105 0 -187.5 49z
M596 396v194q-34 39 -87.5 58.5t-116.5 19.5q-61 0 -114 -23t-90 -68v-181h408z" />
    <glyph glyph-name="uni2153" unicode="&#x2153;" horiz-adv-x="844" 
d="M147 605l-49 -43l-50 66l107 88h81v-366h-89v255zM127 37l465 694l79 -53l-465 -694zM544.5 17.5q-38.5 25.5 -51.5 75.5l83 30q6 -28 21.5 -41t36.5 -13q20 0 34.5 12t14.5 32q0 19 -16 30.5t-41 11.5h-38v70h34q23 0 36.5 10t13.5 28q0 15 -11.5 24.5t-27.5 9.5
q-21 0 -34 -10.5t-18 -26.5l-78 31q13 38 47 60.5t85 22.5q54 0 89 -30t35 -73q0 -48 -43 -78q25 -13 40.5 -35t15.5 -49q0 -53 -40.5 -85t-97.5 -32q-51 0 -89.5 25.5z" />
    <glyph glyph-name="uni2154" unicode="&#x2154;" horiz-adv-x="892" 
d="M52 413l128 129q21 21 31 35t10 32q0 15 -11.5 25.5t-29.5 10.5q-20 0 -34 -12.5t-18 -37.5l-80 31q10 45 46.5 71.5t85.5 26.5q57 0 94 -30t37 -78q0 -51 -62 -113l-75 -74h139v-79h-261v63zM176 37l465 694l79 -53l-465 -694zM588.5 17.5q-38.5 25.5 -51.5 75.5l83 30
q6 -28 21.5 -41t36.5 -13q20 0 34.5 12t14.5 32q0 19 -16 30.5t-41 11.5h-38v70h34q23 0 36.5 10t13.5 28q0 15 -11.5 24.5t-27.5 9.5q-21 0 -34 -10.5t-18 -26.5l-78 31q13 38 47 60.5t85 22.5q54 0 89 -30t35 -73q0 -48 -43 -78q25 -13 40.5 -35t15.5 -49q0 -53 -40.5 -85
t-97.5 -32q-51 0 -89.5 25.5z" />
    <glyph glyph-name="oneeighth" unicode="&#x215b;" horiz-adv-x="822" 
d="M147 605l-49 -43l-50 66l107 88h81v-366h-89v255zM123 37l465 694l79 -53l-465 -694zM531 23q-41 31 -41 83q0 27 14 50t38 37q-18 12 -29 31.5t-11 40.5q0 49 36.5 79t89.5 30t89.5 -30t36.5 -79q0 -21 -11 -40.5t-29 -31.5q24 -14 38 -37t14 -50q0 -53 -41 -83.5
t-97 -30.5t-97 31zM656 235.5q12 10.5 12 26.5t-11.5 26.5t-28.5 10.5q-18 0 -29 -10t-11 -27t12 -27t28 -10t28 10.5zM663 80q15 13 15 32t-15.5 32t-34.5 13q-20 0 -35 -12.5t-15 -32.5t14.5 -32.5t35.5 -12.5q20 0 35 13z" />
    <glyph glyph-name="threeeighths" unicode="&#x215c;" horiz-adv-x="852" 
d="M99.5 367.5q-38.5 25.5 -51.5 75.5l83 30q6 -28 21.5 -41t36.5 -13q20 0 34.5 12t14.5 32q0 19 -16 30.5t-41 11.5h-38v70h34q23 0 36.5 10t13.5 28q0 15 -11.5 24.5t-27.5 9.5q-21 0 -34 -10.5t-18 -26.5l-78 31q13 38 47 60.5t85 22.5q54 0 89 -30t35 -73
q0 -48 -43 -78q25 -13 40.5 -35t15.5 -49q0 -53 -40.5 -85t-97.5 -32q-51 0 -89.5 25.5zM158 37l465 694l79 -53l-465 -694zM561 23q-41 31 -41 83q0 27 14 50t38 37q-18 12 -29 31.5t-11 40.5q0 49 36.5 79t89.5 30t89.5 -30t36.5 -79q0 -21 -11 -40.5t-29 -31.5
q24 -14 38 -37t14 -50q0 -53 -41 -83.5t-97 -30.5t-97 31zM686 235.5q12 10.5 12 26.5t-11.5 26.5t-28.5 10.5q-18 0 -29 -10t-11 -27t12 -27t28 -10t28 10.5zM693 80q15 13 15 32t-15.5 32t-34.5 13q-20 0 -35 -12.5t-15 -32.5t14.5 -32.5t35.5 -12.5q20 0 35 13z" />
    <glyph glyph-name="fiveeighths" unicode="&#x215d;" horiz-adv-x="851" 
d="M100 365.5q-38 22.5 -52 68.5l79 31q5 -21 20 -33t36 -12q22 0 36.5 15t14.5 37q0 23 -14.5 37.5t-35.5 14.5q-33 0 -52 -29l-73 32l23 189h219v-72h-152l-11 -66q26 17 62 17q51 0 86 -34t35 -91q0 -56 -40 -91.5t-97 -35.5q-46 0 -84 22.5zM155 37l465 694l79 -53
l-465 -694zM560 23q-41 31 -41 83q0 27 14 50t38 37q-18 12 -29 31.5t-11 40.5q0 49 36.5 79t89.5 30t89.5 -30t36.5 -79q0 -21 -11 -40.5t-29 -31.5q24 -14 38 -37t14 -50q0 -53 -41 -83.5t-97 -30.5t-97 31zM685 235.5q12 10.5 12 26.5t-11.5 26.5t-28.5 10.5
q-18 0 -29 -10t-11 -27t12 -27t28 -10t28 10.5zM692 80q15 13 15 32t-15.5 32t-34.5 13q-20 0 -35 -12.5t-15 -32.5t14.5 -32.5t35.5 -12.5q20 0 35 13z" />
    <glyph glyph-name="seveneighths" unicode="&#x215e;" horiz-adv-x="777" 
d="M60 375l145 260h-157v81h261v-77l-171 -304zM65 37l465 694l79 -53l-465 -694zM486 23q-41 31 -41 83q0 27 14 50t38 37q-18 12 -29 31.5t-11 40.5q0 49 36.5 79t89.5 30t89.5 -30t36.5 -79q0 -21 -11 -40.5t-29 -31.5q24 -14 38 -37t14 -50q0 -53 -41 -83.5t-97 -30.5
t-97 31zM611 235.5q12 10.5 12 26.5t-11.5 26.5t-28.5 10.5q-18 0 -29 -10t-11 -27t12 -27t28 -10t28 10.5zM618 80q15 13 15 32t-15.5 32t-34.5 13q-20 0 -35 -12.5t-15 -32.5t14.5 -32.5t35.5 -12.5q20 0 35 13z" />
    <glyph glyph-name="uni2160" unicode="&#x2160;" horiz-adv-x="487" 
d="M24 119h154v446h-154v119h439v-119h-154v-446h154v-119h-439v119z" />
    <glyph glyph-name="uni2161" unicode="&#x2161;" horiz-adv-x="747" 
d="M24 119h154v446h-154v119h699v-119h-154v-446h154v-119h-699v119zM438 119v446h-129v-446h129z" />
    <glyph glyph-name="uni2162" unicode="&#x2162;" horiz-adv-x="1007" 
d="M24 119h154v446h-154v119h959v-119h-154v-446h154v-119h-959v119zM438 119v446h-129v-446h129zM698 119v446h-129v-446h129z" />
    <glyph glyph-name="uni2163" unicode="&#x2163;" horiz-adv-x="1029" 
d="M24 119h154v446h-154v119h981v-119h-125l-143 -446h268v-119h-981v119zM535 119l-142 446h-84v-446h226zM640 190l19 85l85 290h-215l84 -290l19 -85h8z" />
    <glyph glyph-name="uni2164" unicode="&#x2164;" horiz-adv-x="785" 
d="M24 119h267l-142 446h-125v119h737v-119h-125l-143 -446h268v-119h-737v119zM396 190l19 85l85 290h-215l84 -290l19 -85h8z" />
    <glyph glyph-name="uni2165" unicode="&#x2165;" horiz-adv-x="1057" 
d="M24 119h267l-142 446h-125v119h981v-119h-154v-446h154v-119h-981v119zM396 190l19 85l85 290h-215l84 -290l19 -85h8zM720 119v446h-84l-143 -446h227z" />
    <glyph glyph-name="uni2166" unicode="&#x2166;" horiz-adv-x="1297" 
d="M24 119h267l-142 446h-125v119h1241v-119h-154v-446h154v-119h-1241v119zM396 190l19 85l85 290h-215l84 -290l19 -85h8zM720 119v446h-84l-143 -446h227zM980 119v446h-129v-446h129z" />
    <glyph glyph-name="uni2167" unicode="&#x2167;" horiz-adv-x="1549" 
d="M24 119h267l-142 446h-125v119h1501v-119h-154v-446h154v-119h-1501v119zM396 190l19 85l85 290h-215l84 -290l19 -85h8zM720 119v446h-84l-143 -446h227zM980 119v446h-129v-446h129zM1240 119v446h-129v-446h129z" />
    <glyph glyph-name="uni2168" unicode="&#x2168;" horiz-adv-x="975" 
d="M24 119h154v446h-154v119h927v-119h-119l-148 -226l146 -220h121v-119h-927v119zM389 119l146 220l-148 226h-78v-446h80zM613 440l19 41l54 84h-154l55 -84l19 -41h7zM682 119l-47 72l-22 45h-7l-22 -45l-47 -72h145z" />
    <glyph glyph-name="uni2169" unicode="&#x2169;" horiz-adv-x="730" 
d="M24 119h120l146 220l-148 226h-118v119h682v-119h-119l-148 -226l146 -220h121v-119h-682v119zM368 440l19 41l54 84h-154l55 -84l19 -41h7zM437 119l-47 72l-22 45h-7l-22 -45l-47 -72h145z" />
    <glyph glyph-name="uni216A" unicode="&#x216a;" horiz-adv-x="975" 
d="M24 119h121l146 220l-149 226h-118v119h927v-119h-154v-446h154v-119h-927v119zM368 440l19 41l54 84h-153l55 -84l18 -41h7zM666 119v446h-78l-149 -226l146 -220h81zM437 119l-47 72l-22 45h-7l-22 -45l-47 -72h145z" />
    <glyph glyph-name="uni216B" unicode="&#x216b;" horiz-adv-x="1235" 
d="M24 119h121l146 220l-149 226h-118v119h1187v-119h-154v-446h154v-119h-1187v119zM368 440l19 41l54 84h-153l55 -84l18 -41h7zM666 119v446h-78l-149 -226l146 -220h81zM926 119v446h-129v-446h129zM437 119l-47 72l-22 45h-7l-22 -45l-47 -72h145z" />
    <glyph glyph-name="uni216C" unicode="&#x216c;" horiz-adv-x="661" 
d="M24 119h130v446h-130v119h391v-119h-130v-446h217v132h131v-251h-609v119z" />
    <glyph glyph-name="uni216D" unicode="&#x216d;" horiz-adv-x="746" 
d="M221.5 31q-82.5 47 -130 129t-47.5 182t48 182t130 129t180 47q93 0 167 -57h8v41h115v-201h-114q-26 46 -72 71.5t-103 25.5q-61 0 -114 -29t-85.5 -83t-32.5 -126t32.5 -126t86 -83t114.5 -29q68 0 118.5 29t89.5 91l106 -68q-61 -91 -138.5 -131.5t-175.5 -40.5
q-100 0 -182.5 47z" />
    <glyph glyph-name="uni216E" unicode="&#x216e;" horiz-adv-x="757" 
d="M24 119h123v446h-123v119h326q111 0 193 -42.5t126 -120t44 -179.5q0 -103 -44 -180t-126 -119.5t-193 -42.5h-326v119zM356 119q113 0 173 61.5t60 161.5t-60 161.5t-173 61.5h-87v-446h87z" />
    <glyph glyph-name="uni216F" unicode="&#x216f;" horiz-adv-x="1009" 
d="M24 119h126v446h-126v119h290l186 -480h8l187 480h290v-119h-126v-446h126v-119h-335v119h86v237l8 115h-8l-183 -471h-97l-183 471h-8l8 -115v-237h86v-119h-335v119z" />
    <glyph glyph-name="uni2180" unicode="&#x2180;" horiz-adv-x="1133" 
d="M213.5 42.5q-81.5 42.5 -125.5 119.5t-44 180q0 102 44 179.5t125.5 120t192.5 42.5h285q111 0 192.5 -42.5t125.5 -120t44 -179.5q0 -103 -44 -180t-125.5 -119.5t-192.5 -42.5h-285q-111 0 -192.5 42.5zM487 119v446h-86q-113 0 -173.5 -61.5t-60.5 -161.5t60.5 -161.5
t173.5 -61.5h86zM696 119q113 0 173.5 61.5t60.5 161.5t-60.5 161.5t-173.5 61.5h-86v-446h86z" />
    <glyph glyph-name="uni2181" unicode="&#x2181;" horiz-adv-x="757" 
d="M24 119h123v446h-123v119h326q111 0 193 -42.5t126 -120t44 -179.5q0 -103 -44 -180t-126 -119.5t-193 -42.5h-326v119zM356 119q113 0 173 61.5t60 161.5t-60 161.5t-173 61.5h-87v-50h27q52 0 94 -22t65.5 -61.5t23.5 -89.5t-23.5 -89.5t-65.5 -61.5t-94 -22h-27v-50
h87zM302 259q32 0 54.5 23t22.5 60t-22.5 60t-54.5 23h-33v-166h33z" />
    <glyph glyph-name="uni2182" unicode="&#x2182;" horiz-adv-x="1097" 
d="M213.5 42.5q-81.5 42.5 -125.5 119.5t-44 180q0 102 44 179.5t125.5 120t192.5 42.5h285q111 0 192.5 -42.5t125.5 -120t44 -179.5q0 -103 -44 -180t-125.5 -119.5t-192.5 -42.5h-285q-111 0 -192.5 42.5zM487 119v50h-26q-52 0 -94 22t-66 61.5t-24 89.5t24 89.5
t66 61.5t94 22h26v50h-86q-113 0 -173.5 -61.5t-60.5 -161.5t60.5 -161.5t173.5 -61.5h86zM696 119q113 0 173.5 61.5t60.5 161.5t-60.5 161.5t-173.5 61.5h-86v-50h27q52 0 93.5 -22t65.5 -61.5t24 -89.5t-24 -89.5t-65.5 -61.5t-93.5 -22h-27v-50h86zM487 259v166h-32
q-33 0 -55 -23t-22 -60t22 -60t55 -23h32zM643 259q32 0 54.5 23t22.5 60t-22.5 60t-54.5 23h-33v-166h33z" />
    <glyph glyph-name="arrowleft" unicode="&#x2190;" horiz-adv-x="1123" 
d="M48 310l239 239v-177h780v-124h-780v-177z" />
    <glyph glyph-name="arrowup" unicode="&#x2191;" horiz-adv-x="559" 
d="M217 595h-177l239 240l240 -240h-178v-740h-124v740z" />
    <glyph glyph-name="arrowright" unicode="&#x2192;" horiz-adv-x="1123" 
d="M835 248h-779v124h779v177l240 -239l-240 -239v177z" />
    <glyph glyph-name="arrowdown" unicode="&#x2193;" horiz-adv-x="559" 
d="M40 71h177v741h124v-741h178l-240 -239z" />
    <glyph glyph-name="uni2196" unicode="&#x2196;" horiz-adv-x="792" 
d="M166 516l-126 -125v338h339l-126 -125l539 -537l-88 -88z" />
    <glyph glyph-name="uni2197" unicode="&#x2197;" horiz-adv-x="792" 
d="M0 67l539 537l-126 125h339v-338l-126 125l-538 -537z" />
    <glyph glyph-name="uni2198" unicode="&#x2198;" horiz-adv-x="792" 
d="M40 325l126 -125l538 537l88 -88l-539 -537l126 -125h-339v338z" />
    <glyph glyph-name="uni2199" unicode="&#x2199;" horiz-adv-x="792" 
d="M539 112l-539 537l88 88l538 -537l126 125v-338h-339z" />
    <glyph glyph-name="uni21C4" unicode="&#x21c4;" horiz-adv-x="1142" 
d="M854 479h-779v124h779v177l240 -239l-240 -239v177zM48 185l239 239v-177h780v-124h-780v-177z" />
    <glyph glyph-name="partialdiff" unicode="&#x2202;" horiz-adv-x="578" 
d="M162 16q-56 32 -89 88t-33 126t32.5 126t86 87t112.5 31q62 0 102 -34l7 6q-34 66 -107.5 111.5t-158.5 66.5l42 100q188 -43 285 -166.5t97 -300.5q0 -82 -32.5 -144t-90 -95.5t-130.5 -33.5q-67 0 -123 32zM372.5 137q35.5 36 35.5 93q0 56 -35 92t-85 36
q-51 0 -86.5 -36t-35.5 -92q0 -57 35.5 -93t85.5 -36t85.5 36z" />
    <glyph glyph-name="uni2206" unicode="&#x2206;" horiz-adv-x="712" 
d="M279 716h154l265 -716h-684zM507 124l-147 425h-8l-147 -425h302z" />
    <glyph glyph-name="product" unicode="&#x220f;" horiz-adv-x="708" 
d="M79 716h550v-716h-135v588h-280v-588h-135v716z" />
    <glyph glyph-name="summation" unicode="&#x2211;" horiz-adv-x="536" 
d="M47 133l190 233l-190 217v133h458v-125h-296l188 -225l-188 -241h296v-125h-458v133z" />
    <glyph glyph-name="minus" unicode="&#x2212;" horiz-adv-x="579" 
d="M61 329h457v-116h-457v116z" />
    <glyph glyph-name="uni2215" unicode="&#x2215;" horiz-adv-x="480" 
d="M327 716h129l-297 -716h-129z" />
    <glyph glyph-name="radical" unicode="&#x221a;" horiz-adv-x="732" 
d="M12 490h149l79 -251l17 -85h8l19 85l194 577h242v-111h-134l-260 -753h-130z" />
    <glyph glyph-name="infinity" unicode="&#x221e;" horiz-adv-x="750" 
d="M110 123q-40 22 -63 61t-23 86t23 86t63 61t87 22q56 0 95 -25t83 -75q43 50 82 75t96 25q47 0 87 -22t63 -61t23 -86t-23 -86t-63 -61t-87 -22q-57 0 -97 25t-82 75q-44 -51 -82.5 -75.5t-94.5 -24.5q-47 0 -87 22zM248.5 207.5q22.5 15.5 66.5 62.5q-45 47 -67 62.5
t-51 15.5q-31 0 -52.5 -21.5t-21.5 -56.5t21.5 -56.5t52.5 -21.5q29 0 51.5 15.5zM605.5 213.5q21.5 21.5 21.5 56.5t-21.5 56.5t-52.5 21.5q-29 0 -52 -16t-67 -62q43 -46 66.5 -62t52.5 -16q31 0 52.5 21.5z" />
    <glyph glyph-name="integral" unicode="&#x222b;" horiz-adv-x="357" 
d="M32 -99h11q32 0 51 19.5t19 53.5v624q0 91 48.5 142.5t131.5 51.5h32v-127h-11q-32 0 -51 -19.5t-19 -53.5v-624q0 -91 -48.5 -142.5t-131.5 -51.5h-32v127z" />
    <glyph glyph-name="approxequal" unicode="&#x2248;" horiz-adv-x="594" 
d="M349.5 345q-29.5 9 -66.5 26q-6 2 -24 10q-19 7 -32.5 10.5t-23.5 3.5q-22 0 -33.5 -12t-13.5 -31h-104q0 70 36 112t98 42q31 0 59 -9t69 -26q27 -12 44.5 -18t32.5 -6q22 0 33.5 12t13.5 31h104q0 -70 -36 -112t-98 -42q-29 0 -58.5 9zM349.5 141q-29.5 9 -66.5 26
q-6 2 -24 10q-19 7 -32.5 10.5t-23.5 3.5q-22 0 -33.5 -12t-13.5 -31h-104q0 70 36 112t98 42q31 0 59 -9t69 -26q27 -12 44.5 -18t32.5 -6q22 0 33.5 12t13.5 31h104q0 -70 -36 -112t-98 -42q-29 0 -58.5 9z" />
    <glyph glyph-name="notequal" unicode="&#x2260;" horiz-adv-x="581" 
d="M378 361l-52 -84h199v-116h-272l-73 -118l-90 54l40 64h-74v116h146l53 84h-199v116h271l74 119l89 -55l-40 -64h75v-116h-147z" />
    <glyph glyph-name="lessequal" unicode="&#x2264;" horiz-adv-x="531" 
d="M56 349v104l415 191v-130l-258 -109v-8l258 -110v-129zM56 116h415v-116h-415v116z" />
    <glyph glyph-name="greaterequal" unicode="&#x2265;" horiz-adv-x="531" 
d="M60 287l258 110v8l-258 109v130l415 -191v-104l-415 -191v129zM60 116h415v-116h-415v116z" />
    <glyph glyph-name="filledbox" unicode="&#x25a0;" horiz-adv-x="860" 
d="M72 716h716v-716h-716v716z" />
    <glyph glyph-name="uni25A1" unicode="&#x25a1;" horiz-adv-x="860" 
d="M72 716h716v-716h-716v716zM673 115v486h-486v-486h486z" />
    <glyph glyph-name="triagup" unicode="&#x25b2;" horiz-adv-x="870" 
d="M435 748l431 -748h-862z" />
    <glyph glyph-name="uni25B3" unicode="&#x25b3;" horiz-adv-x="870" 
d="M435 748l431 -748h-862zM665 115l-230 403l-230 -403h460z" />
    <glyph glyph-name="lozenge" unicode="&#x25ca;" horiz-adv-x="553" 
d="M24 358l199 358h108l198 -358l-198 -358h-108zM281 131l119 227l-119 227h-8l-120 -227l120 -227h8z" />
    <glyph glyph-name="circle" unicode="&#x25cb;" horiz-adv-x="836" 
d="M231 34.5q-86 50.5 -136.5 136.5t-50.5 187t50.5 187t136.5 136.5t187 50.5t187 -50.5t136.5 -136.5t50.5 -187t-50.5 -187t-136.5 -136.5t-187 -50.5t-187 50.5zM547.5 134q59.5 35 94.5 94.5t35 129.5t-35 129.5t-94.5 94.5t-129.5 35t-129.5 -35t-94.5 -94.5
t-35 -129.5t35 -129.5t94.5 -94.5t129.5 -35t129.5 35z" />
    <glyph glyph-name="uni25CF" unicode="&#x25cf;" horiz-adv-x="836" 
d="M231 34.5q-86 50.5 -136.5 136.5t-50.5 187t50.5 187t136.5 136.5t187 50.5t187 -50.5t136.5 -136.5t50.5 -187t-50.5 -187t-136.5 -136.5t-187 -50.5t-187 50.5z" />
    <glyph glyph-name="uni2713" unicode="&#x2713;" horiz-adv-x="934" 
d="M8 300l85 85l209 -223l543 587l81 -79l-627 -678z" />
    <glyph glyph-name="uni2715" unicode="&#x2715;" horiz-adv-x="752" 
d="M8 56l295 301l-295 302l74 76l294 -304l294 304l74 -76l-295 -302l295 -301l-75 -76l-293 303l-294 -303z" />
    <glyph glyph-name="uni275B" unicode="&#x275b;" horiz-adv-x="351" 
d="M89 413q-33 47 -49 82.5t-16 77.5t20.5 78.5t55.5 58.5t76 22q42 0 76.5 -19.5t54.5 -54t20 -77.5q0 -42 -22.5 -74t-54 -49.5t-57.5 -19.5l-5 -5l109 -155l-76 -52z" />
    <glyph glyph-name="uni275C" unicode="&#x275c;" horiz-adv-x="351" 
d="M54 278l109 155l-5 5q-26 2 -57.5 19.5t-54 49.5t-22.5 74q0 43 20 77.5t54.5 54t76.5 19.5q41 0 76 -22t55.5 -58.5t20.5 -78.5t-16 -77.5t-49 -82.5l-132 -187z" />
    <glyph glyph-name="uni275D" unicode="&#x275d;" horiz-adv-x="710" 
d="M89 413q-33 47 -49 82.5t-16 77.5t20.5 78.5t55.5 58.5t76 22q42 0 76.5 -19.5t54.5 -54t20 -77.5q0 -42 -22.5 -74t-54 -49.5t-57.5 -19.5l-5 -5l109 -155l-76 -52zM440 413q-33 47 -49 82.5t-16 77.5t20.5 78.5t55.5 58.5t76 22q42 0 76.5 -19.5t54.5 -54t20 -77.5
q0 -42 -22.5 -74t-54 -49.5t-57.5 -19.5l-5 -5l109 -155l-76 -52z" />
    <glyph glyph-name="uni275E" unicode="&#x275e;" horiz-adv-x="710" 
d="M54 278l109 155l-5 5q-26 2 -57.5 19.5t-54 49.5t-22.5 74q0 43 20 77.5t54.5 54t76.5 19.5q41 0 76 -22t55.5 -58.5t20.5 -78.5t-16 -77.5t-49 -82.5l-132 -187zM405 278l109 155l-5 5q-26 2 -57.5 19.5t-54 49.5t-22.5 74q0 43 20 77.5t54.5 54t76.5 19.5q41 0 76 -22
t55.5 -58.5t20.5 -78.5t-16 -77.5t-49 -82.5l-132 -187z" />
    <glyph glyph-name="uni2780" unicode="&#x2780;" horiz-adv-x="848" 
d="M237 34.5q-86 50.5 -136.5 136.5t-50.5 187t50.5 187t136.5 136.5t187 50.5t187 -50.5t136.5 -136.5t50.5 -187t-50.5 -187t-136.5 -136.5t-187 -50.5t-187 50.5zM568.5 108q66.5 39 105.5 105.5t39 144.5t-39 144.5t-105.5 105.5t-144.5 39t-144.5 -39t-105.5 -105.5
t-39 -144.5t39 -144.5t105.5 -105.5t144.5 -39t144.5 39zM392 432l-49 -43l-50 66l107 88h81v-366h-89v255z" />
    <glyph glyph-name="uni2781" unicode="&#x2781;" horiz-adv-x="848" 
d="M237 34.5q-86 50.5 -136.5 136.5t-50.5 187t50.5 187t136.5 136.5t187 50.5t187 -50.5t136.5 -136.5t50.5 -187t-50.5 -187t-136.5 -136.5t-187 -50.5t-187 50.5zM568.5 108q66.5 39 105.5 105.5t39 144.5t-39 144.5t-105.5 105.5t-144.5 39t-144.5 -39t-105.5 -105.5
t-39 -144.5t39 -144.5t105.5 -105.5t144.5 -39t144.5 39zM293 240l128 129q21 21 31 35t10 32q0 15 -11.5 25.5t-29.5 10.5q-20 0 -34 -12.5t-18 -37.5l-80 31q10 45 46.5 71.5t85.5 26.5q57 0 94 -30t37 -78q0 -51 -62 -113l-75 -74h139v-79h-261v63z" />
    <glyph glyph-name="uni2782" unicode="&#x2782;" horiz-adv-x="848" 
d="M237 34.5q-86 50.5 -136.5 136.5t-50.5 187t50.5 187t136.5 136.5t187 50.5t187 -50.5t136.5 -136.5t50.5 -187t-50.5 -187t-136.5 -136.5t-187 -50.5t-187 50.5zM568.5 108q66.5 39 105.5 105.5t39 144.5t-39 144.5t-105.5 105.5t-144.5 39t-144.5 -39t-105.5 -105.5
t-39 -144.5t39 -144.5t105.5 -105.5t144.5 -39t144.5 39zM333.5 194.5q-38.5 25.5 -51.5 75.5l83 30q6 -28 21.5 -41t36.5 -13q20 0 34.5 12t14.5 32q0 19 -16 30.5t-41 11.5h-38v70h34q23 0 36.5 10t13.5 28q0 15 -11.5 24.5t-27.5 9.5q-21 0 -34 -10.5t-18 -26.5l-78 31
q13 38 47 60.5t85 22.5q54 0 89 -30t35 -73q0 -48 -43 -78q25 -13 40.5 -35t15.5 -49q0 -53 -40.5 -85t-97.5 -32q-51 0 -89.5 25.5z" />
    <glyph glyph-name="uni2783" unicode="&#x2783;" horiz-adv-x="848" 
d="M237 34.5q-86 50.5 -136.5 136.5t-50.5 187t50.5 187t136.5 136.5t187 50.5t187 -50.5t136.5 -136.5t50.5 -187t-50.5 -187t-136.5 -136.5t-187 -50.5t-187 50.5zM568.5 108q66.5 39 105.5 105.5t39 144.5t-39 144.5t-105.5 105.5t-144.5 39t-144.5 -39t-105.5 -105.5
t-39 -144.5t39 -144.5t105.5 -105.5t144.5 -39t144.5 39zM425 242h-172v64l171 237h87v-227h48v-74h-48v-65h-86v65zM425 316v107h-8l-76 -107h84z" />
    <glyph glyph-name="uni2784" unicode="&#x2784;" horiz-adv-x="848" 
d="M237 34.5q-86 50.5 -136.5 136.5t-50.5 187t50.5 187t136.5 136.5t187 50.5t187 -50.5t136.5 -136.5t50.5 -187t-50.5 -187t-136.5 -136.5t-187 -50.5t-187 50.5zM568.5 108q66.5 39 105.5 105.5t39 144.5t-39 144.5t-105.5 105.5t-144.5 39t-144.5 -39t-105.5 -105.5
t-39 -144.5t39 -144.5t105.5 -105.5t144.5 -39t144.5 39zM339 191.5q-38 22.5 -52 68.5l79 31q5 -21 20 -33t36 -12q22 0 36.5 15t14.5 37q0 23 -14.5 37.5t-35.5 14.5q-33 0 -52 -29l-73 32l23 189h219v-72h-152l-11 -66q26 17 62 17q51 0 86 -34t35 -91q0 -56 -40 -91.5
t-97 -35.5q-46 0 -84 22.5z" />
    <glyph glyph-name="uni2785" unicode="&#x2785;" horiz-adv-x="848" 
d="M237 34.5q-86 50.5 -136.5 136.5t-50.5 187t50.5 187t136.5 136.5t187 50.5t187 -50.5t136.5 -136.5t50.5 -187t-50.5 -187t-136.5 -136.5t-187 -50.5t-187 50.5zM568.5 108q66.5 39 105.5 105.5t39 144.5t-39 144.5t-105.5 105.5t-144.5 39t-144.5 -39t-105.5 -105.5
t-39 -144.5t39 -144.5t105.5 -105.5t144.5 -39t144.5 39zM349.5 186.5q-31.5 17.5 -49 47.5t-17.5 64q0 29 11.5 55.5t31.5 55.5q17 25 56 79q39 53 52 71l67 -49l-76 -96q7 4 19 4q28 0 54.5 -16t42.5 -44t16 -62t-18 -63t-49.5 -46.5t-69.5 -17.5q-39 0 -70.5 17.5z
M455 260q14 15 14 36t-14 36t-36 15q-21 0 -35 -15t-14 -36t14 -36t35 -15q22 0 36 15z" />
    <glyph glyph-name="uni2786" unicode="&#x2786;" horiz-adv-x="848" 
d="M237 34.5q-86 50.5 -136.5 136.5t-50.5 187t50.5 187t136.5 136.5t187 50.5t187 -50.5t136.5 -136.5t50.5 -187t-50.5 -187t-136.5 -136.5t-187 -50.5t-187 50.5zM568.5 108q66.5 39 105.5 105.5t39 144.5t-39 144.5t-105.5 105.5t-144.5 39t-144.5 -39t-105.5 -105.5
t-39 -144.5t39 -144.5t105.5 -105.5t144.5 -39t144.5 39zM313 202l152 260h-164v81h261v-77l-171 -304z" />
    <glyph glyph-name="uni2787" unicode="&#x2787;" horiz-adv-x="848" 
d="M237 34.5q-86 50.5 -136.5 136.5t-50.5 187t50.5 187t136.5 136.5t187 50.5t187 -50.5t136.5 -136.5t50.5 -187t-50.5 -187t-136.5 -136.5t-187 -50.5t-187 50.5zM568.5 108q66.5 39 105.5 105.5t39 144.5t-39 144.5t-105.5 105.5t-144.5 39t-144.5 -39t-105.5 -105.5
t-39 -144.5t39 -144.5t105.5 -105.5t144.5 -39t144.5 39zM327 200q-41 31 -41 83q0 27 14 50t38 37q-18 12 -29 31.5t-11 40.5q0 49 36.5 79t89.5 30t89.5 -30t36.5 -79q0 -21 -11 -40.5t-29 -31.5q24 -14 38 -37t14 -50q0 -53 -41 -83.5t-97 -30.5t-97 31zM452 412.5
q12 10.5 12 26.5t-11.5 26.5t-28.5 10.5q-18 0 -29 -10t-11 -27t12 -27t28 -10t28 10.5zM459 257q15 13 15 32t-15.5 32t-34.5 13q-20 0 -35 -12.5t-15 -32.5t14.5 -32.5t35.5 -12.5q20 0 35 13z" />
    </font>
</defs>
</svg>
