<?xml version="1.0" standalone="no"?>
<!DOCTYPE svg PUBLIC "-//W3C//DTD SVG 1.1//EN" "http://www.w3.org/Graphics/SVG/1.1/DTD/svg11.dtd" >
<svg xmlns="http://www.w3.org/2000/svg" xmlns:xlink="http://www.w3.org/1999/xlink" version="1.1">
<metadata>
Created by FontForge 20170731 at Thu Jul 20 19:10:00 2017
 By Aleksey,,,
Copyright 2017 Google, Inc. All Rights Reserved.
</metadata>
<defs>
<font id="GoogleSans-Bold" horiz-adv-x="650" >
  <font-face 
    font-family="Google Sans"
    font-weight="700"
    font-stretch="normal"
    units-per-em="1000"
    panose-1="2 11 8 3 3 5 2 4 2 4"
    ascent="800"
    descent="-200"
    x-height="510"
    cap-height="716"
    bbox="-404 -285 3284 964"
    underline-thickness="84"
    underline-position="-244"
    unicode-range="U+0002-2792"
  />
<missing-glyph horiz-adv-x="590" 
d="M508 0h-426v716h426v-716zM444 60v596h-298v-596h298z" />
    <glyph glyph-name="f_b" unicode="fb" horiz-adv-x="1018" 
d="M643.5 6q-40.5 22 -60.5 55h-8v-61h-123v600h-133q-32 0 -50.5 -20.5t-18.5 -56.5v-13h118v-112h-118v-398h-131v398h-91v112h91v11q0 97 51.5 148t147.5 51h265v-203l-8 -69h8q20 33 60.5 55.5t92.5 22.5q69 0 125 -34.5t88.5 -96.5t32.5 -140t-32.5 -140t-88.5 -96.5
t-125 -34.5q-52 0 -92.5 22zM781 124q32 19 51 53t19 78t-19 78t-51 52.5t-68 18.5t-68 -18.5t-51 -52.5t-19 -78t19 -78t51 -53t68 -19t68 19z" />
    <glyph glyph-name="f_f" unicode="ff" horiz-adv-x="746" 
d="M119 398h-91v112h91v28q0 87 52 136.5t136 49.5q34 0 56 -6v-126q-4 1 -17 5t-31 4q-29 0 -47 -19t-18 -52v-20h202v28q0 87 52 136.5t136 49.5q48 0 83 -11v-128q-19 8 -33.5 12t-33.5 4q-33 0 -53 -19t-20 -52v-20h124v-112h-124v-398h-131v398h-202v-398h-131v398z
" />
    <glyph glyph-name="f_f_b" unicode="ffb" horiz-adv-x="1351" 
d="M975.5 6q-40.5 22 -60.5 55h-8v-61h-122v600h-133q-32 0 -50.5 -20.5t-18.5 -56.5v-13h117v-112h-117v-398h-131v398h-202v-398h-131v398h-91v112h91v28q0 87 52 136.5t136 49.5q34 0 56 -6v-126q-4 1 -17 5t-31 4q-29 0 -47 -19t-18 -52v-20h202v11q0 97 51.5 148
t147.5 51h264v-203l-8 -69h8q21 33 61 55.5t92 22.5q69 0 125.5 -34.5t89 -96.5t32.5 -140q0 -79 -32.5 -140.5t-89 -96t-125.5 -34.5q-52 0 -92.5 22zM1114 124q32 19 51 53t19 78t-19 78t-51 52.5t-68 18.5t-68 -18.5t-51.5 -52.5t-19.5 -78t19.5 -78t51.5 -53t68 -19
t68 19z" />
    <glyph glyph-name="f_f_h" unicode="ffh" horiz-adv-x="1322" 
d="M119 398h-91v112h91v28q0 87 52 136.5t136 49.5q34 0 56 -6v-126q-4 1 -17 5t-31 4q-29 0 -47 -19t-18 -52v-20h202v11q0 97 51.5 148t147.5 51h264v-221l-8 -69h8q19 44 62 70t96 26q91 0 140 -56.5t49 -152.5v-317h-131v301q0 49 -26.5 76t-69.5 27q-53 0 -86.5 -42
t-33.5 -103v-259h-130v600h-133q-32 0 -50.5 -20.5t-18.5 -56.5v-13h117v-112h-117v-398h-131v398h-202v-398h-131v398z" />
    <glyph glyph-name="f_f_i" unicode="ffi" horiz-adv-x="988" 
d="M790.5 585.5q-24.5 24.5 -24.5 59.5t24.5 59.5t59.5 24.5t59.5 -24.5t24.5 -59.5t-24.5 -59.5t-59.5 -24.5t-59.5 24.5zM119 398h-91v112h91v28q0 87 52 136.5t136 49.5q34 0 56 -6v-126q-4 1 -17 5t-31 4q-29 0 -47 -19t-18 -52v-20h202v28q0 87 52 136.5t136 49.5
q34 0 56 -6v-126q-4 1 -17 5t-31 4q-29 0 -47 -19t-18 -52v-20h332v-510h-130v398h-202v-398h-131v398h-202v-398h-131v398z" />
    <glyph glyph-name="f_f_j" unicode="ffj" horiz-adv-x="988" 
d="M790.5 585.5q-24.5 24.5 -24.5 59.5t24.5 59.5t59.5 24.5t59.5 -24.5t24.5 -59.5t-24.5 -59.5t-59.5 -24.5t-59.5 24.5zM686 -219v127q26 -14 53 -14q46 0 46 59v445h-202v-398h-131v398h-202v-398h-131v398h-91v112h91v28q0 87 52 136.5t136 49.5q34 0 56 -6v-126
q-4 1 -17 5t-31 4q-29 0 -47 -19t-18 -52v-20h202v28q0 87 52 136.5t136 49.5q34 0 56 -6v-126q-4 1 -17 5t-31 4q-29 0 -47 -19t-18 -52v-20h332v-560q0 -91 -44.5 -133.5t-116.5 -42.5q-40 0 -68 7z" />
    <glyph glyph-name="f_f_k" unicode="ffk" horiz-adv-x="1279" 
d="M119 398h-91v112h91v28q0 87 52 136.5t136 49.5q34 0 56 -6v-126q-4 1 -17 5t-31 4q-29 0 -47 -19t-18 -52v-20h202v11q0 97 51.5 148t147.5 51h264v-394h7l183 184h161v-8l-193 -189l202 -305v-8h-154l-140 223l-66 -65v-158h-130v600h-133q-32 0 -50.5 -20.5
t-18.5 -56.5v-13h117v-112h-117v-398h-131v398h-202v-398h-131v398z" />
    <glyph glyph-name="f_f_l" unicode="ffl" horiz-adv-x="980" 
d="M119 398h-91v112h91v28q0 87 52 136.5t136 49.5q34 0 56 -6v-126q-4 1 -17 5t-31 4q-29 0 -47 -19t-18 -52v-20h202v11q0 97 51.5 148t147.5 51h264v-720h-130v600h-133q-32 0 -50.5 -20.5t-18.5 -56.5v-13h117v-112h-117v-398h-131v398h-202v-398h-131v398z" />
    <glyph glyph-name="f_f_t" unicode="fft" horiz-adv-x="1085" 
d="M884 3q-32 11 -53 32q-46 46 -46 128v235h-202v-398h-131v398h-202v-398h-131v398h-91v112h91v28q0 87 52 136.5t136 49.5q34 0 56 -6v-126q-4 1 -17 5t-31 4q-29 0 -47 -19t-18 -52v-20h202v28q0 87 52 136.5t136 49.5q34 0 56 -6v-126q-4 1 -17 5t-31 4q-29 0 -47 -19
t-18 -52v-20h202v144h130v-144h125v-112h-125v-211q0 -38 17 -56q16 -16 49 -16q19 0 31.5 5t31.5 17v-128q-43 -17 -90 -17q-38 0 -70 11z" />
    <glyph glyph-name="f_h" unicode="fh" horiz-adv-x="989" 
d="M119 398h-91v112h91v11q0 97 51.5 148t147.5 51h265v-221l-8 -69h8q18 44 61 70t96 26q91 0 140 -56.5t49 -152.5v-317h-131v301q0 49 -26.5 76t-69.5 27q-53 0 -86 -42t-33 -103v-259h-131v600h-133q-32 0 -50.5 -20.5t-18.5 -56.5v-13h117v-112h-117v-398h-131v398z
" />
    <glyph glyph-name="f_i" unicode="fi" horiz-adv-x="655" 
d="M457.5 586q-24.5 25 -24.5 60t24.5 59.5t59.5 24.5t60 -24.5t25 -59.5t-25 -60t-60 -25t-59.5 25zM119 398h-91v112h91v28q0 87 52 136.5t136 49.5q34 0 56 -6v-126q-4 1 -17 5t-31 4q-29 0 -47 -19t-18 -52v-20h333v-510h-131v398h-202v-398h-131v398z" />
    <glyph glyph-name="f_j" unicode="fj" horiz-adv-x="655" 
d="M457.5 585.5q-24.5 24.5 -24.5 59.5t24.5 59.5t59.5 24.5t60 -24.5t25 -59.5t-25 -59.5t-60 -24.5t-59.5 24.5zM353 -219v127q26 -14 53 -14q46 0 46 59v445h-202v-398h-131v398h-91v112h91v28q0 87 52 136.5t136 49.5q34 0 56 -6v-126q-4 1 -17 5t-31 4q-29 0 -47 -19
t-18 -52v-20h333v-560q0 -90 -45 -133t-116 -43q-41 0 -69 7z" />
    <glyph glyph-name="f_k" unicode="fk" horiz-adv-x="947" 
d="M119 398h-91v112h91v11q0 97 51.5 148t147.5 51h265v-394h6l183 184h161v-8l-192 -189l201 -305v-8h-154l-140 223l-65 -65v-158h-131v600h-133q-32 0 -50.5 -20.5t-18.5 -56.5v-13h117v-112h-117v-398h-131v398z" />
    <glyph glyph-name="f_l" unicode="fl" horiz-adv-x="647" 
d="M119 398h-91v112h91v11q0 97 51.5 148t147.5 51h265v-720h-131v600h-133q-32 0 -50.5 -20.5t-18.5 -56.5v-13h117v-112h-117v-398h-131v398z" />
    <glyph glyph-name="f_t" unicode="ft" horiz-adv-x="752" 
d="M551 3q-32 11 -53 32q-46 46 -46 128v235h-202v-398h-131v398h-91v112h91v28q0 87 52 136.5t136 49.5q34 0 56 -6v-126q-4 1 -17 5t-31 4q-29 0 -47 -19t-18 -52v-20h202v144h131v-144h124v-112h-124v-211q0 -39 17 -56q14 -16 48 -16q19 0 31.5 5t32.5 17v-128
q-43 -17 -91 -17q-38 0 -70 11z" />
    <glyph glyph-name="r_f" unicode="rf" horiz-adv-x="835" 
d="M540 398h-91v112h91v28q0 87 52 136.5t136 49.5q47 0 84 -11v-128q-18 7 -33.5 11.5t-33.5 4.5q-33 0 -53.5 -19t-20.5 -52v-20h125v-112h-125v-398h-131v398zM64 510h123v-68h8q20 37 61 59.5t88 22.5q34 0 48 -6v-128q-25 10 -62 10q-62 0 -98.5 -40t-36.5 -109v-251
h-131v510z" />
    <glyph glyph-name="r_f_f" unicode="rff" horiz-adv-x="1168" 
d="M64 510h123v-68h8q20 37 61 59.5t88 22.5q34 0 48 -6v-128q-25 10 -62 10q-62 0 -98.5 -40t-36.5 -109v-251h-131v510zM541 398h-91v112h91v28q0 87 52 136.5t136 49.5q34 0 56 -6v-126q-4 1 -17 5t-31 4q-29 0 -47 -19t-18 -52v-20h202v28q0 87 52 136.5t136 49.5
q48 0 83 -11v-128q-19 8 -33.5 12t-33.5 4q-33 0 -53 -19t-20 -52v-20h124v-112h-124v-398h-131v398h-202v-398h-131v398z" />
    <glyph glyph-name="r_t" unicode="rt" horiz-adv-x="850" 
d="M64 510h123v-68h8q20 37 61 59.5t88 22.5q34 0 48 -6v-128q-25 10 -62 10q-62 0 -98.5 -40t-36.5 -109v-251h-131v510zM648 3.5q-32 11.5 -52 31.5q-47 45 -47 128v235h-89v112h89v144h131v-144h125v-112h-125v-211q0 -39 17 -56q14 -16 48 -16q19 0 31.5 5t32.5 17v-128
q-43 -17 -91 -17q-38 0 -70 11.5z" />
    <glyph glyph-name="t_f" unicode="tf" horiz-adv-x="757" 
d="M216 3.5q-32 11.5 -52 31.5q-47 45 -47 128v235h-89v112h89v144h131v-144h202v28q0 87 52 136.5t136 49.5q53 0 96 -17l-29 -119q-16 6 -28.5 9.5t-30.5 3.5q-29 0 -47 -19t-18 -52v-20h124v-112h-124v-398h-131v398h-202v-211q0 -39 17 -56q14 -16 46 -16q15 0 24.5 3.5
t26.5 12.5v-126q-33 -13 -76 -13q-38 0 -70 11.5z" />
    <glyph glyph-name="t_t" unicode="tt" horiz-adv-x="742" 
d="M216 3.5q-32 11.5 -52 31.5q-47 45 -47 128v235h-89v112h89v144h131v-144h193v144h131v-144h125v-112h-125v-211q0 -38 17 -56q16 -16 49 -16q18 0 30.5 5t32.5 17v-128q-43 -17 -91 -17q-38 0 -69.5 11.5t-52.5 31.5q-47 47 -47 128v235h-193v-211q0 -39 17 -56
q14 -16 46 -16q15 0 24.5 3.5t26.5 12.5v-126q-33 -13 -76 -13q-38 0 -70 11.5z" />
    <glyph glyph-name=".notdef" horiz-adv-x="590" 
d="M508 0h-426v716h426v-716zM444 60v596h-298v-596h298z" />
    <glyph glyph-name=".null" horiz-adv-x="0" 
 />
    <glyph glyph-name="nonmarkingreturn" unicode="&#xd;" horiz-adv-x="0" 
d="M0 0z" />
    <glyph glyph-name="uni0002" horiz-adv-x="0" 
d="M0 0z" />
    <glyph glyph-name="uni0009" unicode="&#x9;" horiz-adv-x="0" 
d="M0 0z" />
    <glyph glyph-name="uni000A" unicode="&#xa;" horiz-adv-x="0" 
d="M0 0z" />
    <glyph glyph-name="space" unicode=" " horiz-adv-x="234" 
d="M0 0z" />
    <glyph glyph-name="exclam" unicode="!" horiz-adv-x="286" 
d="M76 510v206h134v-206l-12 -264h-110zM81.5 19.5q-25.5 25.5 -25.5 61.5t25.5 61t61.5 25t61.5 -25t25.5 -61t-25.5 -61.5t-61.5 -25.5t-61.5 25.5z" />
    <glyph glyph-name="quotedbl" unicode="&#x22;" horiz-adv-x="396" 
d="M52 716h119v-226h-119v226zM224 716h119v-226h-119v226z" />
    <glyph glyph-name="numbersign" unicode="#" horiz-adv-x="673" 
d="M146 192h-115l17 102h114l15 105h-116l16 102h115l28 183h110l-27 -183h112l27 183h111l-28 -183h116l-16 -102h-115l-15 -105h117l-16 -102h-116l-29 -192h-111l29 192h-112l-29 -192h-110zM386 292l16 109h-116l-16 -109h116z" />
    <glyph glyph-name="dollar" unicode="$" horiz-adv-x="573" 
d="M472 52q-54 -52 -135 -64v-88h-89v87q-77 11 -135 60t-82 133l115 47q11 -41 38 -72t64 -43v191l-9 3q-180 70 -180 204q0 73 51.5 125.5t137.5 62.5v86h89v-88q73 -12 116 -51.5t59 -88.5l-112 -50q-7 22 -23 40t-40 27v-179q96 -40 142.5 -85t46.5 -120q0 -85 -54 -137
zM197.5 468.5q15.5 -17.5 50.5 -35.5v146q-30 -8 -48 -26t-18 -43q0 -24 15.5 -41.5zM381.5 141.5q16.5 19.5 16.5 46.5t-13.5 44t-47.5 34v-154q28 10 44.5 29.5z" />
    <glyph glyph-name="percent" unicode="%" horiz-adv-x="858" 
d="M126.5 381q-40.5 23 -63.5 62t-23 86t23 86t63.5 62t90.5 23q49 0 89.5 -23t63.5 -62t23 -86t-23 -86t-63.5 -62t-89.5 -23q-50 0 -90.5 23zM167 37l444 663l79 -53l-444 -663zM266.5 476q19.5 20 19.5 53t-19.5 53t-49.5 20q-29 0 -49 -20.5t-20 -52.5t20 -52.5
t49 -20.5q30 0 49.5 20zM550.5 7q-40.5 23 -63.5 62t-23 86t23 86t63.5 62t90.5 23q49 0 89.5 -23t63.5 -62t23 -86t-23 -86t-63.5 -62t-89.5 -23q-50 0 -90.5 23zM690.5 102q19.5 20 19.5 53t-19.5 53t-49.5 20q-29 0 -49 -20.5t-20 -52.5t20 -52.5t49 -20.5q30 0 49.5 20z
" />
    <glyph glyph-name="ampersand" unicode="&#x26;" horiz-adv-x="663" 
d="M554 148l75 -91l-95 -73l-53 64q-70 -64 -171 -64q-74 0 -135 32t-96 89.5t-35 129.5q0 60 30 114t83 92q-43 60 -43 113q0 50 24 90.5t66 64t95 23.5q69 0 113.5 -32t64.5 -86l-105 -56q-22 59 -71 59q-28 0 -45 -17t-17 -43q0 -15 6 -28.5t19 -29.5l216 -261l58 95
l95 -60zM408 136l-180 218q-28 -21 -43 -51t-15 -63q0 -41 20 -72.5t54 -48.5t73 -17q54 0 91 34z" />
    <glyph glyph-name="quotesingle" unicode="'" horiz-adv-x="224" 
d="M52 716h119v-226h-119v226z" />
    <glyph glyph-name="parenleft" unicode="(" horiz-adv-x="359" 
d="M116.5 64.5q-52.5 121.5 -52.5 257.5t52.5 257.5t123.5 200.5l99 -68q-144 -179 -144 -390t144 -390l-99 -68q-71 79 -123.5 200.5z" />
    <glyph glyph-name="parenright" unicode=")" horiz-adv-x="359" 
d="M20 -68q144 179 144 390t-144 390l99 68q71 -79 123.5 -200.5t52.5 -257.5t-52.5 -257.5t-123.5 -200.5z" />
    <glyph glyph-name="asterisk" unicode="*" horiz-adv-x="464" 
d="M78 402l72 98l-3 9l-107 38l31 89l105 -37l9 3v114h94v-114l8 -3l106 37l31 -89l-107 -38l-3 -9l72 -98l-76 -55l-74 100h-8l-74 -100z" />
    <glyph glyph-name="plus" unicode="+" horiz-adv-x="583" 
d="M520 213h-171v-170h-116v170h-170v116h170v170h116v-170h171v-116z" />
    <glyph glyph-name="comma" unicode="," horiz-adv-x="288" 
d="M52 -89l60 91q-23 9 -38.5 30t-15.5 49q0 36 25.5 61t61.5 25t61.5 -25t25.5 -61q0 -18 -6 -32t-20 -35l-95 -142z" />
    <glyph glyph-name="hyphen" unicode="-" horiz-adv-x="465" 
d="M63 368h339v-116h-339v116z" />
    <glyph glyph-name="period" unicode="." horiz-adv-x="286" 
d="M81.5 19.5q-25.5 25.5 -25.5 61.5t25.5 61t61.5 25t61.5 -25t25.5 -61t-25.5 -61.5t-61.5 -25.5t-61.5 25.5z" />
    <glyph glyph-name="slash" unicode="/" horiz-adv-x="488" 
d="M328 716h129l-297 -716h-129z" />
    <glyph glyph-name="zero" unicode="0" horiz-adv-x="675" 
d="M186 30.5q-65 46.5 -100.5 128t-35.5 183.5t35.5 183.5t100.5 128t151 46.5t151 -46.5t100.5 -128t35.5 -183.5t-35.5 -183.5t-100.5 -128t-151 -46.5t-151 46.5zM420.5 137.5q35.5 30.5 54 84t18.5 120.5q0 104 -42 169.5t-114 65.5q-71 0 -113 -66t-42 -169
q0 -67 18.5 -120.5t54 -84t82.5 -30.5q48 0 83.5 30.5z" />
    <glyph glyph-name="one" unicode="1" horiz-adv-x="434" 
d="M215 513l-103 -75l-66 101l201 145h99v-684h-131v513z" />
    <glyph glyph-name="two" unicode="2" horiz-adv-x="556" 
d="M52 119l127.5 127.5t121.5 123.5q36 39 49.5 65t13.5 59q0 35 -26 59t-69 24q-42 0 -68 -24t-37 -60l-118 49q11 39 40.5 75.5t76.5 59.5t108 23q68 0 119 -26.5t79 -72t28 -101.5q0 -111 -108 -217q-44 -43 -163 -162l3 -6h277v-115h-454v119z" />
    <glyph glyph-name="three" unicode="3" horiz-adv-x="570" 
d="M131.5 30q-66.5 46 -91.5 134l124 49q12 -49 43 -75.5t78 -26.5q43 0 74.5 26t31.5 66q0 43 -33.5 68.5t-90.5 25.5h-59v119h54q44 0 74.5 22t30.5 64q0 34 -25 56t-64 22q-41 0 -66 -22t-35 -55l-119 49q21 60 77.5 104t143.5 44q64 0 114.5 -24t78.5 -65.5t28 -93.5
q0 -55 -25.5 -94t-61.5 -57v-8q50 -20 81 -63t31 -104q0 -59 -30 -106t-84.5 -74t-125.5 -27q-87 0 -153.5 46z" />
    <glyph glyph-name="four" unicode="4" horiz-adv-x="626" 
d="M361 126h-315v106l304 452h142v-436h85v-122h-85v-126h-131v126zM361 248v241h-8l-162 -241h170z" />
    <glyph glyph-name="five" unicode="5" horiz-adv-x="586" 
d="M185 4.5q-50 20.5 -87.5 62t-51.5 102.5l118 46q12 -51 44 -80.5t80 -29.5t80 32t32 81q0 48 -31.5 80.5t-80.5 32.5q-30 0 -54.5 -12.5t-41.5 -33.5l-127 57l39 342h386v-115h-277l-25 -160l8 -2q50 41 119 41q57 0 106.5 -29t79.5 -81.5t30 -119.5q0 -68 -31 -121
t-86 -83t-125 -30q-54 0 -104 20.5z" />
    <glyph glyph-name="six" unicode="6" horiz-adv-x="579" 
d="M164 16.5q-56 32.5 -87 87.5t-31 119t24.5 120t72.5 124l165 237l102 -70l-141 -198l6 -6q23 10 52 10q52 0 99.5 -28.5t77 -79.5t29.5 -114q0 -66 -33.5 -120t-89 -84t-118.5 -30q-72 0 -128 32.5zM370.5 136q34.5 32 34.5 81t-34.5 81.5t-81.5 32.5q-46 0 -80.5 -32.5
t-34.5 -81.5t34.5 -81t80.5 -32q47 0 81.5 32z" />
    <glyph glyph-name="seven" unicode="7" horiz-adv-x="557" 
d="M79 45l285 510l-4 6h-314v123h465v-129l-322 -571z" />
    <glyph glyph-name="eight" unicode="8" horiz-adv-x="587" 
d="M165.5 11q-56.5 27 -88 74t-31.5 105q0 56 29.5 99.5t74.5 67.5v8q-35 24 -58 61t-23 81q0 54 29 98.5t80.5 69.5t115.5 25t115 -25t80.5 -69.5t29.5 -98.5q0 -45 -23 -81.5t-59 -60.5v-8q45 -24 75 -67.5t30 -99.5q0 -58 -31.5 -105t-88 -74t-128.5 -27t-128.5 27z
M364 437.5q28 23.5 28 61.5t-28 61t-70 23q-43 0 -71 -23t-28 -61t28 -61.5t71 -23.5q42 0 70 23.5zM377.5 132q32.5 27 32.5 71q0 42 -33 69t-83 27t-83.5 -27t-33.5 -69q0 -44 33 -71t84 -27t83.5 27z" />
    <glyph glyph-name="nine" unicode="9" horiz-adv-x="579" 
d="M169 50l141 198l-6 6q-23 -10 -52 -10q-52 0 -99.5 28.5t-77 79.5t-29.5 114q0 66 33.5 120t89 84t118.5 30q72 0 128 -32.5t87 -87.5t31 -119t-24.5 -120t-72.5 -124l-165 -237zM370.5 385.5q34.5 32.5 34.5 81.5t-34.5 81t-80.5 32q-47 0 -81.5 -32t-34.5 -81
t34.5 -81.5t81.5 -32.5q46 0 80.5 32.5z" />
    <glyph glyph-name="colon" unicode=":" horiz-adv-x="286" 
d="M81.5 374.5q-25.5 25.5 -25.5 61.5t25.5 61t61.5 25t61.5 -25t25.5 -61t-25.5 -61.5t-61.5 -25.5t-61.5 25.5zM81.5 19.5q-25.5 25.5 -25.5 61.5t25.5 61t61.5 25t61.5 -25t25.5 -61t-25.5 -61.5t-61.5 -25.5t-61.5 25.5z" />
    <glyph glyph-name="semicolon" unicode=";" horiz-adv-x="288" 
d="M83.5 374.5q-25.5 25.5 -25.5 61.5t25.5 61t61.5 25t61.5 -25t25.5 -61t-25.5 -61.5t-61.5 -25.5t-61.5 25.5zM52 -83l60 91q-23 9 -38.5 30t-15.5 49q0 36 25.5 61t61.5 25t61.5 -25t25.5 -61q0 -18 -6 -32t-20 -35l-95 -142z" />
    <glyph glyph-name="less" unicode="&#x3c;" horiz-adv-x="531" 
d="M56 219v104l415 191v-129l-258 -110v-8l258 -110v-129z" />
    <glyph glyph-name="equal" unicode="=" horiz-adv-x="595" 
d="M63 477h469v-116h-469v116zM63 277h469v-116h-469v116z" />
    <glyph glyph-name="greater" unicode="&#x3e;" horiz-adv-x="531" 
d="M60 157l258 110v8l-258 110v129l415 -191v-104l-415 -191v129z" />
    <glyph glyph-name="question" unicode="?" horiz-adv-x="531" 
d="M196 279q0 48 20.5 83t71.5 80q30 27 43.5 47t13.5 46q0 31 -23 52.5t-61 21.5q-40 0 -65.5 -23.5t-36.5 -58.5l-115 48q19 64 74.5 110.5t139.5 46.5q63 0 112 -25t76.5 -68.5t27.5 -96.5q0 -52 -22 -89t-65 -78q-34 -32 -46.5 -55t-12.5 -58v-16h-132v33zM199.5 19.5
q-25.5 25.5 -25.5 61.5t25.5 61t61.5 25t61 -25t25 -61t-25 -61.5t-61 -25.5t-61.5 25.5z" />
    <glyph glyph-name="at" unicode="@" horiz-adv-x="897" 
d="M245.5 -30.5q-90.5 51.5 -141 140t-50.5 194.5t50.5 194t141 140t204.5 52t203.5 -51.5t139.5 -139t50 -191.5q0 -93 -43.5 -152.5t-117.5 -59.5q-38 0 -70 19.5t-48 52.5q-45 -72 -138 -72q-54 0 -98 26t-70 72.5t-26 105.5q0 58 26 105t69.5 73t94.5 26
q36 0 63.5 -14.5t44.5 -37.5h8v38h98v-246q0 -26 13.5 -43.5t36.5 -17.5q31 0 46.5 35t15.5 91q0 76 -38.5 143t-106.5 107t-153 40q-83 0 -150.5 -37t-106.5 -104.5t-39 -153.5q0 -85 41 -152.5t109 -105t146 -37.5q75 0 133 33l34 -87q-37 -17 -80 -27t-87 -10
q-114 0 -204.5 51.5zM504.5 222q29.5 29 29.5 78t-29.5 78t-71.5 29t-71.5 -29.5t-29.5 -77.5t29.5 -77.5t71.5 -29.5t71.5 29z" />
    <glyph glyph-name="A" unicode="A" horiz-adv-x="722" 
d="M283 716h155l269 -716h-149l-60 171h-274l-60 -171h-149zM454 295l-63 180l-26 86h-8l-26 -86l-64 -180h187z" />
    <glyph glyph-name="B" unicode="B" horiz-adv-x="647" 
d="M82 716h280q60 0 110.5 -25t79.5 -68t29 -94q0 -54 -26.5 -93.5t-69.5 -60.5v-8q56 -20 89 -63.5t33 -104.5q0 -59 -31.5 -104.5t-85 -70t-118.5 -24.5h-290v716zM352 424q44 0 70.5 24.5t26.5 61.5q0 36 -25.5 60.5t-67.5 24.5h-139v-171h135zM367 123q49 0 76.5 25.5
t27.5 66.5t-28 67t-80 26h-146v-185h150z" />
    <glyph glyph-name="C" unicode="C" horiz-adv-x="750" 
d="M231 33.5q-86 49.5 -135.5 135t-49.5 189.5t49.5 189.5t135.5 135t190 49.5q162 0 268 -117l-95 -92q-69 81 -172 81q-67 0 -122 -30.5t-86.5 -86.5t-31.5 -129t31.5 -129t86.5 -86.5t122 -30.5q113 0 189 94l96 -91q-53 -64 -125.5 -97.5t-160.5 -33.5q-104 0 -190 49.5
z" />
    <glyph glyph-name="D" unicode="D" horiz-adv-x="738" 
d="M82 716h242q112 0 195 -45t128 -126t45 -187t-45 -187t-128 -126t-195 -45h-242v716zM318 128q116 0 177 61.5t61 168.5t-61 168.5t-177 61.5h-101v-460h101z" />
    <glyph glyph-name="E" unicode="E" horiz-adv-x="593" 
d="M82 716h454v-128h-319v-166h287v-128h-287v-166h319v-128h-454v716z" />
    <glyph glyph-name="F" unicode="F" horiz-adv-x="573" 
d="M82 716h454v-128h-319v-174h287v-128h-287v-286h-135v716z" />
    <glyph glyph-name="G" unicode="G" horiz-adv-x="826" 
d="M234.5 32.5q-86.5 48.5 -137.5 134t-51 191.5t51 191.5t137.5 134t189.5 48.5q84 0 153.5 -29.5t119.5 -83.5l-93 -91q-36 38 -79.5 57t-101.5 19q-66 0 -121 -30.5t-87.5 -87t-32.5 -128.5t33 -128.5t88.5 -87t121.5 -30.5q100 0 164 59q20 18 35 46t22 61h-225v115h351
q7 -28 7 -63q0 -71 -21.5 -132t-65.5 -107q-48 -52 -116 -79.5t-152 -27.5q-103 0 -189.5 48.5z" />
    <glyph glyph-name="H" unicode="H" horiz-adv-x="735" 
d="M82 716h135v-286h301v286h135v-716h-135v302h-301v-302h-135v716z" />
    <glyph glyph-name="I" unicode="I" horiz-adv-x="298" 
d="M82 716h135v-716h-135v716z" />
    <glyph glyph-name="J" unicode="J" horiz-adv-x="568" 
d="M115.5 30.5q-63.5 46.5 -88.5 126.5l124 51q13 -47 42 -71.5t71 -24.5q46 0 72.5 30t26.5 84v490h135v-489q0 -78 -31 -132.5t-84 -82.5t-119 -28q-85 0 -148.5 46.5z" />
    <glyph glyph-name="K" unicode="K" horiz-adv-x="683" 
d="M82 716h135v-307h8l262 307h163v-8l-259 -296l286 -404v-8h-165l-214 305l-81 -95v-210h-135v716z" />
    <glyph glyph-name="L" unicode="L" horiz-adv-x="551" 
d="M82 716h135v-588h303v-128h-438v716z" />
    <glyph glyph-name="M" unicode="M" horiz-adv-x="900" 
d="M82 716h174l190 -503h8l190 503h175v-716h-134v353l8 119h-8l-182 -472h-105l-183 472h-8l8 -119v-353h-133v716z" />
    <glyph glyph-name="N" unicode="N" horiz-adv-x="742" 
d="M82 716h157l288 -480h8l-8 138v342h134v-716h-142l-304 507h-8l8 -138v-369h-133v716z" />
    <glyph glyph-name="O" unicode="O" horiz-adv-x="840" 
d="M229.5 33.5q-85.5 49.5 -134.5 135.5t-49 189t49 189t134.5 135.5t190.5 49.5t190.5 -49.5t134.5 -135.5t49 -189t-49 -189t-134.5 -135.5t-190.5 -49.5t-190.5 49.5zM541 143q55 31 86.5 87t31.5 128t-31.5 128t-86.5 87t-121 31t-120.5 -31t-86 -87t-31.5 -128
t31.5 -128t86 -87t120.5 -31t121 31z" />
    <glyph glyph-name="P" unicode="P" horiz-adv-x="610" 
d="M82 716h252q68 0 124 -28.5t88 -80t32 -117.5t-32 -118t-88 -80.5t-124 -28.5h-117v-263h-135v716zM338 391q50 0 78.5 29t28.5 70t-28.5 69.5t-78.5 28.5h-121v-197h121z" />
    <glyph glyph-name="Q" unicode="Q" horiz-adv-x="840" 
d="M575 16q-75 -32 -155 -32q-105 0 -190.5 49.5t-134.5 135.5t-49 189t49 189t134.5 135.5t190.5 49.5t190.5 -49.5t134.5 -135.5t49 -189q0 -82 -31 -153t-87 -123l55 -82l-100 -67zM501 127l-78 117l100 68l78 -118q28 31 43 73t15 91q0 72 -31.5 128t-86.5 87t-121 31
t-120.5 -31t-86 -87t-31.5 -128t31.5 -128t86 -87t120.5 -31q39 0 81 15z" />
    <glyph glyph-name="R" unicode="R" horiz-adv-x="634" 
d="M82 716h261q70 0 124.5 -29t84.5 -80.5t30 -116.5q0 -69 -43.5 -122.5t-109.5 -77.5l-1 -7l192 -275v-8h-155l-185 269h-63v-269h-135v716zM342 393q46 0 75 28t29 71q0 41 -27.5 70t-74.5 29h-127v-198h125z" />
    <glyph glyph-name="S" unicode="S" horiz-adv-x="589" 
d="M132 37q-72 53 -101 150l127 50q15 -57 51 -91t90 -34q45 0 77 22.5t32 62.5t-30.5 65.5t-108.5 54.5l-44 16q-69 24 -118 73.5t-49 124.5q0 56 29 102t82 72.5t120 26.5q97 0 153 -45.5t77 -106.5l-119 -50q-11 33 -38.5 55.5t-70.5 22.5q-44 0 -72.5 -20.5t-28.5 -53.5
q0 -32 27 -54.5t89 -43.5l45 -15q93 -32 142.5 -84.5t49.5 -137.5q0 -70 -36 -118.5t-92.5 -72.5t-116.5 -24q-94 0 -166 53z" />
    <glyph glyph-name="T" unicode="T" horiz-adv-x="588" 
d="M227 588h-200v128h535v-128h-200v-588h-135v588z" />
    <glyph glyph-name="U" unicode="U" horiz-adv-x="694" 
d="M200.5 20q-62.5 36 -97 104t-34.5 161v431h134v-439q0 -74 37.5 -119.5t106.5 -45.5t106.5 45.5t37.5 119.5v439h134v-431q0 -89 -34 -157t-97 -106t-147 -38t-146.5 36z" />
    <glyph glyph-name="V" unicode="V" horiz-adv-x="684" 
d="M14 716h146l148 -432l26 -91h8l28 91l154 432h146l-261 -716h-142z" />
    <glyph glyph-name="W" unicode="W" horiz-adv-x="984" 
d="M17 716h150l98 -402l12 -75h8l16 75l126 402h133l123 -402l16 -73h8l12 73l97 402h150l-185 -716h-145l-122 432l-16 77h-8l-16 -77l-128 -432h-139z" />
    <glyph glyph-name="X" unicode="X" horiz-adv-x="694" 
d="M253 374l-216 342h167l139 -234h8l138 234h168l-217 -342l235 -374h-168l-156 258h-8l-156 -258h-168z" />
    <glyph glyph-name="Y" unicode="Y" horiz-adv-x="642" 
d="M256 333l-241 383h161l143 -237h8l138 237h163l-237 -383v-333h-135v333z" />
    <glyph glyph-name="Z" unicode="Z" horiz-adv-x="610" 
d="M39 136l363 452h-347v128h504v-136l-359 -452h363v-128h-524v136z" />
    <glyph glyph-name="bracketleft" unicode="[" horiz-adv-x="367" 
d="M82 792h248v-108h-120v-700h120v-108h-248v916z" />
    <glyph glyph-name="backslash" unicode="\" horiz-adv-x="488" 
d="M31 716h129l297 -716h-129z" />
    <glyph glyph-name="bracketright" unicode="]" horiz-adv-x="367" 
d="M38 -16h120v700h-120v108h248v-916h-248v108z" />
    <glyph glyph-name="asciicircum" unicode="^" horiz-adv-x="515" 
d="M203 716h109l191 -306h-136l-105 182h-8l-106 -182h-136z" />
    <glyph glyph-name="underscore" unicode="_" horiz-adv-x="499" 
d="M0 -100h499v-116h-499v116z" />
    <glyph glyph-name="grave" unicode="`" horiz-adv-x="443" 
d="M96 724h153l42 -136h-106z" />
    <glyph glyph-name="a" unicode="a" horiz-adv-x="561" 
d="M87 31.5q-52 47.5 -52 124.5q0 51 27 90t74 60t104 21q79 0 135 -23v22q0 42 -31.5 68t-84.5 26q-36 0 -69.5 -16.5t-55.5 -43.5l-84 66q37 48 93 74t122 26q117 0 178 -54t61 -158v-314h-129v52h-8q-23 -30 -60.5 -49t-86.5 -19q-81 0 -133 47.5zM341.5 122.5
q33.5 36.5 33.5 85.5q-51 24 -107 24q-102 0 -102 -76q0 -31 22 -50.5t63 -19.5q57 0 90.5 36.5z" />
    <glyph glyph-name="b" unicode="b" horiz-adv-x="631" 
d="M255.5 6q-40.5 22 -60.5 55h-8v-61h-123v716h131v-196l-8 -72h8q21 33 61 55.5t92 22.5q69 0 125.5 -34.5t88.5 -96.5t32 -140q0 -79 -32 -140.5t-88.5 -96t-125.5 -34.5q-52 0 -92.5 22zM394 124q32 19 51 53t19 78t-19 78t-51 52.5t-69 18.5q-36 0 -68 -18.5t-51 -52.5
t-19 -78t19 -78t51 -53t68 -19q37 0 69 19z" />
    <glyph glyph-name="c" unicode="c" horiz-adv-x="573" 
d="M166 18.5q-61 34.5 -95.5 96.5t-34.5 140t34.5 139.5t95.5 96.5t138 35q85 0 146 -36.5t88 -103.5l-120 -50q-32 68 -114 68q-60 0 -98.5 -41t-38.5 -108q0 -68 38.5 -109t98.5 -41q83 0 120 72l119 -52q-33 -67 -94 -104t-145 -37q-77 0 -138 34.5z" />
    <glyph glyph-name="d" unicode="d" horiz-adv-x="631" 
d="M157.5 18.5q-56.5 34.5 -89 96t-32.5 140.5q0 78 32.5 140t89 96.5t125.5 34.5q52 0 92 -22.5t61 -55.5h8l-8 72v196h130v-716h-122v61h-8q-20 -33 -60.5 -55t-92.5 -22q-69 0 -125.5 34.5zM374 124q32 19 51 53t19 78t-19 78t-51 52.5t-69 18.5q-36 0 -68 -18.5
t-51 -52.5t-19 -78t19 -78t51 -53t68 -19q37 0 69 19z" />
    <glyph glyph-name="e" unicode="e" horiz-adv-x="587" 
d="M166 19q-61 35 -95.5 96.5t-34.5 138.5q0 73 34 135.5t94 99.5t134 37q79 0 136 -34t86.5 -93t29.5 -131q0 -23 -3 -44h-383q10 -61 48.5 -92.5t92.5 -31.5q45 0 77.5 19.5t51.5 52.5l106 -52q-78 -136 -237 -136q-76 0 -137 35zM424 317q-2 24 -17.5 47.5t-43 39
t-64.5 15.5q-47 0 -80.5 -27.5t-48.5 -74.5h254z" />
    <glyph glyph-name="f" unicode="f" horiz-adv-x="413" 
d="M119 398h-91v112h91v28q0 87 52 136.5t136 49.5q48 0 83 -11v-128q-19 8 -33.5 12t-33.5 4q-33 0 -53 -19t-20 -52v-20h125v-112h-125v-398h-131v398z" />
    <glyph glyph-name="g" unicode="g" horiz-adv-x="624" 
d="M138 -188.5q-64 43.5 -86 104.5l123 50q16 -38 49 -60t75 -22q62 0 98.5 38t36.5 108v40h-8q-24 -34 -63 -52t-89 -18q-63 0 -117.5 32.5t-87.5 92t-33 138.5t33 138.5t87.5 92t117.5 32.5q50 0 89 -18t63 -52h8v54h126v-475q0 -82 -32 -142t-91 -92.5t-138 -32.5
q-97 0 -161 43.5zM395 157.5q39 38.5 39 105.5q0 69 -38.5 106.5t-94.5 37.5t-95 -38t-39 -106t39 -106t95 -38q55 0 94 38.5z" />
    <glyph glyph-name="h" unicode="h" horiz-adv-x="602" 
d="M64 716h131v-181l-8 -89h8q22 36 64 58t91 22q93 0 142.5 -55.5t49.5 -153.5v-317h-131v301q0 49 -26.5 76t-70.5 27q-52 0 -85.5 -42t-33.5 -103v-259h-131v716z" />
    <glyph glyph-name="i" unicode="i" horiz-adv-x="276" 
d="M78 591q-25 25 -25 60t25 59.5t60 24.5t59.5 -24.5t24.5 -59.5t-24.5 -60t-59.5 -25t-60 25zM72 510h131v-510h-131v510z" />
    <glyph glyph-name="j" unicode="j" horiz-adv-x="276" 
d="M78 591q-25 25 -25 60t25 59.5t60 24.5t59.5 -24.5t24.5 -59.5t-24.5 -60t-59.5 -25t-60 25zM-26 -219v127q26 -14 53 -14q24 0 34.5 14.5t10.5 44.5v557h131v-560q0 -90 -45 -133t-116 -43q-40 0 -68 7z" />
    <glyph glyph-name="k" unicode="k" horiz-adv-x="559" 
d="M64 716h131v-390h7l183 184h161v-8l-193 -189l202 -305v-8h-155l-139 223l-66 -65v-158h-131v716z" />
    <glyph glyph-name="l" unicode="l" horiz-adv-x="260" 
d="M64 716h131v-716h-131v716z" />
    <glyph glyph-name="m" unicode="m" horiz-adv-x="911" 
d="M64 510h123v-64h8q24 37 64.5 58.5t90.5 21.5q54 0 94 -25.5t57 -64.5q25 40 68.5 65t102.5 25q87 0 132.5 -53.5t45.5 -144.5v-328h-130v304q0 48 -22.5 74t-62.5 26q-51 0 -81.5 -40.5t-30.5 -106.5v-257h-131v304q0 48 -23.5 74t-66.5 26q-48 0 -77.5 -40.5
t-29.5 -106.5v-257h-131v510z" />
    <glyph glyph-name="n" unicode="n" horiz-adv-x="599" 
d="M64 510h123v-64h8q23 37 65 58.5t91 21.5q92 0 140 -56t48 -153v-317h-131v301q0 49 -25 76t-70 27q-53 0 -85.5 -41t-32.5 -103v-260h-131v510z" />
    <glyph glyph-name="o" unicode="o" horiz-adv-x="615" 
d="M167 19.5q-62 35.5 -96.5 97t-34.5 138.5q0 76 34.5 138t96.5 97.5t141 35.5q78 0 140 -35.5t96.5 -97.5t34.5 -138q0 -77 -34.5 -138.5t-96.5 -97t-140 -35.5q-79 0 -141 35.5zM378 123q32 18 51 52t19 80q0 45 -19 79t-51 52t-70 18t-70 -18t-51.5 -52t-19.5 -79
t19.5 -79.5t51.5 -52.5t70 -18t70 18z" />
    <glyph glyph-name="p" unicode="p" horiz-adv-x="627" 
d="M60 510h123v-62h8q21 33 61 55.5t92 22.5q69 0 125.5 -34.5t88.5 -96.5t32 -140q0 -79 -32 -140.5t-88.5 -96t-125.5 -34.5q-52 0 -92.5 22t-60.5 55h-8l8 -72v-205h-131v726zM390 124q32 19 51 53t19 78t-19 78t-51 52.5t-69 18.5q-36 0 -68 -18.5t-51 -52.5t-19 -78
t19 -78t51 -53t68 -19q37 0 69 19z" />
    <glyph glyph-name="q" unicode="q" horiz-adv-x="627" 
d="M436 -11l8 72h-8q-20 -33 -60.5 -55t-92.5 -22q-69 0 -125.5 34.5t-89 96t-32.5 140.5q0 78 32.5 140t89 96.5t125.5 34.5q52 0 92 -22.5t61 -55.5h8v62h122v-726h-130v205zM374 124q32 19 51 53t19 78t-19 78t-51 52.5t-69 18.5q-36 0 -68 -18.5t-51 -52.5t-19 -78
t19 -78t51 -53t68 -19q37 0 69 19z" />
    <glyph glyph-name="r" unicode="r" horiz-adv-x="427" 
d="M64 510h123v-68h8q19 36 59 59.5t88 23.5q35 0 64 -11v-131q-27 10 -45.5 14.5t-39.5 4.5q-58 0 -92 -42t-34 -106v-254h-131v510z" />
    <glyph glyph-name="s" unicode="s" horiz-adv-x="505" 
d="M107.5 22q-57.5 38 -80.5 99l117 51q16 -36 45.5 -54.5t68.5 -18.5q36 0 60 11.5t24 37.5q0 25 -22 37.5t-66 22.5l-60 13q-62 15 -103 54.5t-41 98.5q0 44 26.5 79t72 54t100.5 19q158 0 211 -111l-112 -49q-30 54 -96 54q-34 0 -54 -12.5t-20 -31.5q0 -36 68 -54
l75 -18q76 -19 114.5 -58t38.5 -96q0 -49 -28.5 -86.5t-78 -58.5t-109.5 -21q-93 0 -150.5 38z" />
    <glyph glyph-name="t" unicode="t" horiz-adv-x="418" 
d="M216 3.5q-32 11.5 -52 31.5q-47 45 -47 128v235h-89v112h89v144h131v-144h125v-112h-125v-211q0 -39 17 -56q14 -16 48 -16q19 0 31.5 5t32.5 17v-128q-43 -17 -91 -17q-38 0 -70 11.5z" />
    <glyph glyph-name="u" unicode="u" horiz-adv-x="599" 
d="M108 41q-48 57 -48 159v310h131v-294q0 -52 25 -81.5t66 -29.5q56 0 89 41t33 104v260h131v-510h-123v64h-8q-23 -37 -64.5 -58.5t-91.5 -21.5q-92 0 -140 57z" />
    <glyph glyph-name="v" unicode="v" horiz-adv-x="578" 
d="M7 510h149l129 -332h8l131 332h147l-218 -510h-130z" />
    <glyph glyph-name="w" unicode="w" horiz-adv-x="833" 
d="M7 510h147l88 -331h7l102 331h134l102 -331h7l88 331h145l-163 -510h-141l-104 330h-7l-103 -330h-140z" />
    <glyph glyph-name="x" unicode="x" horiz-adv-x="536" 
d="M190 259l-176 251h155l97 -146h6l91 146h160l-179 -251l179 -259h-155l-98 149h-6l-96 -149h-155z" />
    <glyph glyph-name="y" unicode="y" horiz-adv-x="578" 
d="M223 24l-215 486h149l132 -317h8l127 317h146l-315 -726h-141z" />
    <glyph glyph-name="z" unicode="z" horiz-adv-x="511" 
d="M38 107l266 292h-258v111h419v-107l-266 -292h274v-111h-435v107z" />
    <glyph glyph-name="braceleft" unicode="{" horiz-adv-x="337" 
d="M136.5 -75q-48.5 49 -48.5 134v154q0 32 -18.5 49t-45.5 17v110q27 0 45.5 17t18.5 49v154q0 85 48.5 134t134.5 49h34v-108h-16q-31 0 -52 -22t-21 -58v-146q0 -52 -16 -80.5t-54 -39.5v-8q38 -11 54 -39.5t16 -80.5v-146q0 -36 21 -58t52 -22h16v-108h-34
q-86 0 -134.5 49z" />
    <glyph glyph-name="bar" unicode="|" horiz-adv-x="284" 
d="M82 792h120v-912h-120v912z" />
    <glyph glyph-name="braceright" unicode="}" horiz-adv-x="337" 
d="M32 -16h17q31 0 51.5 22t20.5 58v146q0 51 16.5 80t54.5 40v8q-38 11 -54.5 40t-16.5 80v146q0 36 -20.5 58t-51.5 22h-17v108h35q86 0 134 -49t48 -134v-154q0 -32 18.5 -49t45.5 -17v-110q-27 0 -45.5 -17t-18.5 -49v-154q0 -85 -48 -134t-134 -49h-35v108z" />
    <glyph glyph-name="asciitilde" unicode="~" horiz-adv-x="565" 
d="M335.5 232q-29.5 9 -66.5 26q-6 2 -24 10q-19 7 -32.5 10.5t-23.5 3.5q-22 0 -33.5 -12t-13.5 -31h-104q0 70 35.5 112t97.5 42q31 0 59 -9t69 -26q28 -12 45.5 -18t32.5 -6q22 0 33.5 12t13.5 31h104q0 -70 -36 -112t-98 -42q-29 0 -58.5 9z" />
    <glyph glyph-name="uni00A0" unicode="&#xa0;" horiz-adv-x="234" 
d="M0 0z" />
    <glyph glyph-name="exclamdown" unicode="&#xa1;" horiz-adv-x="286" 
d="M81.5 377.5q-25.5 25.5 -25.5 61.5t25.5 61.5t61.5 25.5t61.5 -25.5t25.5 -61.5t-25.5 -61.5t-61.5 -25.5t-61.5 25.5zM76 -10l12 279h110l12 -279v-206h-134v206z" />
    <glyph glyph-name="cent" unicode="&#xa2;" horiz-adv-x="553" 
d="M335 86v-86h-89v87q-62 10 -109.5 45.5t-74 89.5t-26.5 120t26.5 120t74 89.5t109.5 45.5v87h89v-86q66 -9 112 -45t72 -92l-109 -43q-26 54 -75 69v-290q57 17 85 73l103 -45q-63 -123 -188 -139zM181 253.5q25 -37.5 65 -53.5v284q-40 -16 -65 -53.5t-25 -88.5
t25 -88.5z" />
    <glyph glyph-name="sterling" unicode="&#xa3;" horiz-adv-x="549" 
d="M529 131q-39 -131 -172 -131h-318v106q45 18 70 53.5t25 73.5v9h-92v100h54q-29 47 -42.5 79.5t-13.5 78.5q0 53 27 99t76 73.5t111 27.5q86 0 138 -42.5t71 -105.5l-115 -47q-9 34 -32 56.5t-62 22.5q-41 0 -65.5 -26t-24.5 -64q0 -31 10.5 -55t31.5 -60l21 -37h132
v-100h-107q-3 -76 -51 -119l5 -7h149q56 0 72 59z" />
    <glyph glyph-name="currency" unicode="&#xa4;" horiz-adv-x="628" 
d="M70 150l58 57q-34 55 -34 118q0 65 34 118l-58 58l63 64l59 -57q55 36 122 36t122 -36l59 57l63 -64l-57 -58q33 -52 33 -118q0 -65 -33 -118l57 -57l-63 -65l-59 57q-55 -36 -122 -36t-122 36l-59 -57zM393.5 242.5q32.5 33.5 32.5 82.5t-32.5 82.5t-79.5 33.5
t-79.5 -33.5t-32.5 -82.5t32.5 -82.5t79.5 -33.5t79.5 33.5z" />
    <glyph glyph-name="yen" unicode="&#xa5;" horiz-adv-x="639" 
d="M254 133h-165v116h165v63h-165v116h91l-164 256h160l113 -189l29 -67h8l28 67l109 189h161l-162 -256h89v-116h-162v-63h162v-116h-162v-133h-135v133z" />
    <glyph glyph-name="brokenbar" unicode="&#xa6;" horiz-adv-x="284" 
d="M82 756h120v-380h-120v380zM82 292h120v-412h-120v412z" />
    <glyph glyph-name="section" unicode="&#xa7;" horiz-adv-x="577" 
d="M525 -33q0 -59 -31 -104.5t-83.5 -70t-116.5 -24.5q-63 0 -114.5 26t-85.5 70.5t-46 99.5l120 46q14 -55 48 -88.5t82 -33.5q42 0 69.5 22t27.5 58t-31 59t-107 48l-12 4q-7 2 -13 4q-79 26 -121 74t-42 110q0 84 74 138q-74 55 -74 140q0 52 28.5 95t79 67.5t112.5 24.5
q60 0 106 -23t74 -58t38 -71l-120 -47q-8 34 -33.5 56.5t-66.5 22.5q-36 0 -61.5 -19.5t-25.5 -46.5q0 -28 24.5 -46.5t86.5 -38.5q13 -5 29 -10q94 -32 141 -80.5t47 -127.5q0 -87 -61 -141q58 -56 58 -135zM218.5 225.5q26.5 -22.5 82.5 -40.5q28 -10 43 -14l25 -9
q30 32 30 66q0 43 -30.5 71t-104.5 52q-17 5 -22 7q-23 -13 -36.5 -33.5t-13.5 -44.5q0 -32 26.5 -54.5z" />
    <glyph glyph-name="dieresis" unicode="&#xa8;" horiz-adv-x="452" 
d="M80 608.5q-21 21.5 -21 50.5q0 30 21 51t51 21t50.5 -21t20.5 -51t-20.5 -51t-50.5 -21t-51 21.5zM271 608.5q-21 21.5 -21 50.5q0 30 21 51t50 21q31 0 51.5 -21t20.5 -51t-21 -51t-51 -21q-29 0 -50 21.5z" />
    <glyph glyph-name="copyright" unicode="&#xa9;" horiz-adv-x="532" 
d="M151 303q-53 31 -84 84t-31 115t31 115t84 84t115 31t115 -31t84 -84t31 -115t-31 -115t-84 -84t-115 -31t-115 31zM357.5 344.5q41.5 24.5 66 66.5t24.5 91q0 50 -24.5 91.5t-66 66t-91.5 24.5q-49 0 -91 -24.5t-66.5 -66t-24.5 -91.5q0 -49 25 -90.5t66.5 -66.5
t90.5 -25q50 0 91.5 24.5zM185.5 418q-34.5 35 -34.5 84q0 50 34 84.5t85 34.5q28 0 48 -10t39 -29l-32 -29q-12 13 -23.5 18.5t-31.5 5.5q-29 0 -51 -21.5t-22 -53.5q0 -31 22 -53t51 -22q36 0 60 31l34 -27q-36 -48 -94 -48q-50 0 -84.5 35z" />
    <glyph glyph-name="ordfeminine" unicode="&#xaa;" horiz-adv-x="495" 
d="M121.5 290.5q-37.5 18.5 -59.5 52t-22 77.5t24.5 77t65 51t88.5 18q68 0 120 -25v14q0 37 -27 60t-70 23q-31 0 -56 -13.5t-38 -37.5l-95 48q26 46 75.5 71.5t113.5 25.5q99 0 156.5 -48t57.5 -140v-258h-117v46h-8q-47 -60 -126 -60q-45 0 -82.5 18.5zM306.5 392.5
q31.5 29.5 31.5 67.5q-50 22 -93 22q-42 0 -64 -17.5t-22 -45.5q0 -26 20 -41t50 -15q46 0 77.5 29.5z" />
    <glyph glyph-name="guillemotleft" unicode="&#xab;" horiz-adv-x="610" 
d="M40 271l212 230l75 -69l-150 -161l150 -161l-75 -69zM263 271l212 230l75 -69l-150 -161l150 -161l-75 -69z" />
    <glyph glyph-name="logicalnot" unicode="&#xac;" horiz-adv-x="612" 
d="M408 290h-352v114h466v-299h-114v185z" />
    <glyph glyph-name="uni00AD" unicode="&#xad;" horiz-adv-x="465" 
d="M63 368h339v-116h-339v116z" />
    <glyph glyph-name="registered" unicode="&#xae;" horiz-adv-x="532" 
d="M151 303q-53 31 -84 84t-31 115t31 115t84 84t115 31t115 -31t84 -84t31 -115t-31 -115t-84 -84t-115 -31t-115 31zM357.5 344.5q41.5 24.5 66 66.5t24.5 91q0 50 -24.5 91.5t-66 66t-91.5 24.5q-49 0 -91 -24.5t-66.5 -66t-24.5 -91.5q0 -49 25 -90.5t66.5 -66.5
t90.5 -25q50 0 91.5 24.5zM189 615h96q29 0 51 -21t22 -51q0 -23 -14.5 -41.5t-35.5 -24.5l-2 -2l60 -84v-2h-52l-55 84h-24v-84h-46v226zM281 515q13 0 22 8t9 20q0 11 -8.5 19.5t-21.5 8.5h-47v-56h46z" />
    <glyph glyph-name="macron" unicode="&#xaf;" horiz-adv-x="416" 
d="M60 709h296v-100h-296v100z" />
    <glyph glyph-name="degree" unicode="&#xb0;" horiz-adv-x="325" 
d="M97.5 459.5q-30.5 17.5 -48 47t-17.5 64.5t17.5 65t48 47t65.5 17t65 -17t47.5 -47t17.5 -65t-17.5 -64.5t-47.5 -47t-65 -17.5t-65.5 17.5zM198.5 534.5q14.5 15.5 14.5 36.5q0 22 -14 37t-36 15t-36.5 -15t-14.5 -37q0 -21 14.5 -36.5t36.5 -15.5q21 0 35.5 15.5z" />
    <glyph glyph-name="plusminus" unicode="&#xb1;" horiz-adv-x="569" 
d="M226 316h-170v108h170v141h116v-141h171v-108h-171v-141h-116v141zM56 116h457v-116h-457v116z" />
    <glyph glyph-name="uni00B2" unicode="&#xb2;" horiz-adv-x="317" 
d="M28 413l128 129q21 21 31 35t10 32q0 15 -11.5 25.5t-29.5 10.5q-20 0 -34 -12.5t-18 -37.5l-80 31q10 45 46.5 71.5t85.5 26.5q57 0 94 -30t37 -78q0 -51 -62 -113l-75 -74h139v-79h-261v63z" />
    <glyph glyph-name="uni00B3" unicode="&#xb3;" horiz-adv-x="335" 
d="M75.5 367.5q-38.5 25.5 -51.5 75.5l83 30q6 -28 21.5 -41t36.5 -13q20 0 34.5 12t14.5 32q0 19 -16 30.5t-41 11.5h-38v70h34q23 0 36.5 10t13.5 28q0 15 -11.5 24.5t-27.5 9.5q-21 0 -34 -10.5t-18 -26.5l-78 31q13 38 47 60.5t85 22.5q54 0 89 -30t35 -73
q0 -48 -43 -78q25 -13 40.5 -35t15.5 -49q0 -53 -40.5 -85t-97.5 -32q-51 0 -89.5 25.5z" />
    <glyph glyph-name="acute" unicode="&#xb4;" horiz-adv-x="443" 
d="M194 724h153l-90 -136h-105z" />
    <glyph glyph-name="uni00B5" unicode="&#xb5;" horiz-adv-x="599" 
d="M60 510h131v-296q0 -52 25.5 -80.5t65.5 -28.5q56 0 89 41t33 104v260h131v-510h-123v54h-8q-21 -33 -56.5 -51.5t-78.5 -18.5q-23 0 -43.5 6.5t-34.5 17.5h-8l8 -65v-159h-131v726z" />
    <glyph glyph-name="paragraph" unicode="&#xb6;" horiz-adv-x="643" 
d="M273 296h-25q-60 0 -111.5 25.5t-82 73.5t-30.5 111t30.5 111t82 73.5t111.5 25.5h315v-932h-110v825h-70v-825h-110v512z" />
    <glyph glyph-name="periodcentered" unicode="&#xb7;" horiz-adv-x="230" 
d="M53.5 262.5q-25.5 25.5 -25.5 61.5t25.5 61.5t61.5 25.5t61.5 -25.5t25.5 -61.5t-25.5 -61.5t-61.5 -25.5t-61.5 25.5z" />
    <glyph glyph-name="cedilla" unicode="&#xb8;" horiz-adv-x="411" 
d="M108.5 -218.5q-26.5 18.5 -37.5 47.5l64 27q4 -12 13.5 -20t21.5 -8q15 0 24 9.5t9 22.5q0 14 -9 24t-24 10t-27 -14l-61 28l36 92h68l-21 -47q7 1 18 1q40 0 67 -26t27 -69q0 -42 -29.5 -69t-77.5 -27q-35 0 -61.5 18.5z" />
    <glyph glyph-name="uni00B9" unicode="&#xb9;" horiz-adv-x="272" 
d="M123 605l-49 -43l-50 66l107 88h81v-366h-89v255z" />
    <glyph glyph-name="ordmasculine" unicode="&#xba;" horiz-adv-x="535" 
d="M148.5 301.5q-52.5 29.5 -82.5 82t-30 118.5t30 118.5t82.5 82t118.5 29.5t119 -29.5t83 -82t30 -118.5t-30 -118.5t-83 -82t-119 -29.5t-118.5 29.5zM347 415q34 34 34 87t-34 87t-80 34t-80 -34t-34 -87t34 -87t80 -34t80 34z" />
    <glyph glyph-name="guillemotright" unicode="&#xbb;" horiz-adv-x="610" 
d="M60 110l150 161l-150 161l75 69l212 -230l-212 -230zM283 110l150 161l-150 161l75 69l212 -230l-212 -230z" />
    <glyph glyph-name="onequarter" unicode="&#xbc;" horiz-adv-x="771" 
d="M147 605l-49 -43l-50 66l107 88h81v-366h-89v255zM119 37l465 694l79 -53l-465 -694zM581 65h-172v64l171 237h87v-227h48v-74h-48v-65h-86v65zM581 139v107h-8l-76 -107h84z" />
    <glyph glyph-name="onehalf" unicode="&#xbd;" horiz-adv-x="808" 
d="M147 605l-49 -43l-50 66l107 88h81v-366h-89v255zM111 37l465 694l79 -53l-465 -694zM491 63l128 129q21 21 31 35t10 32q0 15 -11.5 25.5t-29.5 10.5q-20 0 -34 -12.5t-18 -37.5l-80 31q10 45 46.5 71.5t85.5 26.5q57 0 94 -30t37 -78q0 -51 -62 -113l-75 -74h139v-79
h-261v63z" />
    <glyph glyph-name="threequarters" unicode="&#xbe;" horiz-adv-x="841" 
d="M99.5 367.5q-38.5 25.5 -51.5 75.5l83 30q6 -28 21.5 -41t36.5 -13q20 0 34.5 12t14.5 32q0 19 -16 30.5t-41 11.5h-38v70h34q23 0 36.5 10t13.5 28q0 15 -11.5 24.5t-27.5 9.5q-21 0 -34 -10.5t-18 -26.5l-78 31q13 38 47 60.5t85 22.5q54 0 89 -30t35 -73
q0 -48 -43 -78q25 -13 40.5 -35t15.5 -49q0 -53 -40.5 -85t-97.5 -32q-51 0 -89.5 25.5zM179 37l465 694l79 -53l-465 -694zM651 65h-172v64l171 237h87v-227h48v-74h-48v-65h-86v65zM651 139v107h-8l-76 -107h84z" />
    <glyph glyph-name="questiondown" unicode="&#xbf;" horiz-adv-x="520" 
d="M197.5 377.5q-25.5 25.5 -25.5 61.5t25.5 61.5t61.5 25.5t61 -25.5t25 -61.5t-25 -61.5t-61 -25.5t-61.5 25.5zM149.5 -207q-49.5 25 -77 68.5t-27.5 96.5q0 52 22 88.5t66 78.5q34 32 46.5 55t12.5 58v31h131v-48q0 -48 -20 -83t-72 -80q-30 -27 -43.5 -47t-13.5 -46
q0 -31 23 -52.5t61 -21.5q40 0 66 23.5t36 58.5l115 -48q-19 -64 -74 -110.5t-139 -46.5q-63 0 -112.5 25z" />
    <glyph glyph-name="Agrave" unicode="&#xc0;" horiz-adv-x="722" 
d="M283 716h155l269 -716h-149l-60 171h-274l-60 -171h-149zM454 295l-63 180l-26 86h-8l-26 -86l-64 -180h187zM219 908h153l42 -136h-106z" />
    <glyph glyph-name="Aacute" unicode="&#xc1;" horiz-adv-x="722" 
d="M283 716h155l269 -716h-149l-60 171h-274l-60 -171h-149zM454 295l-63 180l-26 86h-8l-26 -86l-64 -180h187zM350 908h153l-90 -136h-105z" />
    <glyph glyph-name="Acircumflex" unicode="&#xc2;" horiz-adv-x="722" 
d="M283 716h155l269 -716h-149l-60 171h-274l-60 -171h-149zM454 295l-63 180l-26 86h-8l-26 -86l-64 -180h187zM190 786l114 126h114l114 -126v-8h-125l-40 59h-12l-40 -59h-125v8z" />
    <glyph glyph-name="Atilde" unicode="&#xc3;" horiz-adv-x="722" 
d="M283 716h155l269 -716h-149l-60 171h-274l-60 -171h-149zM454 295l-63 180l-26 86h-8l-26 -86l-64 -180h187zM381 778.5q-19 7.5 -43 20.5q-2 1 -15 8t-21 7q-25 0 -26 -29h-92q0 62 33.5 95t82.5 33q23 0 41 -7t46 -22q25 -14 33 -14q13 0 19 7t8 22h92q0 -62 -34 -95
t-83 -33q-22 0 -41 7.5z" />
    <glyph glyph-name="Adieresis" unicode="&#xc4;" horiz-adv-x="722" 
d="M283 716h155l269 -716h-149l-60 171h-274l-60 -171h-149zM454 295l-63 180l-26 86h-8l-26 -86l-64 -180h187zM215 792.5q-21 21.5 -21 50.5q0 30 21 51t51 21t50.5 -21t20.5 -51t-20.5 -51t-50.5 -21t-51 21.5zM406 792.5q-21 21.5 -21 50.5q0 30 21 51t50 21
q31 0 51.5 -21t20.5 -51t-21 -51t-51 -21q-29 0 -50 21.5z" />
    <glyph glyph-name="Aring" unicode="&#xc5;" horiz-adv-x="722" 
d="M707 0h-149l-60 171h-274l-60 -171h-149l250 668q-34 37 -34 88q0 36 17.5 65.5t47 47t65.5 17.5q35 0 65 -17.5t47.5 -47.5t17.5 -65q0 -51 -35 -88zM333 784.5q-12 -11.5 -12 -28.5q0 -16 12 -28t28 -12q17 0 28.5 12t11.5 28q0 17 -11.5 28.5t-28.5 11.5
q-16 0 -28 -11.5zM454 295l-63 180l-26 86h-8l-26 -86l-64 -180h187z" />
    <glyph glyph-name="AE" unicode="&#xc6;" horiz-adv-x="1013" 
d="M425 716h531v-128h-320v-166h288v-128h-288v-166h320v-128h-455v173h-238l-98 -173h-158zM501 301v287h-10l-33 -70l-124 -217h167z" />
    <glyph glyph-name="Ccedilla" unicode="&#xc7;" horiz-adv-x="750" 
d="M586 19.5q-70 -33.5 -155 -35.5l-14 -31q7 1 18 1q40 0 67 -26t27 -69q0 -42 -29.5 -69t-77.5 -27q-35 0 -61.5 18.5t-37.5 47.5l64 27q4 -12 13.5 -20t21.5 -8q15 0 24 9.5t9 22.5q0 14 -9 24t-24 10t-27 -14l-61 28l31 80q-91 13 -164 64.5t-114 131t-41 174.5
q0 104 49.5 189.5t135.5 135t190 49.5q162 0 268 -117l-95 -92q-69 81 -172 81q-67 0 -122 -30.5t-86.5 -86.5t-31.5 -129t31.5 -129t86.5 -86.5t122 -30.5q113 0 189 94l96 -91q-51 -62 -121 -95.5z" />
    <glyph glyph-name="Egrave" unicode="&#xc8;" horiz-adv-x="593" 
d="M82 716h454v-128h-319v-166h287v-128h-287v-166h319v-128h-454v716zM167 908h153l42 -136h-106z" />
    <glyph glyph-name="Eacute" unicode="&#xc9;" horiz-adv-x="593" 
d="M82 716h454v-128h-319v-166h287v-128h-287v-166h319v-128h-454v716zM298 908h153l-90 -136h-105z" />
    <glyph glyph-name="Ecircumflex" unicode="&#xca;" horiz-adv-x="593" 
d="M82 716h454v-128h-319v-166h287v-128h-287v-166h319v-128h-454v716zM138 786l114 126h114l114 -126v-8h-125l-40 59h-12l-40 -59h-125v8z" />
    <glyph glyph-name="Edieresis" unicode="&#xcb;" horiz-adv-x="593" 
d="M82 716h454v-128h-319v-166h287v-128h-287v-166h319v-128h-454v716zM163 792.5q-21 21.5 -21 50.5q0 30 21 51t51 21t50.5 -21t20.5 -51t-20.5 -51t-50.5 -21t-51 21.5zM354 792.5q-21 21.5 -21 50.5q0 30 21 51t50 21q31 0 51.5 -21t20.5 -51t-21 -51t-51 -21
q-29 0 -50 21.5z" />
    <glyph glyph-name="Igrave" unicode="&#xcc;" horiz-adv-x="298" 
d="M82 716h135v-716h-135v716zM7 908h153l42 -136h-106z" />
    <glyph glyph-name="Iacute" unicode="&#xcd;" horiz-adv-x="298" 
d="M82 716h135v-716h-135v716zM138 908h153l-90 -136h-105z" />
    <glyph glyph-name="Icircumflex" unicode="&#xce;" horiz-adv-x="298" 
d="M82 716h135v-716h-135v716zM-22 786l114 126h114l114 -126v-8h-125l-40 59h-12l-40 -59h-125v8z" />
    <glyph glyph-name="Idieresis" unicode="&#xcf;" horiz-adv-x="298" 
d="M13.5 794.5q-20.5 20.5 -20.5 48.5q0 29 20.5 49t48.5 20q29 0 49 -20t20 -49q0 -28 -20 -48.5t-49 -20.5q-28 0 -48.5 20.5zM187.5 794.5q-20.5 20.5 -20.5 48.5q0 29 20.5 49t48.5 20q29 0 49 -20t20 -49q0 -28 -20.5 -48.5t-48.5 -20.5t-48.5 20.5zM82 716h135v-716
h-135v716z" />
    <glyph glyph-name="Eth" unicode="&#xd0;" horiz-adv-x="796" 
d="M140 302h-76v110h76v304h242q112 0 195.5 -45t128 -126t44.5 -187t-44.5 -187t-128 -126t-195.5 -45h-242v302zM377 128q116 0 177 61.5t61 168.5t-61 168.5t-177 61.5h-102v-176h184v-110h-184v-174h102z" />
    <glyph glyph-name="Ntilde" unicode="&#xd1;" horiz-adv-x="742" 
d="M82 716h157l288 -480h8l-8 138v342h134v-716h-142l-304 507h-8l8 -138v-369h-133v716zM403 778.5q-19 7.5 -43 20.5q-2 1 -15 8t-21 7q-25 0 -26 -29h-92q0 62 33.5 95t82.5 33q23 0 41 -7t46 -22q25 -14 33 -14q13 0 19 7t8 22h92q0 -62 -34 -95t-83 -33q-22 0 -41 7.5z
" />
    <glyph glyph-name="Ograve" unicode="&#xd2;" horiz-adv-x="840" 
d="M229.5 33.5q-85.5 49.5 -134.5 135.5t-49 189t49 189t134.5 135.5t190.5 49.5t190.5 -49.5t134.5 -135.5t49 -189t-49 -189t-134.5 -135.5t-190.5 -49.5t-190.5 49.5zM541 143q55 31 86.5 87t31.5 128t-31.5 128t-86.5 87t-121 31t-120.5 -31t-86 -87t-31.5 -128
t31.5 -128t86 -87t120.5 -31t121 31zM278 908h153l42 -136h-106z" />
    <glyph glyph-name="Oacute" unicode="&#xd3;" horiz-adv-x="840" 
d="M229.5 33.5q-85.5 49.5 -134.5 135.5t-49 189t49 189t134.5 135.5t190.5 49.5t190.5 -49.5t134.5 -135.5t49 -189t-49 -189t-134.5 -135.5t-190.5 -49.5t-190.5 49.5zM541 143q55 31 86.5 87t31.5 128t-31.5 128t-86.5 87t-121 31t-120.5 -31t-86 -87t-31.5 -128
t31.5 -128t86 -87t120.5 -31t121 31zM409 908h153l-90 -136h-105z" />
    <glyph glyph-name="Ocircumflex" unicode="&#xd4;" horiz-adv-x="840" 
d="M229.5 33.5q-85.5 49.5 -134.5 135.5t-49 189t49 189t134.5 135.5t190.5 49.5t190.5 -49.5t134.5 -135.5t49 -189t-49 -189t-134.5 -135.5t-190.5 -49.5t-190.5 49.5zM541 143q55 31 86.5 87t31.5 128t-31.5 128t-86.5 87t-121 31t-120.5 -31t-86 -87t-31.5 -128
t31.5 -128t86 -87t120.5 -31t121 31zM249 786l114 126h114l114 -126v-8h-125l-40 59h-12l-40 -59h-125v8z" />
    <glyph glyph-name="Otilde" unicode="&#xd5;" horiz-adv-x="840" 
d="M229.5 33.5q-85.5 49.5 -134.5 135.5t-49 189t49 189t134.5 135.5t190.5 49.5t190.5 -49.5t134.5 -135.5t49 -189t-49 -189t-134.5 -135.5t-190.5 -49.5t-190.5 49.5zM541 143q55 31 86.5 87t31.5 128t-31.5 128t-86.5 87t-121 31t-120.5 -31t-86 -87t-31.5 -128
t31.5 -128t86 -87t120.5 -31t121 31zM440 778.5q-19 7.5 -43 20.5q-2 1 -15 8t-21 7q-25 0 -26 -29h-92q0 62 33.5 95t82.5 33q23 0 41 -7t46 -22q25 -14 33 -14q13 0 19 7t8 22h92q0 -62 -34 -95t-83 -33q-22 0 -41 7.5z" />
    <glyph glyph-name="Odieresis" unicode="&#xd6;" horiz-adv-x="840" 
d="M229.5 33.5q-85.5 49.5 -134.5 135.5t-49 189t49 189t134.5 135.5t190.5 49.5t190.5 -49.5t134.5 -135.5t49 -189t-49 -189t-134.5 -135.5t-190.5 -49.5t-190.5 49.5zM541 143q55 31 86.5 87t31.5 128t-31.5 128t-86.5 87t-121 31t-120.5 -31t-86 -87t-31.5 -128
t31.5 -128t86 -87t120.5 -31t121 31zM274 792.5q-21 21.5 -21 50.5q0 30 21 51t51 21t50.5 -21t20.5 -51t-20.5 -51t-50.5 -21t-51 21.5zM465 792.5q-21 21.5 -21 50.5q0 30 21 51t50 21q31 0 51.5 -21t20.5 -51t-21 -51t-51 -21q-29 0 -50 21.5z" />
    <glyph glyph-name="multiply" unicode="&#xd7;" horiz-adv-x="625" 
d="M67 115l163 156l-163 156l81 81l165 -158l164 158l81 -81l-163 -156l163 -156l-81 -81l-164 158l-165 -158z" />
    <glyph glyph-name="Oslash" unicode="&#xd8;" horiz-adv-x="840" 
d="M759.5 518.5q34.5 -74.5 34.5 -160.5q0 -103 -49 -189t-134.5 -135.5t-190.5 -49.5q-78 0 -151 30l-38 -61l-91 59l37 59q-62 52 -96.5 126.5t-34.5 160.5q0 103 49 189t134.5 135.5t190.5 49.5q78 0 151 -30l38 61l91 -59l-37 -59q62 -52 96.5 -126.5zM199 261.5
q17 -44.5 48 -77.5l254 407q-41 13 -81 13q-66 0 -120.5 -31t-86 -87t-31.5 -128q0 -52 17 -96.5zM541 143q55 31 86.5 87t31.5 128q0 52 -17.5 97t-48.5 78l-254 -408q41 -13 81 -13q66 0 121 31z" />
    <glyph glyph-name="Ugrave" unicode="&#xd9;" horiz-adv-x="694" 
d="M200.5 20q-62.5 36 -97 104t-34.5 161v431h134v-439q0 -74 37.5 -119.5t106.5 -45.5t106.5 45.5t37.5 119.5v439h134v-431q0 -89 -34 -157t-97 -106t-147 -38t-146.5 36zM205 908h153l42 -136h-106z" />
    <glyph glyph-name="Uacute" unicode="&#xda;" horiz-adv-x="694" 
d="M200.5 20q-62.5 36 -97 104t-34.5 161v431h134v-439q0 -74 37.5 -119.5t106.5 -45.5t106.5 45.5t37.5 119.5v439h134v-431q0 -89 -34 -157t-97 -106t-147 -38t-146.5 36zM336 908h153l-90 -136h-105z" />
    <glyph glyph-name="Ucircumflex" unicode="&#xdb;" horiz-adv-x="694" 
d="M200.5 20q-62.5 36 -97 104t-34.5 161v431h134v-439q0 -74 37.5 -119.5t106.5 -45.5t106.5 45.5t37.5 119.5v439h134v-431q0 -89 -34 -157t-97 -106t-147 -38t-146.5 36zM176 786l114 126h114l114 -126v-8h-125l-40 59h-12l-40 -59h-125v8z" />
    <glyph glyph-name="Udieresis" unicode="&#xdc;" horiz-adv-x="694" 
d="M200.5 20q-62.5 36 -97 104t-34.5 161v431h134v-439q0 -74 37.5 -119.5t106.5 -45.5t106.5 45.5t37.5 119.5v439h134v-431q0 -89 -34 -157t-97 -106t-147 -38t-146.5 36zM201 792.5q-21 21.5 -21 50.5q0 30 21 51t51 21t50.5 -21t20.5 -51t-20.5 -51t-50.5 -21t-51 21.5z
M392 792.5q-21 21.5 -21 50.5q0 30 21 51t50 21q31 0 51.5 -21t20.5 -51t-21 -51t-51 -21q-29 0 -50 21.5z" />
    <glyph glyph-name="Yacute" unicode="&#xdd;" horiz-adv-x="642" 
d="M256 333l-241 383h161l143 -237h8l138 237h163l-237 -383v-333h-135v333zM310 908h153l-90 -136h-105z" />
    <glyph glyph-name="Thorn" unicode="&#xde;" horiz-adv-x="610" 
d="M82 716h135v-109h117q68 0 124 -28.5t88 -80t32 -117.5t-32 -117.5t-88 -80t-124 -28.5h-117v-155h-135v716zM338 283q50 0 78.5 28.5t28.5 69.5t-28.5 69.5t-78.5 28.5h-121v-196h121z" />
    <glyph glyph-name="germandbls" unicode="&#xdf;" horiz-adv-x="602" 
d="M272 -4v119q21 -4 51 -4q46 0 76.5 29.5t30.5 76.5q0 46 -35 76.5t-85 30.5h-28v115h21q45 0 72 25t27 65q0 35 -27 58.5t-66 23.5q-45 0 -71 -29.5t-26 -76.5v-505h-132v507q0 65 28 116t79.5 80t121.5 29q62 0 112 -24t78.5 -67.5t28.5 -99.5q0 -49 -22.5 -88.5
t-58.5 -61.5v-8q55 -24 85 -68t30 -108q0 -63 -29.5 -112t-82 -76t-119.5 -27q-32 0 -59 4z" />
    <glyph glyph-name="agrave" unicode="&#xe0;" horiz-adv-x="561" 
d="M87 31.5q-52 47.5 -52 124.5q0 51 27 90t74 60t104 21q79 0 135 -23v22q0 42 -31.5 68t-84.5 26q-36 0 -69.5 -16.5t-55.5 -43.5l-84 66q37 48 93 74t122 26q117 0 178 -54t61 -158v-314h-129v52h-8q-23 -30 -60.5 -49t-86.5 -19q-81 0 -133 47.5zM341.5 122.5
q33.5 36.5 33.5 85.5q-51 24 -107 24q-102 0 -102 -76q0 -31 22 -50.5t63 -19.5q57 0 90.5 36.5zM135 744h153l42 -136h-106z" />
    <glyph glyph-name="aacute" unicode="&#xe1;" horiz-adv-x="561" 
d="M87 31.5q-52 47.5 -52 124.5q0 51 27 90t74 60t104 21q79 0 135 -23v22q0 42 -31.5 68t-84.5 26q-36 0 -69.5 -16.5t-55.5 -43.5l-84 66q37 48 93 74t122 26q117 0 178 -54t61 -158v-314h-129v52h-8q-23 -30 -60.5 -49t-86.5 -19q-81 0 -133 47.5zM341.5 122.5
q33.5 36.5 33.5 85.5q-51 24 -107 24q-102 0 -102 -76q0 -31 22 -50.5t63 -19.5q57 0 90.5 36.5zM266 744h153l-90 -136h-105z" />
    <glyph glyph-name="acircumflex" unicode="&#xe2;" horiz-adv-x="561" 
d="M87 31.5q-52 47.5 -52 124.5q0 51 27 90t74 60t104 21q79 0 135 -23v22q0 42 -31.5 68t-84.5 26q-36 0 -69.5 -16.5t-55.5 -43.5l-84 66q37 48 93 74t122 26q117 0 178 -54t61 -158v-314h-129v52h-8q-23 -30 -60.5 -49t-86.5 -19q-81 0 -133 47.5zM341.5 122.5
q33.5 36.5 33.5 85.5q-51 24 -107 24q-102 0 -102 -76q0 -31 22 -50.5t63 -19.5q57 0 90.5 36.5zM106 610l114 126h114l114 -126v-8h-125l-40 58h-12l-40 -58h-125v8z" />
    <glyph glyph-name="atilde" unicode="&#xe3;" horiz-adv-x="561" 
d="M87 31.5q-52 47.5 -52 124.5q0 51 27 90t74 60t104 21q79 0 135 -23v22q0 42 -31.5 68t-84.5 26q-36 0 -69.5 -16.5t-55.5 -43.5l-84 66q37 48 93 74t122 26q117 0 178 -54t61 -158v-314h-129v52h-8q-23 -30 -60.5 -49t-86.5 -19q-81 0 -133 47.5zM341.5 122.5
q33.5 36.5 33.5 85.5q-51 24 -107 24q-102 0 -102 -76q0 -31 22 -50.5t63 -19.5q57 0 90.5 36.5zM297 614.5q-19 7.5 -43 20.5q-2 1 -15 8t-21 7q-25 0 -26 -29h-92q0 62 33.5 94.5t82.5 32.5q23 0 41 -7t46 -22q25 -14 33 -14q13 0 19 7t8 22h92q0 -61 -34 -94t-83 -33
q-22 0 -41 7.5z" />
    <glyph glyph-name="adieresis" unicode="&#xe4;" horiz-adv-x="561" 
d="M87 31.5q-52 47.5 -52 124.5q0 51 27 90t74 60t104 21q79 0 135 -23v22q0 42 -31.5 68t-84.5 26q-36 0 -69.5 -16.5t-55.5 -43.5l-84 66q37 48 93 74t122 26q117 0 178 -54t61 -158v-314h-129v52h-8q-23 -30 -60.5 -49t-86.5 -19q-81 0 -133 47.5zM341.5 122.5
q33.5 36.5 33.5 85.5q-51 24 -107 24q-102 0 -102 -76q0 -31 22 -50.5t63 -19.5q57 0 90.5 36.5zM131 628q-21 21 -21 51t21 50.5t51 20.5t50.5 -20.5t20.5 -50.5t-20.5 -51t-50.5 -21t-51 21zM322 628q-21 21 -21 51t21 50.5t50 20.5q31 0 51.5 -20.5t20.5 -50.5t-20.5 -51
t-51.5 -21q-29 0 -50 21z" />
    <glyph glyph-name="aring" unicode="&#xe5;" horiz-adv-x="561" 
d="M87 31.5q-52 47.5 -52 124.5q0 51 27 90t74 60t104 21q79 0 135 -23v22q0 42 -31.5 68t-84.5 26q-36 0 -69.5 -16.5t-55.5 -43.5l-84 66q37 48 93 74t122 26q117 0 178 -54t61 -158v-314h-129v52h-8q-23 -30 -60.5 -49t-86.5 -19q-81 0 -133 47.5zM341.5 122.5
q33.5 36.5 33.5 85.5q-51 24 -107 24q-102 0 -102 -76q0 -31 22 -50.5t63 -19.5q57 0 90.5 36.5zM200.5 615.5q-31.5 31.5 -31.5 76.5t31.5 76.5t76.5 31.5t76.5 -31.5t31.5 -76.5t-31.5 -76.5t-76.5 -31.5t-76.5 31.5zM301.5 667.5q10.5 10.5 10.5 24.5t-10.5 24t-24.5 10
t-24.5 -10t-10.5 -24t10.5 -24.5t24.5 -10.5t24.5 10.5z" />
    <glyph glyph-name="ae" unicode="&#xe6;" horiz-adv-x="920" 
d="M88.5 31.5q-53.5 47.5 -53.5 124.5q0 51 27 90t74 60t104 21q75 0 133 -25v18q0 46 -29.5 73t-82.5 27q-35 0 -60 -15.5t-36 -41.5l-98 43q27 59 81 89.5t117 30.5q127 0 191 -79q31 38 76 58t99 20q80 0 137 -34t86.5 -92.5t29.5 -130.5q0 -30 -4 -44h-381
q9 -61 47.5 -92.5t92.5 -31.5q45 0 77.5 19.5t50.5 52.5l107 -52q-78 -136 -237 -136q-65 0 -118 29t-89 79q-44 -58 -91.5 -83t-108.5 -25q-88 0 -141.5 47.5zM757 317q-3 39 -36.5 70t-88.5 31q-46 0 -79.5 -27t-48.5 -74h253zM340 122q33 36 33 86q-46 24 -105 24
q-102 0 -102 -76q0 -31 22 -50.5t63 -19.5q56 0 89 36z" />
    <glyph glyph-name="ccedilla" unicode="&#xe7;" horiz-adv-x="573" 
d="M454.5 24.5q-57.5 -36.5 -136.5 -40.5l-14 -31q7 1 18 1q40 0 67 -26t27 -69q0 -42 -29.5 -69t-77.5 -27q-35 0 -61.5 18.5t-37.5 47.5l64 27q4 -12 13.5 -20t21.5 -8q15 0 24 9.5t9 22.5q0 14 -9 24t-24 10t-27 -14l-61 28l31 80q-64 11 -113 47.5t-76 93.5t-27 126
q0 78 34.5 139.5t95.5 96.5t138 35q85 0 146 -36.5t88 -103.5l-120 -50q-32 68 -114 68q-60 0 -98.5 -41t-38.5 -108q0 -68 38.5 -109t98.5 -41q83 0 120 72l119 -52q-31 -64 -88.5 -100.5z" />
    <glyph glyph-name="egrave" unicode="&#xe8;" horiz-adv-x="587" 
d="M166 19q-61 35 -95.5 96.5t-34.5 138.5q0 73 34 135.5t94 99.5t134 37q79 0 136 -34t86.5 -93t29.5 -131q0 -23 -3 -44h-383q10 -61 48.5 -92.5t92.5 -31.5q45 0 77.5 19.5t51.5 52.5l106 -52q-78 -136 -237 -136q-76 0 -137 35zM424 317q-2 24 -17.5 47.5t-43 39
t-64.5 15.5q-47 0 -80.5 -27.5t-48.5 -74.5h254zM155 744h153l42 -136h-106z" />
    <glyph glyph-name="eacute" unicode="&#xe9;" horiz-adv-x="587" 
d="M166 19q-61 35 -95.5 96.5t-34.5 138.5q0 73 34 135.5t94 99.5t134 37q79 0 136 -34t86.5 -93t29.5 -131q0 -23 -3 -44h-383q10 -61 48.5 -92.5t92.5 -31.5q45 0 77.5 19.5t51.5 52.5l106 -52q-78 -136 -237 -136q-76 0 -137 35zM424 317q-2 24 -17.5 47.5t-43 39
t-64.5 15.5q-47 0 -80.5 -27.5t-48.5 -74.5h254zM286 744h153l-90 -136h-105z" />
    <glyph glyph-name="ecircumflex" unicode="&#xea;" horiz-adv-x="587" 
d="M166 19q-61 35 -95.5 96.5t-34.5 138.5q0 73 34 135.5t94 99.5t134 37q79 0 136 -34t86.5 -93t29.5 -131q0 -23 -3 -44h-383q10 -61 48.5 -92.5t92.5 -31.5q45 0 77.5 19.5t51.5 52.5l106 -52q-78 -136 -237 -136q-76 0 -137 35zM424 317q-2 24 -17.5 47.5t-43 39
t-64.5 15.5q-47 0 -80.5 -27.5t-48.5 -74.5h254zM126 610l114 126h114l114 -126v-8h-125l-40 58h-12l-40 -58h-125v8z" />
    <glyph glyph-name="edieresis" unicode="&#xeb;" horiz-adv-x="587" 
d="M166 19q-61 35 -95.5 96.5t-34.5 138.5q0 73 34 135.5t94 99.5t134 37q79 0 136 -34t86.5 -93t29.5 -131q0 -23 -3 -44h-383q10 -61 48.5 -92.5t92.5 -31.5q45 0 77.5 19.5t51.5 52.5l106 -52q-78 -136 -237 -136q-76 0 -137 35zM424 317q-2 24 -17.5 47.5t-43 39
t-64.5 15.5q-47 0 -80.5 -27.5t-48.5 -74.5h254zM151 628q-21 21 -21 51t21 50.5t51 20.5t50.5 -20.5t20.5 -50.5t-20.5 -51t-50.5 -21t-51 21zM342 628q-21 21 -21 51t21 50.5t50 20.5q31 0 51.5 -20.5t20.5 -50.5t-20.5 -51t-51.5 -21q-29 0 -50 21z" />
    <glyph glyph-name="igrave" unicode="&#xec;" horiz-adv-x="276" 
d="M72 510h131v-510h-131v510zM-4 744h153l42 -136h-106z" />
    <glyph glyph-name="iacute" unicode="&#xed;" horiz-adv-x="276" 
d="M72 510h131v-510h-131v510zM127 744h153l-90 -136h-105z" />
    <glyph glyph-name="icircumflex" unicode="&#xee;" horiz-adv-x="276" 
d="M72 510h131v-510h-131v510zM-33 610l114 126h114l114 -126v-8h-125l-40 58h-12l-40 -58h-125v8z" />
    <glyph glyph-name="idieresis" unicode="&#xef;" horiz-adv-x="276" 
d="M5.5 630.5q-20.5 20.5 -20.5 48.5q0 29 20.5 49t48.5 20q29 0 49 -20t20 -49q0 -28 -20 -48.5t-49 -20.5q-28 0 -48.5 20.5zM173.5 630.5q-20.5 20.5 -20.5 48.5q0 29 20.5 49t48.5 20q29 0 49 -20t20 -49q0 -28 -20 -48.5t-49 -20.5q-28 0 -48.5 20.5zM72 510h131v-510
h-131v510z" />
    <glyph glyph-name="eth" unicode="&#xf0;" horiz-adv-x="599" 
d="M170 18q-57 34 -90 92t-33 128t33 128t87 91.5t114 33.5q34 0 63 -11t47 -26l7 5q-12 29 -32 50.5t-50 41.5l-118 -52l-34 80l55 24q-40 16 -90 28l41 99q100 -24 176 -71l102 45l34 -78l-60 -27q66 -63 98 -150t32 -192q0 -82 -33 -144t-91.5 -95.5t-131.5 -33.5
q-69 0 -126 34zM386.5 139q35.5 38 35.5 99q0 60 -35.5 98t-88.5 38t-89 -38t-36 -98q0 -61 36 -99t89 -38t88.5 38z" />
    <glyph glyph-name="ntilde" unicode="&#xf1;" horiz-adv-x="599" 
d="M64 510h123v-64h8q23 37 65 58.5t91 21.5q92 0 140 -56t48 -153v-317h-131v301q0 49 -25 76t-70 27q-53 0 -85.5 -41t-32.5 -103v-260h-131v510zM333 614.5q-19 7.5 -43 20.5q-2 1 -15 8t-21 7q-25 0 -26 -29h-92q0 62 33.5 94.5t82.5 32.5q23 0 41 -7t46 -22
q25 -14 33 -14q13 0 19 7t8 22h92q0 -61 -34 -94t-83 -33q-22 0 -41 7.5z" />
    <glyph glyph-name="ograve" unicode="&#xf2;" horiz-adv-x="615" 
d="M167 19.5q-62 35.5 -96.5 97t-34.5 138.5q0 76 34.5 138t96.5 97.5t141 35.5q78 0 140 -35.5t96.5 -97.5t34.5 -138q0 -77 -34.5 -138.5t-96.5 -97t-140 -35.5q-79 0 -141 35.5zM378 123q32 18 51 52t19 80q0 45 -19 79t-51 52t-70 18t-70 -18t-51.5 -52t-19.5 -79
t19.5 -79.5t51.5 -52.5t70 -18t70 18zM166 744h153l42 -136h-106z" />
    <glyph glyph-name="oacute" unicode="&#xf3;" horiz-adv-x="615" 
d="M167 19.5q-62 35.5 -96.5 97t-34.5 138.5q0 76 34.5 138t96.5 97.5t141 35.5q78 0 140 -35.5t96.5 -97.5t34.5 -138q0 -77 -34.5 -138.5t-96.5 -97t-140 -35.5q-79 0 -141 35.5zM378 123q32 18 51 52t19 80q0 45 -19 79t-51 52t-70 18t-70 -18t-51.5 -52t-19.5 -79
t19.5 -79.5t51.5 -52.5t70 -18t70 18zM297 744h153l-90 -136h-105z" />
    <glyph glyph-name="ocircumflex" unicode="&#xf4;" horiz-adv-x="615" 
d="M167 19.5q-62 35.5 -96.5 97t-34.5 138.5q0 76 34.5 138t96.5 97.5t141 35.5q78 0 140 -35.5t96.5 -97.5t34.5 -138q0 -77 -34.5 -138.5t-96.5 -97t-140 -35.5q-79 0 -141 35.5zM378 123q32 18 51 52t19 80q0 45 -19 79t-51 52t-70 18t-70 -18t-51.5 -52t-19.5 -79
t19.5 -79.5t51.5 -52.5t70 -18t70 18zM137 610l114 126h114l114 -126v-8h-125l-40 58h-12l-40 -58h-125v8z" />
    <glyph glyph-name="otilde" unicode="&#xf5;" horiz-adv-x="615" 
d="M167 19.5q-62 35.5 -96.5 97t-34.5 138.5q0 76 34.5 138t96.5 97.5t141 35.5q78 0 140 -35.5t96.5 -97.5t34.5 -138q0 -77 -34.5 -138.5t-96.5 -97t-140 -35.5q-79 0 -141 35.5zM378 123q32 18 51 52t19 80q0 45 -19 79t-51 52t-70 18t-70 -18t-51.5 -52t-19.5 -79
t19.5 -79.5t51.5 -52.5t70 -18t70 18zM328 614.5q-19 7.5 -43 20.5q-2 1 -15 8t-21 7q-25 0 -26 -29h-92q0 62 33.5 94.5t82.5 32.5q23 0 41 -7t46 -22q25 -14 33 -14q13 0 19 7t8 22h92q0 -61 -34 -94t-83 -33q-22 0 -41 7.5z" />
    <glyph glyph-name="odieresis" unicode="&#xf6;" horiz-adv-x="615" 
d="M167 19.5q-62 35.5 -96.5 97t-34.5 138.5q0 76 34.5 138t96.5 97.5t141 35.5q78 0 140 -35.5t96.5 -97.5t34.5 -138q0 -77 -34.5 -138.5t-96.5 -97t-140 -35.5q-79 0 -141 35.5zM378 123q32 18 51 52t19 80q0 45 -19 79t-51 52t-70 18t-70 -18t-51.5 -52t-19.5 -79
t19.5 -79.5t51.5 -52.5t70 -18t70 18zM162 628q-21 21 -21 51t21 50.5t51 20.5t50.5 -20.5t20.5 -50.5t-20.5 -51t-50.5 -21t-51 21zM353 628q-21 21 -21 51t21 50.5t50 20.5q31 0 51.5 -20.5t20.5 -50.5t-20.5 -51t-51.5 -21q-29 0 -50 21z" />
    <glyph glyph-name="divide" unicode="&#xf7;" horiz-adv-x="569" 
d="M226 410q-24 24 -24 58t24 58t58 24t58 -24t24 -58t-24 -58t-58 -24t-58 24zM56 325h457v-108h-457v108zM226 16q-24 24 -24 58t24 58t58 24t58 -24t24 -58t-24 -58t-58 -24t-58 24z" />
    <glyph glyph-name="oslash" unicode="&#xf8;" horiz-adv-x="615" 
d="M557 367q22 -52 22 -112q0 -77 -34.5 -138.5t-96.5 -97t-140 -35.5q-50 0 -98 16l-26 -42l-90 51l27 44q-40 36 -62.5 88.5t-22.5 113.5q0 76 34.5 138t96.5 97.5t141 35.5q50 0 98 -16l26 42l91 -50l-29 -46q41 -37 63 -89zM186 157l158 254q-16 4 -36 4
q-41 0 -75.5 -19.5t-55 -56t-20.5 -84.5q0 -58 29 -98zM382.5 114.5q34.5 19.5 55 56t20.5 84.5q0 56 -28 97l-158 -253q16 -4 36 -4q40 0 74.5 19.5z" />
    <glyph glyph-name="ugrave" unicode="&#xf9;" horiz-adv-x="599" 
d="M108 41q-48 57 -48 159v310h131v-294q0 -52 25 -81.5t66 -29.5q56 0 89 41t33 104v260h131v-510h-123v64h-8q-23 -37 -64.5 -58.5t-91.5 -21.5q-92 0 -140 57zM156 744h153l42 -136h-106z" />
    <glyph glyph-name="uacute" unicode="&#xfa;" horiz-adv-x="599" 
d="M108 41q-48 57 -48 159v310h131v-294q0 -52 25 -81.5t66 -29.5q56 0 89 41t33 104v260h131v-510h-123v64h-8q-23 -37 -64.5 -58.5t-91.5 -21.5q-92 0 -140 57zM287 744h153l-90 -136h-105z" />
    <glyph glyph-name="ucircumflex" unicode="&#xfb;" horiz-adv-x="599" 
d="M108 41q-48 57 -48 159v310h131v-294q0 -52 25 -81.5t66 -29.5q56 0 89 41t33 104v260h131v-510h-123v64h-8q-23 -37 -64.5 -58.5t-91.5 -21.5q-92 0 -140 57zM127 610l114 126h114l114 -126v-8h-125l-40 58h-12l-40 -58h-125v8z" />
    <glyph glyph-name="udieresis" unicode="&#xfc;" horiz-adv-x="599" 
d="M108 41q-48 57 -48 159v310h131v-294q0 -52 25 -81.5t66 -29.5q56 0 89 41t33 104v260h131v-510h-123v64h-8q-23 -37 -64.5 -58.5t-91.5 -21.5q-92 0 -140 57zM152 628q-21 21 -21 51t21 50.5t51 20.5t50.5 -20.5t20.5 -50.5t-20.5 -51t-50.5 -21t-51 21zM343 628
q-21 21 -21 51t21 50.5t50 20.5q31 0 51.5 -20.5t20.5 -50.5t-20.5 -51t-51.5 -21q-29 0 -50 21z" />
    <glyph glyph-name="yacute" unicode="&#xfd;" horiz-adv-x="578" 
d="M223 24l-215 486h149l132 -317h8l127 317h146l-315 -726h-141zM279 744h153l-90 -136h-105z" />
    <glyph glyph-name="thorn" unicode="&#xfe;" horiz-adv-x="628" 
d="M62 716h130v-199l-8 -69h8q21 33 61 55.5t92 22.5q69 0 125.5 -34.5t89 -96.5t32.5 -140q0 -79 -32.5 -140.5t-89 -96t-125.5 -34.5q-52 0 -92.5 22t-60.5 55h-8l8 -69v-208h-130v932zM391 124q32 19 51 53t19 78t-19 78t-51 52.5t-68 18.5t-68 -18.5t-51.5 -52.5
t-19.5 -78t19.5 -78t51.5 -53t68 -19t68 19z" />
    <glyph glyph-name="ydieresis" unicode="&#xff;" horiz-adv-x="578" 
d="M223 24l-215 486h149l132 -317h8l127 317h146l-315 -726h-141zM144 628q-21 21 -21 51t21 50.5t51 20.5t50.5 -20.5t20.5 -50.5t-20.5 -51t-50.5 -21t-51 21zM335 628q-21 21 -21 51t21 50.5t50 20.5q31 0 51.5 -20.5t20.5 -50.5t-20.5 -51t-51.5 -21q-29 0 -50 21z" />
    <glyph glyph-name="Amacron" unicode="&#x100;" horiz-adv-x="722" 
d="M283 716h155l269 -716h-149l-60 171h-274l-60 -171h-149zM454 295l-63 180l-26 86h-8l-26 -86l-64 -180h187zM213 893h296v-100h-296v100z" />
    <glyph glyph-name="amacron" unicode="&#x101;" horiz-adv-x="561" 
d="M87 31.5q-52 47.5 -52 124.5q0 51 27 90t74 60t104 21q79 0 135 -23v22q0 42 -31.5 68t-84.5 26q-36 0 -69.5 -16.5t-55.5 -43.5l-84 66q37 48 93 74t122 26q117 0 178 -54t61 -158v-314h-129v52h-8q-23 -30 -60.5 -49t-86.5 -19q-81 0 -133 47.5zM341.5 122.5
q33.5 36.5 33.5 85.5q-51 24 -107 24q-102 0 -102 -76q0 -31 22 -50.5t63 -19.5q57 0 90.5 36.5zM129 729h296v-100h-296v100z" />
    <glyph glyph-name="Abreve" unicode="&#x102;" horiz-adv-x="722" 
d="M283 716h155l269 -716h-149l-60 171h-274l-60 -171h-149zM454 295l-63 180l-26 86h-8l-26 -86l-64 -180h187zM294.5 780.5q-31.5 17.5 -50.5 49t-19 69.5h93q0 -19 12 -32.5t32 -13.5q19 0 31 13.5t12 32.5h92q0 -38 -18.5 -69.5t-49.5 -49t-67 -17.5t-67.5 17.5z" />
    <glyph glyph-name="abreve" unicode="&#x103;" horiz-adv-x="561" 
d="M87 31.5q-52 47.5 -52 124.5q0 51 27 90t74 60t104 21q79 0 135 -23v22q0 42 -31.5 68t-84.5 26q-36 0 -69.5 -16.5t-55.5 -43.5l-84 66q37 48 93 74t122 26q117 0 178 -54t61 -158v-314h-129v52h-8q-23 -30 -60.5 -49t-86.5 -19q-81 0 -133 47.5zM341.5 122.5
q33.5 36.5 33.5 85.5q-51 24 -107 24q-102 0 -102 -76q0 -31 22 -50.5t63 -19.5q57 0 90.5 36.5zM210.5 616.5q-31.5 17.5 -50.5 48.5t-19 69h93q0 -19 12 -32t32 -13q19 0 31 13t12 32h92q0 -38 -18.5 -69t-49.5 -48.5t-67 -17.5t-67.5 17.5z" />
    <glyph glyph-name="Aogonek" unicode="&#x104;" horiz-adv-x="722" 
d="M562 -192q-35 32 -35 84q0 57 53 103l-2 5h-20l-60 171h-274l-60 -171h-149l268 716h155l269 -716q-33 -23 -51 -43.5t-18 -44.5q0 -18 11 -29.5t28 -11.5q19 0 41 11v-95q-23 -11 -61 -11q-60 0 -95 32zM454 295l-63 180l-26 86h-8l-26 -86l-64 -180h187z" />
    <glyph glyph-name="aogonek" unicode="&#x105;" horiz-adv-x="561" 
d="M359 -192.5q-35 31.5 -35 83.5q0 33 16.5 59t39.5 44l-5 6v52h-8q-23 -30 -60.5 -49t-86.5 -19q-81 0 -133 47.5t-52 124.5q0 51 27 90t74 60t104 21q79 0 135 -23v22q0 42 -31.5 68t-84.5 26q-36 0 -69.5 -16.5t-55.5 -43.5l-84 66q37 48 93 74t122 26q117 0 178 -54
t61 -158v-314q-33 -23 -50.5 -43.5t-17.5 -44.5q0 -18 11 -29.5t28 -11.5q19 0 41 11v-95q-24 -11 -62 -11q-60 0 -95 31.5zM341.5 122.5q33.5 36.5 33.5 85.5q-51 24 -107 24q-102 0 -102 -76q0 -31 22 -50.5t63 -19.5q57 0 90.5 36.5z" />
    <glyph glyph-name="Cacute" unicode="&#x106;" horiz-adv-x="750" 
d="M231 33.5q-86 49.5 -135.5 135t-49.5 189.5t49.5 189.5t135.5 135t190 49.5q162 0 268 -117l-95 -92q-69 81 -172 81q-67 0 -122 -30.5t-86.5 -86.5t-31.5 -129t31.5 -129t86.5 -86.5t122 -30.5q113 0 189 94l96 -91q-53 -64 -125.5 -97.5t-160.5 -33.5q-104 0 -190 49.5
zM403 908h153l-90 -136h-105z" />
    <glyph glyph-name="cacute" unicode="&#x107;" horiz-adv-x="573" 
d="M166 18.5q-61 34.5 -95.5 96.5t-34.5 140t34.5 139.5t95.5 96.5t138 35q85 0 146 -36.5t88 -103.5l-120 -50q-32 68 -114 68q-60 0 -98.5 -41t-38.5 -108q0 -68 38.5 -109t98.5 -41q83 0 120 72l119 -52q-33 -67 -94 -104t-145 -37q-77 0 -138 34.5zM295 744h153
l-90 -136h-105z" />
    <glyph glyph-name="Ccircumflex" unicode="&#x108;" horiz-adv-x="750" 
d="M231 33.5q-86 49.5 -135.5 135t-49.5 189.5t49.5 189.5t135.5 135t190 49.5q162 0 268 -117l-95 -92q-69 81 -172 81q-67 0 -122 -30.5t-86.5 -86.5t-31.5 -129t31.5 -129t86.5 -86.5t122 -30.5q113 0 189 94l96 -91q-53 -64 -125.5 -97.5t-160.5 -33.5q-104 0 -190 49.5
zM243 786l114 126h114l114 -126v-8h-125l-40 59h-12l-40 -59h-125v8z" />
    <glyph glyph-name="ccircumflex" unicode="&#x109;" horiz-adv-x="573" 
d="M166 18.5q-61 34.5 -95.5 96.5t-34.5 140t34.5 139.5t95.5 96.5t138 35q85 0 146 -36.5t88 -103.5l-120 -50q-32 68 -114 68q-60 0 -98.5 -41t-38.5 -108q0 -68 38.5 -109t98.5 -41q83 0 120 72l119 -52q-33 -67 -94 -104t-145 -37q-77 0 -138 34.5zM135 610l114 126h114
l114 -126v-8h-125l-40 58h-12l-40 -58h-125v8z" />
    <glyph glyph-name="Cdotaccent" unicode="&#x10a;" horiz-adv-x="750" 
d="M231 33.5q-86 49.5 -135.5 135t-49.5 189.5t49.5 189.5t135.5 135t190 49.5q162 0 268 -117l-95 -92q-69 81 -172 81q-67 0 -122 -30.5t-86.5 -86.5t-31.5 -129t31.5 -129t86.5 -86.5t122 -30.5q113 0 189 94l96 -91q-53 -64 -125.5 -97.5t-160.5 -33.5q-104 0 -190 49.5
zM364 806q-21 21 -21 50t21 50t50 21t49.5 -21t20.5 -50t-20.5 -50t-49.5 -21t-50 21z" />
    <glyph glyph-name="cdotaccent" unicode="&#x10b;" horiz-adv-x="573" 
d="M166 18.5q-61 34.5 -95.5 96.5t-34.5 140t34.5 139.5t95.5 96.5t138 35q85 0 146 -36.5t88 -103.5l-120 -50q-32 68 -114 68q-60 0 -98.5 -41t-38.5 -108q0 -68 38.5 -109t98.5 -41q83 0 120 72l119 -52q-33 -67 -94 -104t-145 -37q-77 0 -138 34.5zM252 617.5
q-22 22.5 -22 53.5t22 53t54 22q31 0 53 -21.5t22 -53.5t-22 -54t-53 -22q-32 0 -54 22.5z" />
    <glyph glyph-name="Ccaron" unicode="&#x10c;" horiz-adv-x="750" 
d="M231 33.5q-86 49.5 -135.5 135t-49.5 189.5t49.5 189.5t135.5 135t190 49.5q162 0 268 -117l-95 -92q-69 81 -172 81q-67 0 -122 -30.5t-86.5 -86.5t-31.5 -129t31.5 -129t86.5 -86.5t122 -30.5q113 0 189 94l96 -91q-53 -64 -125.5 -97.5t-160.5 -33.5q-104 0 -190 49.5
zM243 904v8h125l40 -59h12l40 59h125v-8l-114 -126h-114z" />
    <glyph glyph-name="ccaron" unicode="&#x10d;" horiz-adv-x="573" 
d="M166 18.5q-61 34.5 -95.5 96.5t-34.5 140t34.5 139.5t95.5 96.5t138 35q85 0 146 -36.5t88 -103.5l-120 -50q-32 68 -114 68q-60 0 -98.5 -41t-38.5 -108q0 -68 38.5 -109t98.5 -41q83 0 120 72l119 -52q-33 -67 -94 -104t-145 -37q-77 0 -138 34.5zM135 727v9h125
l40 -59h12l40 59h125v-9l-114 -125h-114z" />
    <glyph glyph-name="Dcaron" unicode="&#x10e;" horiz-adv-x="738" 
d="M82 716h242q112 0 195 -45t128 -126t45 -187t-45 -187t-128 -126t-195 -45h-242v716zM318 128q116 0 177 61.5t61 168.5t-61 168.5t-177 61.5h-101v-460h101zM180 904v8h125l40 -59h12l40 59h125v-8l-114 -126h-114z" />
    <glyph glyph-name="dcaron" unicode="&#x10f;" horiz-adv-x="744" 
d="M157.5 18.5q-56.5 34.5 -89 96t-32.5 140.5q0 78 32.5 140t89 96.5t125.5 34.5q52 0 92 -22.5t61 -55.5h8l-8 72v196h130v-716h-122v61h-8q-20 -33 -60.5 -55t-92.5 -22q-69 0 -125.5 34.5zM374 124q32 19 51 53t19 78t-19 78t-51 52.5t-69 18.5q-36 0 -68 -18.5
t-51 -52.5t-19 -78t19 -78t51 -53t68 -19q37 0 69 19zM621 716h138l-41 -201h-97v201z" />
    <glyph glyph-name="Dcroat" unicode="&#x110;" horiz-adv-x="730" 
d="M74 317h-74v110h74v289h241q112 0 195.5 -45t128.5 -126t45 -187t-45 -187t-128.5 -126t-195.5 -45h-241v317zM310 128q116 0 177 61.5t61 168.5t-61 168.5t-177 61.5h-102v-161h184v-110h-184v-189h102z" />
    <glyph glyph-name="dcroat" unicode="&#x111;" horiz-adv-x="626" 
d="M626 571h-60v-571h-122v61h-8q-20 -33 -60.5 -55t-92.5 -22q-69 0 -125.5 34.5t-89 96t-32.5 140.5q0 78 32.5 140t89 96.5t125.5 34.5q52 0 92 -22.5t61 -55.5h8l-8 69v54h-139v91h139v54h130v-54h60v-91zM374 124q32 19 51 53t19 78t-19 78t-51 52.5t-69 18.5
q-36 0 -68 -18.5t-51 -52.5t-19 -78t19 -78t51 -53t68 -19q37 0 69 19z" />
    <glyph glyph-name="Emacron" unicode="&#x112;" horiz-adv-x="593" 
d="M82 716h454v-128h-319v-166h287v-128h-287v-166h319v-128h-454v716zM161 893h296v-100h-296v100z" />
    <glyph glyph-name="emacron" unicode="&#x113;" horiz-adv-x="587" 
d="M166 19q-61 35 -95.5 96.5t-34.5 138.5q0 73 34 135.5t94 99.5t134 37q79 0 136 -34t86.5 -93t29.5 -131q0 -23 -3 -44h-383q10 -61 48.5 -92.5t92.5 -31.5q45 0 77.5 19.5t51.5 52.5l106 -52q-78 -136 -237 -136q-76 0 -137 35zM424 317q-2 24 -17.5 47.5t-43 39
t-64.5 15.5q-47 0 -80.5 -27.5t-48.5 -74.5h254zM149 729h296v-100h-296v100z" />
    <glyph glyph-name="Ebreve" unicode="&#x114;" horiz-adv-x="593" 
d="M82 716h454v-128h-319v-166h287v-128h-287v-166h319v-128h-454v716zM242.5 780.5q-31.5 17.5 -50.5 49t-19 69.5h93q0 -19 12 -32.5t32 -13.5q19 0 31 13.5t12 32.5h92q0 -38 -18.5 -69.5t-49.5 -49t-67 -17.5t-67.5 17.5z" />
    <glyph glyph-name="ebreve" unicode="&#x115;" horiz-adv-x="587" 
d="M166 19q-61 35 -95.5 96.5t-34.5 138.5q0 73 34 135.5t94 99.5t134 37q79 0 136 -34t86.5 -93t29.5 -131q0 -23 -3 -44h-383q10 -61 48.5 -92.5t92.5 -31.5q45 0 77.5 19.5t51.5 52.5l106 -52q-78 -136 -237 -136q-76 0 -137 35zM424 317q-2 24 -17.5 47.5t-43 39
t-64.5 15.5q-47 0 -80.5 -27.5t-48.5 -74.5h254zM230.5 616.5q-31.5 17.5 -50.5 48.5t-19 69h93q0 -19 12 -32t32 -13q19 0 31 13t12 32h92q0 -38 -18.5 -69t-49.5 -48.5t-67 -17.5t-67.5 17.5z" />
    <glyph glyph-name="Edotaccent" unicode="&#x116;" horiz-adv-x="593" 
d="M82 716h454v-128h-319v-166h287v-128h-287v-166h319v-128h-454v716zM259 806q-21 21 -21 50t21 50t50 21t49.5 -21t20.5 -50t-20.5 -50t-49.5 -21t-50 21z" />
    <glyph glyph-name="edotaccent" unicode="&#x117;" horiz-adv-x="587" 
d="M166 19q-61 35 -95.5 96.5t-34.5 138.5q0 73 34 135.5t94 99.5t134 37q79 0 136 -34t86.5 -93t29.5 -131q0 -23 -3 -44h-383q10 -61 48.5 -92.5t92.5 -31.5q45 0 77.5 19.5t51.5 52.5l106 -52q-78 -136 -237 -136q-76 0 -137 35zM424 317q-2 24 -17.5 47.5t-43 39
t-64.5 15.5q-47 0 -80.5 -27.5t-48.5 -74.5h254zM243 617.5q-22 22.5 -22 53.5t22 53t54 22q31 0 53 -21.5t22 -53.5t-22 -54t-53 -22q-32 0 -54 22.5z" />
    <glyph glyph-name="Eogonek" unicode="&#x118;" horiz-adv-x="593" 
d="M391 -192.5q-35 31.5 -35 83.5q0 36 18.5 63.5t43.5 45.5h-336v716h454v-128h-319v-166h287v-128h-287v-166h319v-128q-33 -23 -51 -43.5t-18 -44.5q0 -18 11 -29.5t29 -11.5t40 11v-95q-23 -11 -61 -11q-60 0 -95 31.5z" />
    <glyph glyph-name="eogonek" unicode="&#x119;" horiz-adv-x="587" 
d="M279 -193q-35 31 -35 76q0 61 49 101h2q-74 1 -133 36.5t-92.5 96.5t-33.5 137q0 73 34 135.5t94 99.5t134 37q79 0 136 -34t86.5 -93t29.5 -131q0 -23 -3 -44h-383q10 -61 48.5 -92.5t92.5 -31.5q45 0 77.5 19.5t51.5 52.5l106 -52q-28 -50 -93 -99q-40 -30 -59 -46.5
t-26 -30.5t-7 -33q0 -17 11 -28.5t29 -11.5t40 11v-95q-24 -11 -62 -11q-59 0 -94 31zM424 317q-2 24 -17.5 47.5t-43 39t-64.5 15.5q-47 0 -80.5 -27.5t-48.5 -74.5h254z" />
    <glyph glyph-name="Ecaron" unicode="&#x11a;" horiz-adv-x="593" 
d="M82 716h454v-128h-319v-166h287v-128h-287v-166h319v-128h-454v716zM138 904v8h125l40 -59h12l40 59h125v-8l-114 -126h-114z" />
    <glyph glyph-name="ecaron" unicode="&#x11b;" horiz-adv-x="587" 
d="M166 19q-61 35 -95.5 96.5t-34.5 138.5q0 73 34 135.5t94 99.5t134 37q79 0 136 -34t86.5 -93t29.5 -131q0 -23 -3 -44h-383q10 -61 48.5 -92.5t92.5 -31.5q45 0 77.5 19.5t51.5 52.5l106 -52q-78 -136 -237 -136q-76 0 -137 35zM424 317q-2 24 -17.5 47.5t-43 39
t-64.5 15.5q-47 0 -80.5 -27.5t-48.5 -74.5h254zM126 727v9h125l40 -59h12l40 59h125v-9l-114 -125h-114z" />
    <glyph glyph-name="Gcircumflex" unicode="&#x11c;" horiz-adv-x="826" 
d="M234.5 32.5q-86.5 48.5 -137.5 134t-51 191.5t51 191.5t137.5 134t189.5 48.5q84 0 153.5 -29.5t119.5 -83.5l-93 -91q-36 38 -79.5 57t-101.5 19q-66 0 -121 -30.5t-87.5 -87t-32.5 -128.5t33 -128.5t88.5 -87t121.5 -30.5q100 0 164 59q20 18 35 46t22 61h-225v115h351
q7 -28 7 -63q0 -71 -21.5 -132t-65.5 -107q-48 -52 -116 -79.5t-152 -27.5q-103 0 -189.5 48.5zM253 786l114 126h114l114 -126v-8h-125l-40 59h-12l-40 -59h-125v8z" />
    <glyph glyph-name="gcircumflex" unicode="&#x11d;" horiz-adv-x="624" 
d="M138 -188.5q-64 43.5 -86 104.5l123 50q16 -38 49 -60t75 -22q62 0 98.5 38t36.5 108v40h-8q-24 -34 -63 -52t-89 -18q-63 0 -117.5 32.5t-87.5 92t-33 138.5t33 138.5t87.5 92t117.5 32.5q50 0 89 -18t63 -52h8v54h126v-475q0 -82 -32 -142t-91 -92.5t-138 -32.5
q-97 0 -161 43.5zM395 157.5q39 38.5 39 105.5q0 69 -38.5 106.5t-94.5 37.5t-95 -38t-39 -106t39 -106t95 -38q55 0 94 38.5zM133 610l114 126h114l114 -126v-8h-125l-40 58h-12l-40 -58h-125v8z" />
    <glyph glyph-name="Gbreve" unicode="&#x11e;" horiz-adv-x="826" 
d="M234.5 32.5q-86.5 48.5 -137.5 134t-51 191.5t51 191.5t137.5 134t189.5 48.5q84 0 153.5 -29.5t119.5 -83.5l-93 -91q-36 38 -79.5 57t-101.5 19q-66 0 -121 -30.5t-87.5 -87t-32.5 -128.5t33 -128.5t88.5 -87t121.5 -30.5q100 0 164 59q20 18 35 46t22 61h-225v115h351
q7 -28 7 -63q0 -71 -21.5 -132t-65.5 -107q-48 -52 -116 -79.5t-152 -27.5q-103 0 -189.5 48.5zM357.5 780.5q-31.5 17.5 -50.5 49t-19 69.5h93q0 -19 12 -32.5t32 -13.5q19 0 31 13.5t12 32.5h92q0 -38 -18.5 -69.5t-49.5 -49t-67 -17.5t-67.5 17.5z" />
    <glyph glyph-name="gbreve" unicode="&#x11f;" horiz-adv-x="624" 
d="M138 -188.5q-64 43.5 -86 104.5l123 50q16 -38 49 -60t75 -22q62 0 98.5 38t36.5 108v40h-8q-24 -34 -63 -52t-89 -18q-63 0 -117.5 32.5t-87.5 92t-33 138.5t33 138.5t87.5 92t117.5 32.5q50 0 89 -18t63 -52h8v54h126v-475q0 -82 -32 -142t-91 -92.5t-138 -32.5
q-97 0 -161 43.5zM395 157.5q39 38.5 39 105.5q0 69 -38.5 106.5t-94.5 37.5t-95 -38t-39 -106t39 -106t95 -38q55 0 94 38.5zM237.5 616.5q-31.5 17.5 -50.5 48.5t-19 69h93q0 -19 12 -32t32 -13q19 0 31 13t12 32h92q0 -38 -18.5 -69t-49.5 -48.5t-67 -17.5t-67.5 17.5z
" />
    <glyph glyph-name="Gdotaccent" unicode="&#x120;" horiz-adv-x="826" 
d="M234.5 32.5q-86.5 48.5 -137.5 134t-51 191.5t51 191.5t137.5 134t189.5 48.5q84 0 153.5 -29.5t119.5 -83.5l-93 -91q-36 38 -79.5 57t-101.5 19q-66 0 -121 -30.5t-87.5 -87t-32.5 -128.5t33 -128.5t88.5 -87t121.5 -30.5q100 0 164 59q20 18 35 46t22 61h-225v115h351
q7 -28 7 -63q0 -71 -21.5 -132t-65.5 -107q-48 -52 -116 -79.5t-152 -27.5q-103 0 -189.5 48.5zM374 806q-21 21 -21 50t21 50t50 21t49.5 -21t20.5 -50t-20.5 -50t-49.5 -21t-50 21z" />
    <glyph glyph-name="gdotaccent" unicode="&#x121;" horiz-adv-x="624" 
d="M138 -188.5q-64 43.5 -86 104.5l123 50q16 -38 49 -60t75 -22q62 0 98.5 38t36.5 108v40h-8q-24 -34 -63 -52t-89 -18q-63 0 -117.5 32.5t-87.5 92t-33 138.5t33 138.5t87.5 92t117.5 32.5q50 0 89 -18t63 -52h8v54h126v-475q0 -82 -32 -142t-91 -92.5t-138 -32.5
q-97 0 -161 43.5zM395 157.5q39 38.5 39 105.5q0 69 -38.5 106.5t-94.5 37.5t-95 -38t-39 -106t39 -106t95 -38q55 0 94 38.5zM250 617.5q-22 22.5 -22 53.5t22 53t54 22q31 0 53 -21.5t22 -53.5t-22 -54t-53 -22q-32 0 -54 22.5z" />
    <glyph glyph-name="Gcommaaccent" unicode="&#x122;" horiz-adv-x="826" 
d="M234.5 32.5q-86.5 48.5 -137.5 134t-51 191.5t51 191.5t137.5 134t189.5 48.5q84 0 153.5 -29.5t119.5 -83.5l-93 -91q-36 38 -79.5 57t-101.5 19q-66 0 -121 -30.5t-87.5 -87t-32.5 -128.5t33 -128.5t88.5 -87t121.5 -30.5q100 0 164 59q20 18 35 46t22 61h-225v115h351
q7 -28 7 -63q0 -71 -21.5 -132t-65.5 -107q-48 -52 -116 -79.5t-152 -27.5q-103 0 -189.5 48.5zM340 -253l45 70q-20 8 -31.5 25t-11.5 39q0 29 20.5 50t50.5 21t50.5 -21t20.5 -51q0 -21 -13 -44l-82 -121z" />
    <glyph glyph-name="gcommaaccent" unicode="&#x123;" horiz-adv-x="624" 
d="M138 -188.5q-64 43.5 -86 104.5l123 50q16 -38 49 -60t75 -22q62 0 98.5 38t36.5 108v40h-8q-24 -34 -63 -52t-89 -18q-63 0 -117.5 32.5t-87.5 92t-33 138.5t33 138.5t87.5 92t117.5 32.5q50 0 89 -18t63 -52h8v54h126v-475q0 -82 -32 -142t-91 -92.5t-138 -32.5
q-97 0 -161 43.5zM395 157.5q39 38.5 39 105.5q0 69 -38.5 106.5t-94.5 37.5t-95 -38t-39 -106t39 -106t95 -38q55 0 94 38.5zM361 797l-45 -70q20 -8 31.5 -25t11.5 -39q0 -29 -20.5 -50t-50.5 -21t-50.5 21t-20.5 51q0 21 13 44l82 121z" />
    <glyph glyph-name="Hcircumflex" unicode="&#x124;" horiz-adv-x="735" 
d="M82 716h135v-286h301v286h135v-716h-135v302h-301v-302h-135v716zM196 786l114 126h114l114 -126v-8h-125l-40 59h-12l-40 -59h-125v8z" />
    <glyph glyph-name="hcircumflex" unicode="&#x125;" horiz-adv-x="602" 
d="M64 716h131v-181l-8 -89h8q22 36 64 58t91 22q93 0 142.5 -55.5t49.5 -153.5v-317h-131v301q0 49 -26.5 76t-70.5 27q-52 0 -85.5 -42t-33.5 -103v-259h-131v716zM135 774l114 126h114l114 -126v-8h-125l-40 58h-12l-40 -58h-125v8z" />
    <glyph glyph-name="Hbar" unicode="&#x126;" horiz-adv-x="735" 
d="M716 493h-63v-493h-135v302h-301v-302h-135v493h-63v98h63v125h135v-125h301v125h135v-125h63v-98zM518 493h-301v-63h301v63z" />
    <glyph glyph-name="hbar" unicode="&#x127;" horiz-adv-x="602" 
d="M492.5 470.5q49.5 -55.5 49.5 -153.5v-317h-131v301q0 49 -26.5 76t-70.5 27q-52 0 -85.5 -42t-33.5 -103v-259h-131v571h-58v91h58v54h131v-54h140v-91h-140v-36l-8 -89h8q22 36 64 58t91 22q93 0 142.5 -55.5z" />
    <glyph glyph-name="Itilde" unicode="&#x128;" horiz-adv-x="298" 
d="M82 716h135v-716h-135v716zM169 778.5q-19 7.5 -43 20.5q-2 1 -15 8t-21 7q-25 0 -26 -29h-92q0 62 33.5 95t82.5 33q23 0 41 -7t46 -22q25 -14 33 -14q13 0 19 7t8 22h92q0 -62 -34 -95t-83 -33q-22 0 -41 7.5z" />
    <glyph glyph-name="itilde" unicode="&#x129;" horiz-adv-x="276" 
d="M72 510h131v-510h-131v510zM158 614.5q-19 7.5 -43 20.5q-2 1 -15 8t-21 7q-25 0 -26 -29h-92q0 62 33.5 94.5t82.5 32.5q23 0 41 -7t46 -22q25 -14 33 -14q13 0 19 7t8 22h92q0 -61 -34 -94t-83 -33q-22 0 -41 7.5z" />
    <glyph glyph-name="Imacron" unicode="&#x12a;" horiz-adv-x="298" 
d="M12 893h275v-100h-275v100zM82 716h135v-716h-135v716z" />
    <glyph glyph-name="imacron" unicode="&#x12b;" horiz-adv-x="276" 
d="M72 510h131v-510h-131v510zM-10 729h296v-100h-296v100z" />
    <glyph glyph-name="Ibreve" unicode="&#x12c;" horiz-adv-x="298" 
d="M82 716h135v-716h-135v716zM82.5 780.5q-31.5 17.5 -50.5 49t-19 69.5h93q0 -19 12 -32.5t32 -13.5q19 0 31 13.5t12 32.5h92q0 -38 -18.5 -69.5t-49.5 -49t-67 -17.5t-67.5 17.5z" />
    <glyph glyph-name="ibreve" unicode="&#x12d;" horiz-adv-x="276" 
d="M72 510h131v-510h-131v510zM71.5 616.5q-31.5 17.5 -50.5 48.5t-19 69h93q0 -19 12 -32t32 -13q19 0 31 13t12 32h92q0 -38 -18.5 -69t-49.5 -48.5t-67 -17.5t-67.5 17.5z" />
    <glyph glyph-name="Iogonek" unicode="&#x12e;" horiz-adv-x="298" 
d="M72 -192.5q-35 31.5 -35 83.5q0 34 16.5 60t39.5 44l-2 5h-9v716h135v-716q-33 -23 -51 -43.5t-18 -44.5q0 -18 11 -29.5t29 -11.5t40 11v-95q-24 -11 -62 -11q-59 0 -94 31.5z" />
    <glyph glyph-name="iogonek" unicode="&#x12f;" horiz-adv-x="276" 
d="M78 591q-25 25 -25 60t25 59.5t60 24.5t59.5 -24.5t24.5 -59.5t-24.5 -60t-59.5 -25t-60 25zM58 -192.5q-35 31.5 -35 83.5q0 57 54 102l-5 7v510h131v-510q-33 -23 -51 -43.5t-18 -44.5q0 -18 11 -29.5t29 -11.5t40 11v-95q-23 -11 -61 -11q-60 0 -95 31.5z" />
    <glyph glyph-name="Idotaccent" unicode="&#x130;" horiz-adv-x="298" 
d="M82 716h135v-716h-135v716zM99 806q-21 21 -21 50t21 50t50 21t49.5 -21t20.5 -50t-20.5 -50t-49.5 -21t-50 21z" />
    <glyph glyph-name="dotlessi" unicode="&#x131;" horiz-adv-x="276" 
d="M72 510h131v-510h-131v510z" />
    <glyph glyph-name="Jcircumflex" unicode="&#x134;" horiz-adv-x="568" 
d="M115.5 30.5q-63.5 46.5 -88.5 126.5l124 51q13 -47 42 -71.5t71 -24.5q46 0 72.5 30t26.5 84v490h135v-489q0 -78 -31 -132.5t-84 -82.5t-119 -28q-85 0 -148.5 46.5zM260 786l114 126h114l114 -126v-8h-125l-40 59h-12l-40 -59h-125v8z" />
    <glyph glyph-name="jcircumflex" unicode="&#x135;" horiz-adv-x="276" 
d="M-26 -219v127q26 -14 53 -14q24 0 34.5 14.5t10.5 44.5v557h131v-560q0 -90 -45 -133t-116 -43q-40 0 -68 7zM-33 610l114 126h114l114 -126v-8h-125l-40 58h-12l-40 -58h-125v8z" />
    <glyph glyph-name="Kcommaaccent" unicode="&#x136;" horiz-adv-x="683" 
d="M82 716h135v-307h8l262 307h163v-8l-259 -296l286 -404v-8h-165l-214 305l-81 -95v-210h-135v716zM274 -253l45 70q-20 8 -31.5 25t-11.5 39q0 29 20.5 50t50.5 21t50.5 -21t20.5 -51q0 -21 -13 -44l-82 -121z" />
    <glyph glyph-name="kcommaaccent" unicode="&#x137;" horiz-adv-x="559" 
d="M64 716h131v-390h7l183 184h161v-8l-193 -189l202 -305v-8h-155l-139 223l-66 -65v-158h-131v716zM215 -253l45 70q-20 8 -31.5 25t-11.5 39q0 29 20.5 50t50.5 21t50.5 -21t20.5 -51q0 -21 -13 -44l-82 -121z" />
    <glyph glyph-name="kgreenlandic" unicode="&#x138;" horiz-adv-x="540" 
d="M64 510h131v-220h8l167 220h155v-8l-184 -234l194 -260v-8h-154l-178 244h-8v-244h-131v510z" />
    <glyph glyph-name="Lacute" unicode="&#x139;" horiz-adv-x="551" 
d="M82 716h135v-588h303v-128h-438v716zM138 908h153l-90 -136h-105z" />
    <glyph glyph-name="lacute" unicode="&#x13a;" horiz-adv-x="260" 
d="M64 716h131v-716h-131v716zM119 908h153l-90 -136h-105z" />
    <glyph glyph-name="Lcommaaccent" unicode="&#x13b;" horiz-adv-x="551" 
d="M82 716h135v-588h303v-128h-438v716zM228 -253l45 70q-20 8 -31.5 25t-11.5 39q0 29 20.5 50t50.5 21t50.5 -21t20.5 -51q0 -21 -13 -44l-82 -121z" />
    <glyph glyph-name="lcommaaccent" unicode="&#x13c;" horiz-adv-x="260" 
d="M64 716h131v-716h-131v716zM57 -253l45 70q-20 8 -31.5 25t-11.5 39q0 29 20.5 50t50.5 21t50.5 -21t20.5 -51q0 -21 -13 -44l-82 -121z" />
    <glyph glyph-name="Lcaron" unicode="&#x13d;" horiz-adv-x="551" 
d="M82 716h135v-588h303v-128h-438v716zM358 716h138l-41 -201h-97v201z" />
    <glyph glyph-name="lcaron" unicode="&#x13e;" horiz-adv-x="400" 
d="M64 716h131v-716h-131v716zM278 716h138l-41 -201h-97v201z" />
    <glyph glyph-name="Ldot" unicode="&#x13f;" horiz-adv-x="551" 
d="M82 716h135v-588h303v-128h-438v716zM333.5 282.5q-25.5 25.5 -25.5 61.5t25.5 61.5t61.5 25.5t61.5 -25.5t25.5 -61.5t-25.5 -61.5t-61.5 -25.5t-61.5 25.5z" />
    <glyph glyph-name="Lslash" unicode="&#x141;" horiz-adv-x="632" 
d="M163 247l-54 -33l-59 93l113 71v338h135v-251l111 69l57 -92l-168 -105v-209h303v-128h-438v247z" />
    <glyph glyph-name="lslash" unicode="&#x142;" horiz-adv-x="433" 
d="M148 274l-46 -33l-65 86l111 81v308h131v-216l61 45l65 -87l-126 -92v-366h-131v274z" />
    <glyph glyph-name="Nacute" unicode="&#x143;" horiz-adv-x="742" 
d="M82 716h157l288 -480h8l-8 138v342h134v-716h-142l-304 507h-8l8 -138v-369h-133v716zM372 908h153l-90 -136h-105z" />
    <glyph glyph-name="nacute" unicode="&#x144;" horiz-adv-x="599" 
d="M64 510h123v-64h8q23 37 65 58.5t91 21.5q92 0 140 -56t48 -153v-317h-131v301q0 49 -25 76t-70 27q-53 0 -85.5 -41t-32.5 -103v-260h-131v510zM302 744h153l-90 -136h-105z" />
    <glyph glyph-name="Ncommaaccent" unicode="&#x145;" horiz-adv-x="742" 
d="M82 716h157l288 -480h8l-8 138v342h134v-716h-142l-304 507h-8l8 -138v-369h-133v716zM298 -253l45 70q-20 8 -31.5 25t-11.5 39q0 29 20.5 50t50.5 21t50.5 -21t20.5 -51q0 -21 -13 -44l-82 -121z" />
    <glyph glyph-name="ncommaaccent" unicode="&#x146;" horiz-adv-x="599" 
d="M64 510h123v-64h8q23 37 65 58.5t91 21.5q92 0 140 -56t48 -153v-317h-131v301q0 49 -25 76t-70 27q-53 0 -85.5 -41t-32.5 -103v-260h-131v510zM231 -253l45 70q-20 8 -31.5 25t-11.5 39q0 29 20.5 50t50.5 21t50.5 -21t20.5 -51q0 -21 -13 -44l-82 -121z" />
    <glyph glyph-name="Ncaron" unicode="&#x147;" horiz-adv-x="742" 
d="M82 716h157l288 -480h8l-8 138v342h134v-716h-142l-304 507h-8l8 -138v-369h-133v716zM212 904v8h125l40 -59h12l40 59h125v-8l-114 -126h-114z" />
    <glyph glyph-name="ncaron" unicode="&#x148;" horiz-adv-x="599" 
d="M64 510h123v-64h8q23 37 65 58.5t91 21.5q92 0 140 -56t48 -153v-317h-131v301q0 49 -25 76t-70 27q-53 0 -85.5 -41t-32.5 -103v-260h-131v510zM142 727v9h125l40 -59h12l40 59h125v-9l-114 -125h-114z" />
    <glyph glyph-name="Eng" unicode="&#x14a;" horiz-adv-x="742" 
d="M430 -219v126q26 -13 52 -13q45 0 45 59v48l-312 506h-8l8 -138v-369h-133v716h157l288 -470h8l-8 138v332h134v-766q0 -90 -46 -133t-118 -43q-38 0 -67 7z" />
    <glyph glyph-name="eng" unicode="&#x14b;" horiz-adv-x="599" 
d="M309 -219v127q28 -14 54 -14q45 0 45 59v348q0 49 -25 76t-70 27q-53 0 -85.5 -41t-32.5 -103v-260h-131v510h123v-64h8q23 37 65 58.5t91 21.5q92 0 140 -56t48 -153v-367q0 -90 -45 -133t-116 -43q-40 0 -69 7z" />
    <glyph glyph-name="Omacron" unicode="&#x14c;" horiz-adv-x="840" 
d="M229.5 33.5q-85.5 49.5 -134.5 135.5t-49 189t49 189t134.5 135.5t190.5 49.5t190.5 -49.5t134.5 -135.5t49 -189t-49 -189t-134.5 -135.5t-190.5 -49.5t-190.5 49.5zM541 143q55 31 86.5 87t31.5 128t-31.5 128t-86.5 87t-121 31t-120.5 -31t-86 -87t-31.5 -128
t31.5 -128t86 -87t120.5 -31t121 31zM272 893h296v-100h-296v100z" />
    <glyph glyph-name="omacron" unicode="&#x14d;" horiz-adv-x="615" 
d="M167 19.5q-62 35.5 -96.5 97t-34.5 138.5q0 76 34.5 138t96.5 97.5t141 35.5q78 0 140 -35.5t96.5 -97.5t34.5 -138q0 -77 -34.5 -138.5t-96.5 -97t-140 -35.5q-79 0 -141 35.5zM378 123q32 18 51 52t19 80q0 45 -19 79t-51 52t-70 18t-70 -18t-51.5 -52t-19.5 -79
t19.5 -79.5t51.5 -52.5t70 -18t70 18zM160 729h296v-100h-296v100z" />
    <glyph glyph-name="Obreve" unicode="&#x14e;" horiz-adv-x="840" 
d="M229.5 33.5q-85.5 49.5 -134.5 135.5t-49 189t49 189t134.5 135.5t190.5 49.5t190.5 -49.5t134.5 -135.5t49 -189t-49 -189t-134.5 -135.5t-190.5 -49.5t-190.5 49.5zM541 143q55 31 86.5 87t31.5 128t-31.5 128t-86.5 87t-121 31t-120.5 -31t-86 -87t-31.5 -128
t31.5 -128t86 -87t120.5 -31t121 31zM353.5 780.5q-31.5 17.5 -50.5 49t-19 69.5h93q0 -19 12 -32.5t32 -13.5q19 0 31 13.5t12 32.5h92q0 -38 -18.5 -69.5t-49.5 -49t-67 -17.5t-67.5 17.5z" />
    <glyph glyph-name="obreve" unicode="&#x14f;" horiz-adv-x="615" 
d="M167 19.5q-62 35.5 -96.5 97t-34.5 138.5q0 76 34.5 138t96.5 97.5t141 35.5q78 0 140 -35.5t96.5 -97.5t34.5 -138q0 -77 -34.5 -138.5t-96.5 -97t-140 -35.5q-79 0 -141 35.5zM378 123q32 18 51 52t19 80q0 45 -19 79t-51 52t-70 18t-70 -18t-51.5 -52t-19.5 -79
t19.5 -79.5t51.5 -52.5t70 -18t70 18zM241.5 616.5q-31.5 17.5 -50.5 48.5t-19 69h93q0 -19 12 -32t32 -13q19 0 31 13t12 32h92q0 -38 -18.5 -69t-49.5 -48.5t-67 -17.5t-67.5 17.5z" />
    <glyph glyph-name="Ohungarumlaut" unicode="&#x150;" horiz-adv-x="840" 
d="M229.5 33.5q-85.5 49.5 -134.5 135.5t-49 189t49 189t134.5 135.5t190.5 49.5t190.5 -49.5t134.5 -135.5t49 -189t-49 -189t-134.5 -135.5t-190.5 -49.5t-190.5 49.5zM541 143q55 31 86.5 87t31.5 128t-31.5 128t-86.5 87t-121 31t-120.5 -31t-86 -87t-31.5 -128
t31.5 -128t86 -87t120.5 -31t121 31zM311 908h153l-90 -136h-105zM509 908h153l-90 -136h-105z" />
    <glyph glyph-name="ohungarumlaut" unicode="&#x151;" horiz-adv-x="615" 
d="M167 19.5q-62 35.5 -96.5 97t-34.5 138.5q0 76 34.5 138t96.5 97.5t141 35.5q78 0 140 -35.5t96.5 -97.5t34.5 -138q0 -77 -34.5 -138.5t-96.5 -97t-140 -35.5q-79 0 -141 35.5zM378 123q32 18 51 52t19 80q0 45 -19 79t-51 52t-70 18t-70 -18t-51.5 -52t-19.5 -79
t19.5 -79.5t51.5 -52.5t70 -18t70 18zM199 744h153l-90 -136h-105zM397 744h153l-90 -136h-105z" />
    <glyph glyph-name="OE" unicode="&#x152;" horiz-adv-x="1160" 
d="M226 34q-83 50 -131.5 135.5t-48.5 188.5t48.5 188.5t131.5 135.5t182 50q78 0 138 -24.5t96 -67.5h7v76h454v-128h-320v-166h288v-128h-288v-166h320v-128h-454v75h-7q-36 -43 -96 -67t-138 -24q-99 0 -182 50zM541 143q55 31 86.5 87t31.5 128t-31.5 128t-86.5 87
t-121 31t-120.5 -31t-86 -87t-31.5 -128t31.5 -128t86 -87t120.5 -31t121 31z" />
    <glyph glyph-name="oe" unicode="&#x153;" horiz-adv-x="998" 
d="M167 19.5q-62 35.5 -96.5 97t-34.5 138.5q0 76 34.5 138t96.5 97.5t141 35.5q125 0 205 -102q34 47 85.5 74.5t111.5 27.5q79 0 136 -34t86.5 -93t29.5 -131q0 -30 -4 -44h-381q9 -61 47.5 -92.5t92.5 -31.5q45 0 77.5 19.5t50.5 52.5l107 -52q-78 -136 -237 -136
q-63 0 -116 28t-86 75q-78 -103 -205 -103q-79 0 -141 35.5zM835 317q-2 24 -17 47.5t-43 39t-65 15.5q-46 0 -79.5 -27.5t-48.5 -74.5h253zM378 123q32 18 51 52t19 80q0 45 -19 79t-51 52t-70 18t-70 -18t-51.5 -52t-19.5 -79t19.5 -79.5t51.5 -52.5t70 -18t70 18z" />
    <glyph glyph-name="Racute" unicode="&#x154;" horiz-adv-x="634" 
d="M82 716h261q70 0 124.5 -29t84.5 -80.5t30 -116.5q0 -69 -43.5 -122.5t-109.5 -77.5l-1 -7l192 -275v-8h-155l-185 269h-63v-269h-135v716zM342 393q46 0 75 28t29 71q0 41 -27.5 70t-74.5 29h-127v-198h125zM296 908h153l-90 -136h-105z" />
    <glyph glyph-name="racute" unicode="&#x155;" horiz-adv-x="427" 
d="M64 510h123v-68h8q19 36 59 59.5t88 23.5q35 0 64 -11v-131q-27 10 -45.5 14.5t-39.5 4.5q-58 0 -92 -42t-34 -106v-254h-131v510zM221 744h153l-90 -136h-105z" />
    <glyph glyph-name="Rcommaaccent" unicode="&#x156;" horiz-adv-x="634" 
d="M82 716h261q70 0 124.5 -29t84.5 -80.5t30 -116.5q0 -69 -43.5 -122.5t-109.5 -77.5l-1 -7l192 -275v-8h-155l-185 269h-63v-269h-135v716zM342 393q46 0 75 28t29 71q0 41 -27.5 70t-74.5 29h-127v-198h125zM244 -253l45 70q-20 8 -31.5 25t-11.5 39q0 29 20.5 50
t50.5 21t50.5 -21t20.5 -51q0 -21 -13 -44l-82 -121z" />
    <glyph glyph-name="rcommaaccent" unicode="&#x157;" horiz-adv-x="427" 
d="M64 510h123v-68h8q19 36 59 59.5t88 23.5q35 0 64 -11v-131q-27 10 -45.5 14.5t-39.5 4.5q-58 0 -92 -42t-34 -106v-254h-131v510zM57 -253l45 70q-20 8 -31.5 25t-11.5 39q0 29 20.5 50t50.5 21t50.5 -21t20.5 -51q0 -21 -13 -44l-82 -121z" />
    <glyph glyph-name="Rcaron" unicode="&#x158;" horiz-adv-x="634" 
d="M82 716h261q70 0 124.5 -29t84.5 -80.5t30 -116.5q0 -69 -43.5 -122.5t-109.5 -77.5l-1 -7l192 -275v-8h-155l-185 269h-63v-269h-135v716zM342 393q46 0 75 28t29 71q0 41 -27.5 70t-74.5 29h-127v-198h125zM136 904v8h125l40 -59h12l40 59h125v-8l-114 -126h-114z" />
    <glyph glyph-name="rcaron" unicode="&#x159;" horiz-adv-x="427" 
d="M64 510h123v-68h8q19 36 59 59.5t88 23.5q35 0 64 -11v-131q-27 10 -45.5 14.5t-39.5 4.5q-58 0 -92 -42t-34 -106v-254h-131v510zM61 727v9h125l40 -59h12l40 59h125v-9l-114 -125h-114z" />
    <glyph glyph-name="Sacute" unicode="&#x15a;" horiz-adv-x="589" 
d="M132 37q-72 53 -101 150l127 50q15 -57 51 -91t90 -34q45 0 77 22.5t32 62.5t-30.5 65.5t-108.5 54.5l-44 16q-69 24 -118 73.5t-49 124.5q0 56 29 102t82 72.5t120 26.5q97 0 153 -45.5t77 -106.5l-119 -50q-11 33 -38.5 55.5t-70.5 22.5q-44 0 -72.5 -20.5t-28.5 -53.5
q0 -32 27 -54.5t89 -43.5l45 -15q93 -32 142.5 -84.5t49.5 -137.5q0 -70 -36 -118.5t-92.5 -72.5t-116.5 -24q-94 0 -166 53zM280 908h153l-90 -136h-105z" />
    <glyph glyph-name="sacute" unicode="&#x15b;" horiz-adv-x="505" 
d="M107.5 22q-57.5 38 -80.5 99l117 51q16 -36 45.5 -54.5t68.5 -18.5q36 0 60 11.5t24 37.5q0 25 -22 37.5t-66 22.5l-60 13q-62 15 -103 54.5t-41 98.5q0 44 26.5 79t72 54t100.5 19q158 0 211 -111l-112 -49q-30 54 -96 54q-34 0 -54 -12.5t-20 -31.5q0 -36 68 -54
l75 -18q76 -19 114.5 -58t38.5 -96q0 -49 -28.5 -86.5t-78 -58.5t-109.5 -21q-93 0 -150.5 38zM239 744h153l-90 -136h-105z" />
    <glyph glyph-name="Scircumflex" unicode="&#x15c;" horiz-adv-x="589" 
d="M132 37q-72 53 -101 150l127 50q15 -57 51 -91t90 -34q45 0 77 22.5t32 62.5t-30.5 65.5t-108.5 54.5l-44 16q-69 24 -118 73.5t-49 124.5q0 56 29 102t82 72.5t120 26.5q97 0 153 -45.5t77 -106.5l-119 -50q-11 33 -38.5 55.5t-70.5 22.5q-44 0 -72.5 -20.5t-28.5 -53.5
q0 -32 27 -54.5t89 -43.5l45 -15q93 -32 142.5 -84.5t49.5 -137.5q0 -70 -36 -118.5t-92.5 -72.5t-116.5 -24q-94 0 -166 53zM120 786l114 126h114l114 -126v-8h-125l-40 59h-12l-40 -59h-125v8z" />
    <glyph glyph-name="scircumflex" unicode="&#x15d;" horiz-adv-x="505" 
d="M107.5 22q-57.5 38 -80.5 99l117 51q16 -36 45.5 -54.5t68.5 -18.5q36 0 60 11.5t24 37.5q0 25 -22 37.5t-66 22.5l-60 13q-62 15 -103 54.5t-41 98.5q0 44 26.5 79t72 54t100.5 19q158 0 211 -111l-112 -49q-30 54 -96 54q-34 0 -54 -12.5t-20 -31.5q0 -36 68 -54
l75 -18q76 -19 114.5 -58t38.5 -96q0 -49 -28.5 -86.5t-78 -58.5t-109.5 -21q-93 0 -150.5 38zM79 610l114 126h114l114 -126v-8h-125l-40 58h-12l-40 -58h-125v8z" />
    <glyph glyph-name="Scedilla" unicode="&#x15e;" horiz-adv-x="589" 
d="M510 84.5q-33 -47.5 -85.5 -72.5t-110.5 -28l-14 -31q7 1 18 1q40 0 67 -26t27 -69q0 -42 -29.5 -69t-77.5 -27q-35 0 -61.5 18.5t-37.5 47.5l64 27q4 -12 13.5 -20t21.5 -8q15 0 24 9.5t9 22.5q0 14 -9 24t-24 10t-27 -14l-61 28l31 80q-78 13 -135 64t-82 135l127 50
q15 -57 51 -91t90 -34q45 0 77 22.5t32 62.5t-30.5 65.5t-108.5 54.5l-44 16q-69 24 -118 73.5t-49 124.5q0 56 29 102t82 72.5t120 26.5q97 0 153 -45.5t77 -106.5l-119 -50q-11 33 -38.5 55.5t-70.5 22.5q-44 0 -72.5 -20.5t-28.5 -53.5q0 -32 27 -54.5t89 -43.5l45 -15
q93 -32 142.5 -84.5t49.5 -137.5q0 -67 -33 -114.5z" />
    <glyph glyph-name="scedilla" unicode="&#x15f;" horiz-adv-x="505" 
d="M420.5 37q-53.5 -45 -136.5 -52l-14 -32q7 1 18 1q40 0 67 -26t27 -69q0 -42 -29.5 -69t-77.5 -27q-35 0 -61.5 18.5t-37.5 47.5l64 27q4 -12 13.5 -20t21.5 -8q15 0 24 9.5t9 22.5q0 14 -9 24t-24 10t-27 -14l-61 28l31 78q-76 9 -123.5 45t-67.5 90l117 51
q16 -36 45.5 -54.5t68.5 -18.5q36 0 60 11.5t24 37.5q0 25 -22 37.5t-66 22.5l-60 13q-62 15 -103 54.5t-41 98.5q0 44 26.5 79t72 54t100.5 19q158 0 211 -111l-112 -49q-30 54 -96 54q-34 0 -54 -12.5t-20 -31.5q0 -36 68 -54l75 -18q76 -19 114.5 -58t38.5 -96
q0 -68 -53.5 -113z" />
    <glyph glyph-name="Scaron" unicode="&#x160;" horiz-adv-x="589" 
d="M132 37q-72 53 -101 150l127 50q15 -57 51 -91t90 -34q45 0 77 22.5t32 62.5t-30.5 65.5t-108.5 54.5l-44 16q-69 24 -118 73.5t-49 124.5q0 56 29 102t82 72.5t120 26.5q97 0 153 -45.5t77 -106.5l-119 -50q-11 33 -38.5 55.5t-70.5 22.5q-44 0 -72.5 -20.5t-28.5 -53.5
q0 -32 27 -54.5t89 -43.5l45 -15q93 -32 142.5 -84.5t49.5 -137.5q0 -70 -36 -118.5t-92.5 -72.5t-116.5 -24q-94 0 -166 53zM120 904v8h125l40 -59h12l40 59h125v-8l-114 -126h-114z" />
    <glyph glyph-name="scaron" unicode="&#x161;" horiz-adv-x="505" 
d="M107.5 22q-57.5 38 -80.5 99l117 51q16 -36 45.5 -54.5t68.5 -18.5q36 0 60 11.5t24 37.5q0 25 -22 37.5t-66 22.5l-60 13q-62 15 -103 54.5t-41 98.5q0 44 26.5 79t72 54t100.5 19q158 0 211 -111l-112 -49q-30 54 -96 54q-34 0 -54 -12.5t-20 -31.5q0 -36 68 -54
l75 -18q76 -19 114.5 -58t38.5 -96q0 -49 -28.5 -86.5t-78 -58.5t-109.5 -21q-93 0 -150.5 38zM79 727v9h125l40 -59h12l40 59h125v-9l-114 -125h-114z" />
    <glyph glyph-name="uni0162" unicode="&#x162;" horiz-adv-x="588" 
d="M244.5 -218.5q-26.5 18.5 -37.5 47.5l64 27q11 -28 36 -28q15 0 24 9.5t9 22.5t-9.5 23.5t-23.5 10.5q-16 0 -28 -14l-60 28l35 92h-27v588h-200v128h535v-128h-200v-588h-40l-21 -47q7 1 18 1q40 0 67 -26t27 -69q0 -42 -29.5 -69t-76.5 -27q-36 0 -62.5 18.5z" />
    <glyph glyph-name="uni0163" unicode="&#x163;" horiz-adv-x="418" 
d="M267 -7l-19 -40q7 1 18 1q40 0 66.5 -26t26.5 -69q0 -42 -29.5 -69t-76.5 -27q-35 0 -61.5 18.5t-37.5 47.5l64 27q4 -13 13.5 -21t21.5 -8q15 0 24 10t9 23q0 14 -9 24t-24 10t-27 -14l-61 28l41 99q-24 10 -42 28q-47 45 -47 128v235h-89v112h89v144h131v-144h125v-112
h-125v-211q0 -39 17 -56q14 -16 48 -16q19 0 31.5 5t32.5 17v-128q-43 -17 -91 -17q-13 0 -19 1z" />
    <glyph glyph-name="Tcaron" unicode="&#x164;" horiz-adv-x="588" 
d="M227 588h-200v128h535v-128h-200v-588h-135v588zM123 904v8h125l40 -59h12l40 59h125v-8l-114 -126h-114z" />
    <glyph glyph-name="tcaron" unicode="&#x165;" horiz-adv-x="410" 
d="M295 716h118l-27 -152h-91v152zM216 3.5q-32 11.5 -52 31.5q-47 45 -47 128v235h-89v112h89v144h131v-144h125v-112h-125v-211q0 -39 17 -56q14 -16 48 -16q19 0 31.5 5t32.5 17v-128q-43 -17 -91 -17q-38 0 -70 11.5z" />
    <glyph glyph-name="Tbar" unicode="&#x166;" horiz-adv-x="588" 
d="M362 588v-161h126v-106h-126v-321h-135v321h-127v106h127v161h-200v128h535v-128h-200z" />
    <glyph glyph-name="tbar" unicode="&#x167;" horiz-adv-x="418" 
d="M344.5 120q12.5 5 32.5 17v-128q-43 -17 -91 -17q-38 0 -70 11.5t-52 31.5q-47 45 -47 128v59h-89v100h89v76h-89v112h89v144h131v-144h125v-112h-125v-76h111v-100h-111v-35q0 -39 17 -56q14 -16 48 -16q19 0 31.5 5z" />
    <glyph glyph-name="Utilde" unicode="&#x168;" horiz-adv-x="694" 
d="M200.5 20q-62.5 36 -97 104t-34.5 161v431h134v-439q0 -74 37.5 -119.5t106.5 -45.5t106.5 45.5t37.5 119.5v439h134v-431q0 -89 -34 -157t-97 -106t-147 -38t-146.5 36zM367 778.5q-19 7.5 -43 20.5q-2 1 -15 8t-21 7q-25 0 -26 -29h-92q0 62 33.5 95t82.5 33
q23 0 41 -7t46 -22q25 -14 33 -14q13 0 19 7t8 22h92q0 -62 -34 -95t-83 -33q-22 0 -41 7.5z" />
    <glyph glyph-name="utilde" unicode="&#x169;" horiz-adv-x="599" 
d="M108 41q-48 57 -48 159v310h131v-294q0 -52 25 -81.5t66 -29.5q56 0 89 41t33 104v260h131v-510h-123v64h-8q-23 -37 -64.5 -58.5t-91.5 -21.5q-92 0 -140 57zM318 614.5q-19 7.5 -43 20.5q-2 1 -15 8t-21 7q-25 0 -26 -29h-92q0 62 33.5 94.5t82.5 32.5q23 0 41 -7
t46 -22q25 -14 33 -14q13 0 19 7t8 22h92q0 -61 -34 -94t-83 -33q-22 0 -41 7.5z" />
    <glyph glyph-name="Umacron" unicode="&#x16a;" horiz-adv-x="694" 
d="M200.5 20q-62.5 36 -97 104t-34.5 161v431h134v-439q0 -74 37.5 -119.5t106.5 -45.5t106.5 45.5t37.5 119.5v439h134v-431q0 -89 -34 -157t-97 -106t-147 -38t-146.5 36zM199 893h296v-100h-296v100z" />
    <glyph glyph-name="umacron" unicode="&#x16b;" horiz-adv-x="599" 
d="M108 41q-48 57 -48 159v310h131v-294q0 -52 25 -81.5t66 -29.5q56 0 89 41t33 104v260h131v-510h-123v64h-8q-23 -37 -64.5 -58.5t-91.5 -21.5q-92 0 -140 57zM150 729h296v-100h-296v100z" />
    <glyph glyph-name="Ubreve" unicode="&#x16c;" horiz-adv-x="694" 
d="M200.5 20q-62.5 36 -97 104t-34.5 161v431h134v-439q0 -74 37.5 -119.5t106.5 -45.5t106.5 45.5t37.5 119.5v439h134v-431q0 -89 -34 -157t-97 -106t-147 -38t-146.5 36zM280.5 780.5q-31.5 17.5 -50.5 49t-19 69.5h93q0 -19 12 -32.5t32 -13.5q19 0 31 13.5t12 32.5h92
q0 -38 -18.5 -69.5t-49.5 -49t-67 -17.5t-67.5 17.5z" />
    <glyph glyph-name="ubreve" unicode="&#x16d;" horiz-adv-x="599" 
d="M108 41q-48 57 -48 159v310h131v-294q0 -52 25 -81.5t66 -29.5q56 0 89 41t33 104v260h131v-510h-123v64h-8q-23 -37 -64.5 -58.5t-91.5 -21.5q-92 0 -140 57zM231.5 616.5q-31.5 17.5 -50.5 48.5t-19 69h93q0 -19 12 -32t32 -13q19 0 31 13t12 32h92q0 -38 -18.5 -69
t-49.5 -48.5t-67 -17.5t-67.5 17.5z" />
    <glyph glyph-name="Uring" unicode="&#x16e;" horiz-adv-x="694" 
d="M200.5 20q-62.5 36 -97 104t-34.5 161v431h134v-439q0 -74 37.5 -119.5t106.5 -45.5t106.5 45.5t37.5 119.5v439h134v-431q0 -89 -34 -157t-97 -106t-147 -38t-146.5 36zM270.5 779.5q-31.5 31.5 -31.5 76.5t31.5 76.5t76.5 31.5t76.5 -31.5t31.5 -76.5t-31.5 -76.5
t-76.5 -31.5t-76.5 31.5zM371.5 831.5q10.5 10.5 10.5 24.5t-10.5 24.5t-24.5 10.5t-24.5 -10.5t-10.5 -24.5t10.5 -24.5t24.5 -10.5t24.5 10.5z" />
    <glyph glyph-name="uring" unicode="&#x16f;" horiz-adv-x="599" 
d="M108 41q-48 57 -48 159v310h131v-294q0 -52 25 -81.5t66 -29.5q56 0 89 41t33 104v260h131v-510h-123v64h-8q-23 -37 -64.5 -58.5t-91.5 -21.5q-92 0 -140 57zM221.5 615.5q-31.5 31.5 -31.5 76.5t31.5 76.5t76.5 31.5t76.5 -31.5t31.5 -76.5t-31.5 -76.5t-76.5 -31.5
t-76.5 31.5zM322.5 667.5q10.5 10.5 10.5 24.5t-10.5 24t-24.5 10t-24.5 -10t-10.5 -24t10.5 -24.5t24.5 -10.5t24.5 10.5z" />
    <glyph glyph-name="Uhungarumlaut" unicode="&#x170;" horiz-adv-x="694" 
d="M200.5 20q-62.5 36 -97 104t-34.5 161v431h134v-439q0 -74 37.5 -119.5t106.5 -45.5t106.5 45.5t37.5 119.5v439h134v-431q0 -89 -34 -157t-97 -106t-147 -38t-146.5 36zM238 908h153l-90 -136h-105zM436 908h153l-90 -136h-105z" />
    <glyph glyph-name="uhungarumlaut" unicode="&#x171;" horiz-adv-x="599" 
d="M108 41q-48 57 -48 159v310h131v-294q0 -52 25 -81.5t66 -29.5q56 0 89 41t33 104v260h131v-510h-123v64h-8q-23 -37 -64.5 -58.5t-91.5 -21.5q-92 0 -140 57zM189 744h153l-90 -136h-105zM387 744h153l-90 -136h-105z" />
    <glyph glyph-name="Uogonek" unicode="&#x172;" horiz-adv-x="694" 
d="M318 -192.5q-35 31.5 -35 83.5q0 51 48 95q-2 -1 -7 -1q-78 5 -135.5 42.5t-88.5 103.5t-31 154v431h134v-439q0 -74 37.5 -119.5t106.5 -45.5t106.5 45.5t37.5 119.5v439h134v-431q0 -86 -32 -152.5t-91 -105.5q-50 -32 -78.5 -58t-28.5 -57q0 -18 11 -29.5t28 -11.5
q19 0 41 11v-95q-24 -11 -62 -11q-60 0 -95 31.5z" />
    <glyph glyph-name="uogonek" unicode="&#x173;" horiz-adv-x="599" 
d="M390 -192.5q-35 31.5 -35 83.5q0 36 18.5 61.5t41.5 41.5l-3 6v64h-8q-23 -37 -64.5 -58.5t-91.5 -21.5q-92 0 -140 57t-48 159v310h131v-294q0 -52 25 -81.5t66 -29.5q56 0 89 41t33 104v260h131v-510q-33 -23 -51 -43.5t-18 -44.5q0 -18 11 -29.5t29 -11.5t40 11v-95
q-23 -11 -62 -11q-59 0 -94 31.5z" />
    <glyph glyph-name="Wcircumflex" unicode="&#x174;" horiz-adv-x="984" 
d="M17 716h150l98 -402l12 -75h8l16 75l126 402h133l123 -402l16 -73h8l12 73l97 402h150l-185 -716h-145l-122 432l-16 77h-8l-16 -77l-128 -432h-139zM323 786l114 126h114l114 -126v-8h-125l-40 59h-12l-40 -59h-125v8z" />
    <glyph glyph-name="wcircumflex" unicode="&#x175;" horiz-adv-x="833" 
d="M7 510h147l88 -331h7l102 331h134l102 -331h7l88 331h145l-163 -510h-141l-104 330h-7l-103 -330h-140zM246 610l114 126h114l114 -126v-8h-125l-40 58h-12l-40 -58h-125v8z" />
    <glyph glyph-name="Ycircumflex" unicode="&#x176;" horiz-adv-x="642" 
d="M256 333l-241 383h161l143 -237h8l138 237h163l-237 -383v-333h-135v333zM150 786l114 126h114l114 -126v-8h-125l-40 59h-12l-40 -59h-125v8z" />
    <glyph glyph-name="ycircumflex" unicode="&#x177;" horiz-adv-x="578" 
d="M223 24l-215 486h149l132 -317h8l127 317h146l-315 -726h-141zM119 610l114 126h114l114 -126v-8h-125l-40 58h-12l-40 -58h-125v8z" />
    <glyph glyph-name="Ydieresis" unicode="&#x178;" horiz-adv-x="642" 
d="M256 333l-241 383h161l143 -237h8l138 237h163l-237 -383v-333h-135v333zM175 792.5q-21 21.5 -21 50.5q0 30 21 51t51 21t50.5 -21t20.5 -51t-20.5 -51t-50.5 -21t-51 21.5zM366 792.5q-21 21.5 -21 50.5q0 30 21 51t50 21q31 0 51.5 -21t20.5 -51t-21 -51t-51 -21
q-29 0 -50 21.5z" />
    <glyph glyph-name="Zacute" unicode="&#x179;" horiz-adv-x="610" 
d="M39 136l363 452h-347v128h504v-136l-359 -452h363v-128h-524v136zM296 908h153l-90 -136h-105z" />
    <glyph glyph-name="zacute" unicode="&#x17a;" horiz-adv-x="511" 
d="M38 107l266 292h-258v111h419v-107l-266 -292h274v-111h-435v107zM245 744h153l-90 -136h-105z" />
    <glyph glyph-name="Zdotaccent" unicode="&#x17b;" horiz-adv-x="610" 
d="M39 136l363 452h-347v128h504v-136l-359 -452h363v-128h-524v136zM257 806q-21 21 -21 50t21 50t50 21t49.5 -21t20.5 -50t-20.5 -50t-49.5 -21t-50 21z" />
    <glyph glyph-name="zdotaccent" unicode="&#x17c;" horiz-adv-x="511" 
d="M38 107l266 292h-258v111h419v-107l-266 -292h274v-111h-435v107zM202 617.5q-22 22.5 -22 53.5t22 53t54 22q31 0 53 -21.5t22 -53.5t-22 -54t-53 -22q-32 0 -54 22.5z" />
    <glyph glyph-name="Zcaron" unicode="&#x17d;" horiz-adv-x="610" 
d="M39 136l363 452h-347v128h504v-136l-359 -452h363v-128h-524v136zM136 904v8h125l40 -59h12l40 59h125v-8l-114 -126h-114z" />
    <glyph glyph-name="zcaron" unicode="&#x17e;" horiz-adv-x="511" 
d="M38 107l266 292h-258v111h419v-107l-266 -292h274v-111h-435v107zM85 727v9h125l40 -59h12l40 59h125v-9l-114 -125h-114z" />
    <glyph glyph-name="florin" unicode="&#x192;" horiz-adv-x="626" 
d="M467.5 578q-22.5 -19 -29.5 -54l-21 -104h113v-112h-135l-72 -365q-14 -74 -60.5 -118.5t-123.5 -44.5q-45 0 -79 11v128q32 -16 66 -16q60 0 75 74l65 331h-93v112h115l22 109q17 92 71 141.5t139 49.5q36 0 65 -10v-127q-31 14 -64 14q-31 0 -53.5 -19z" />
    <glyph glyph-name="Aringacute" unicode="&#x1fa;" horiz-adv-x="722" 
d="M707 0h-149l-60 171h-274l-60 -171h-149l250 668q-34 37 -34 88q0 45 27.5 80t70.5 46l29 71h116l-50 -84q31 -17 49 -47t18 -66q0 -51 -35 -88zM333 728q12 -12 28 -12q17 0 28.5 12t11.5 28q0 17 -11.5 28.5t-28.5 11.5q-16 0 -28 -11.5t-12 -28.5q0 -16 12 -28z
M454 295l-63 180l-26 86h-8l-26 -86l-64 -180h187z" />
    <glyph glyph-name="aringacute" unicode="&#x1fb;" horiz-adv-x="561" 
d="M313 861h-39l-1 45h76zM200.5 615.5q-31.5 31.5 -31.5 76.5t31.5 76.5t76.5 31.5t76.5 -31.5t31.5 -76.5t-31.5 -76.5t-76.5 -31.5t-76.5 31.5zM301.5 667.5q10.5 10.5 10.5 24.5t-10.5 24t-24.5 10t-24.5 -10t-10.5 -24t10.5 -24.5t24.5 -10.5t24.5 10.5zM87 31.5
q-52 47.5 -52 124.5q0 51 27 90t74 60t104 21q79 0 135 -23v22q0 42 -31.5 68t-84.5 26q-36 0 -69.5 -16.5t-55.5 -43.5l-84 66q37 48 93 74t122 26q117 0 178 -54t61 -158v-314h-129v52h-8q-23 -30 -60.5 -49t-86.5 -19q-81 0 -133 47.5zM341.5 122.5q33.5 36.5 33.5 85.5
q-51 24 -107 24q-102 0 -102 -76q0 -31 22 -50.5t63 -19.5q57 0 90.5 36.5z" />
    <glyph glyph-name="AEacute" unicode="&#x1fc;" horiz-adv-x="1013" 
d="M425 716h531v-128h-320v-166h288v-128h-288v-166h320v-128h-455v173h-238l-98 -173h-158zM501 301v287h-10l-33 -70l-124 -217h167zM683 908h153l-90 -136h-105z" />
    <glyph glyph-name="aeacute" unicode="&#x1fd;" horiz-adv-x="920" 
d="M88.5 31.5q-53.5 47.5 -53.5 124.5q0 51 27 90t74 60t104 21q75 0 133 -25v18q0 46 -29.5 73t-82.5 27q-35 0 -60 -15.5t-36 -41.5l-98 43q27 59 81 89.5t117 30.5q127 0 191 -79q31 38 76 58t99 20q80 0 137 -34t86.5 -92.5t29.5 -130.5q0 -30 -4 -44h-381
q9 -61 47.5 -92.5t92.5 -31.5q45 0 77.5 19.5t50.5 52.5l107 -52q-78 -136 -237 -136q-65 0 -118 29t-89 79q-44 -58 -91.5 -83t-108.5 -25q-88 0 -141.5 47.5zM757 317q-3 39 -36.5 70t-88.5 31q-46 0 -79.5 -27t-48.5 -74h253zM340 122q33 36 33 86q-46 24 -105 24
q-102 0 -102 -76q0 -31 22 -50.5t63 -19.5q56 0 89 36zM445 744h153l-90 -136h-105z" />
    <glyph glyph-name="Oslashacute" unicode="&#x1fe;" horiz-adv-x="840" 
d="M759.5 518.5q34.5 -74.5 34.5 -160.5q0 -103 -49 -189t-134.5 -135.5t-190.5 -49.5q-78 0 -151 30l-38 -61l-91 59l37 59q-62 52 -96.5 126.5t-34.5 160.5q0 103 49 189t134.5 135.5t190.5 49.5q78 0 151 -30l38 61l91 -59l-37 -59q62 -52 96.5 -126.5zM199 261.5
q17 -44.5 48 -77.5l254 407q-41 13 -81 13q-66 0 -120.5 -31t-86 -87t-31.5 -128q0 -52 17 -96.5zM541 143q55 31 86.5 87t31.5 128q0 52 -17.5 97t-48.5 78l-254 -408q41 -13 81 -13q66 0 121 31zM409 908h153l-90 -136h-105z" />
    <glyph glyph-name="oslashacute" unicode="&#x1ff;" horiz-adv-x="615" 
d="M557 367q22 -52 22 -112q0 -77 -34.5 -138.5t-96.5 -97t-140 -35.5q-50 0 -98 16l-26 -42l-90 51l27 44q-40 36 -62.5 88.5t-22.5 113.5q0 76 34.5 138t96.5 97.5t141 35.5q50 0 98 -16l26 42l91 -50l-29 -46q41 -37 63 -89zM186 157l158 254q-16 4 -36 4
q-41 0 -75.5 -19.5t-55 -56t-20.5 -84.5q0 -58 29 -98zM382.5 114.5q34.5 19.5 55 56t20.5 84.5q0 56 -28 97l-158 -253q16 -4 36 -4q40 0 74.5 19.5zM297 744h153l-90 -136h-105z" />
    <glyph glyph-name="Scommaaccent" unicode="&#x218;" horiz-adv-x="589" 
d="M132 37q-72 53 -101 150l127 50q15 -57 51 -91t90 -34q45 0 77 22.5t32 62.5t-30.5 65.5t-108.5 54.5l-44 16q-69 24 -118 73.5t-49 124.5q0 56 29 102t82 72.5t120 26.5q97 0 153 -45.5t77 -106.5l-119 -50q-11 33 -38.5 55.5t-70.5 22.5q-44 0 -72.5 -20.5t-28.5 -53.5
q0 -32 27 -54.5t89 -43.5l45 -15q93 -32 142.5 -84.5t49.5 -137.5q0 -70 -36 -118.5t-92.5 -72.5t-116.5 -24q-94 0 -166 53zM222 -253l45 70q-20 8 -31.5 25t-11.5 39q0 29 20.5 50t50.5 21t50.5 -21t20.5 -51q0 -21 -13 -44l-82 -121z" />
    <glyph glyph-name="scommaaccent" unicode="&#x219;" horiz-adv-x="505" 
d="M107.5 22q-57.5 38 -80.5 99l117 51q16 -36 45.5 -54.5t68.5 -18.5q36 0 60 11.5t24 37.5q0 25 -22 37.5t-66 22.5l-60 13q-62 15 -103 54.5t-41 98.5q0 44 26.5 79t72 54t100.5 19q158 0 211 -111l-112 -49q-30 54 -96 54q-34 0 -54 -12.5t-20 -31.5q0 -36 68 -54
l75 -18q76 -19 114.5 -58t38.5 -96q0 -49 -28.5 -86.5t-78 -58.5t-109.5 -21q-93 0 -150.5 38zM184 -253l45 70q-20 8 -31.5 25t-11.5 39q0 29 20.5 50t50.5 21t50.5 -21t20.5 -51q0 -21 -13 -44l-82 -121z" />
    <glyph glyph-name="uni021A" unicode="&#x21a;" horiz-adv-x="588" 
d="M227 588h-200v128h535v-128h-200v-588h-135v588zM221 -253l45 70q-20 8 -31.5 25t-11.5 39q0 29 20.5 50t50.5 21t50.5 -21t20.5 -51q0 -21 -13 -44l-82 -121z" />
    <glyph glyph-name="uni021B" unicode="&#x21b;" horiz-adv-x="418" 
d="M216 3.5q-32 11.5 -52 31.5q-47 45 -47 128v235h-89v112h89v144h131v-144h125v-112h-125v-211q0 -39 17 -56q14 -16 48 -16q19 0 31.5 5t32.5 17v-128q-43 -17 -91 -17q-38 0 -70 11.5zM188 -253l45 70q-20 8 -31.5 25t-11.5 39q0 29 20.5 50t50.5 21t50.5 -21t20.5 -51
q0 -21 -13 -44l-82 -121z" />
    <glyph glyph-name="uni0237" unicode="&#x237;" horiz-adv-x="276" 
d="M-26 -219v127q26 -14 53 -14q24 0 34.5 14.5t10.5 44.5v557h131v-560q0 -90 -45 -133t-116 -43q-40 0 -68 7z" />
    <glyph glyph-name="uni0259" unicode="&#x259;" horiz-adv-x="587" 
d="M421 491q61 -35 95.5 -96.5t34.5 -138.5q0 -73 -34 -135.5t-94 -99.5t-134 -37q-79 0 -136 34t-86.5 93t-29.5 131q0 23 3 44h383q-10 61 -48.5 92.5t-92.5 31.5q-45 0 -77.5 -19.5t-51.5 -52.5l-106 52q78 136 237 136q76 0 137 -35zM163 193q2 -24 17.5 -47.5t43 -39
t64.5 -15.5q47 0 80.5 27.5t48.5 74.5h-254z" />
    <glyph glyph-name="circumflex" unicode="&#x2c6;" horiz-adv-x="456" 
d="M57 590l114 126h114l114 -126v-8h-125l-40 59h-12l-40 -59h-125v8z" />
    <glyph glyph-name="caron" unicode="&#x2c7;" horiz-adv-x="456" 
d="M57 708v8h125l40 -59h12l40 59h125v-8l-114 -126h-114z" />
    <glyph glyph-name="breve" unicode="&#x2d8;" horiz-adv-x="416" 
d="M141.5 596.5q-31.5 17.5 -50.5 49t-19 69.5h93q0 -19 12 -32.5t32 -13.5q19 0 31 13.5t12 32.5h92q0 -38 -18.5 -69.5t-49.5 -49t-67 -17.5t-67.5 17.5z" />
    <glyph glyph-name="dotaccent" unicode="&#x2d9;" horiz-adv-x="269" 
d="M81.5 597.5q-22.5 22.5 -22.5 53.5q0 32 22.5 54t53.5 22t53 -22t22 -54q0 -31 -22 -53.5t-53 -22.5t-53.5 22.5z" />
    <glyph glyph-name="ring" unicode="&#x2da;" horiz-adv-x="408" 
d="M127.5 595.5q-31.5 31.5 -31.5 76.5t31.5 76.5t76.5 31.5t76.5 -31.5t31.5 -76.5t-31.5 -76.5t-76.5 -31.5t-76.5 31.5zM228.5 647.5q10.5 10.5 10.5 24.5t-10.5 24.5t-24.5 10.5t-24.5 -10.5t-10.5 -24.5t10.5 -24.5t24.5 -10.5t24.5 10.5z" />
    <glyph glyph-name="ogonek" unicode="&#x2db;" horiz-adv-x="426" 
d="M123 -192.5q-35 31.5 -35 83.5q0 36 19 63.5t44 45.5h117q-33 -23 -51 -43.5t-18 -44.5q0 -18 11 -29.5t29 -11.5t40 11v-95q-23 -11 -61 -11q-60 0 -95 31.5z" />
    <glyph glyph-name="tilde" unicode="&#x2dc;" horiz-adv-x="419" 
d="M229 594.5q-19 7.5 -43 20.5q-2 1 -15 8t-21 7q-25 0 -26 -29h-92q0 62 33.5 95t82.5 33q23 0 41 -7t46 -22q24 -14 33 -14q13 0 19 7t8 22h92q0 -62 -34 -95t-83 -33q-22 0 -41 7.5z" />
    <glyph glyph-name="hungarumlaut" unicode="&#x2dd;" horiz-adv-x="476" 
d="M114 724h153l-90 -136h-105zM312 724h153l-90 -136h-105z" />
    <glyph glyph-name="gravecomb" unicode="&#x300;" horiz-adv-x="0" 
d="M-347 744h153l42 -136h-106z" />
    <glyph glyph-name="acutecomb" unicode="&#x301;" horiz-adv-x="0" 
d="M-249 744h153l-90 -136h-105z" />
    <glyph glyph-name="uni0302" unicode="&#x302;" horiz-adv-x="0" 
d="M-399 610l114 126h114l114 -126v-8h-125l-40 58h-12l-40 -58h-125v8z" />
    <glyph glyph-name="tildecomb" unicode="&#x303;" horiz-adv-x="0" 
d="M-190 614.5q-19 7.5 -43 20.5q-2 1 -15 8t-21 7q-25 0 -26 -29h-92q0 62 33.5 94.5t82.5 32.5q23 0 41 -7t46 -22q25 -14 33 -14q13 0 19 7t8 22h92q0 -61 -34 -94t-83 -33q-22 0 -41 7.5z" />
    <glyph glyph-name="uni0304" unicode="&#x304;" horiz-adv-x="0" 
d="M-356 729h296v-100h-296v100z" />
    <glyph glyph-name="uni0306" unicode="&#x306;" horiz-adv-x="0" 
d="M-274.5 616.5q-31.5 17.5 -50.5 48.5t-19 69h93q0 -19 12 -32t32 -13q19 0 31 13t12 32h92q0 -38 -18.5 -69t-49.5 -48.5t-67 -17.5t-67.5 17.5z" />
    <glyph glyph-name="uni0307" unicode="&#x307;" horiz-adv-x="0" 
d="M-188 617.5q-22 22.5 -22 53.5t22 53t54 22q31 0 53 -21.5t22 -53.5t-22 -54t-53 -22q-32 0 -54 22.5z" />
    <glyph glyph-name="uni0308" unicode="&#x308;" horiz-adv-x="0" 
d="M-372 628q-21 21 -21 51t21 50.5t51 20.5t50.5 -20.5t20.5 -50.5t-20.5 -51t-50.5 -21t-51 21zM-181 628q-21 21 -21 51t21 50.5t50 20.5q31 0 51.5 -20.5t20.5 -50.5t-20.5 -51t-51.5 -21q-29 0 -50 21z" />
    <glyph glyph-name="uni030A" unicode="&#x30a;" horiz-adv-x="0" 
d="M-280.5 615.5q-31.5 31.5 -31.5 76.5t31.5 76.5t76.5 31.5t76.5 -31.5t31.5 -76.5t-31.5 -76.5t-76.5 -31.5t-76.5 31.5zM-179.5 667.5q10.5 10.5 10.5 24.5t-10.5 24t-24.5 10t-24.5 -10t-10.5 -24t10.5 -24.5t24.5 -10.5t24.5 10.5z" />
    <glyph glyph-name="uni030B" unicode="&#x30b;" horiz-adv-x="0" 
d="M-362 744h153l-90 -136h-105zM-164 744h153l-90 -136h-105z" />
    <glyph glyph-name="uni030C" unicode="&#x30c;" horiz-adv-x="0" 
d="M-399 727v9h125l40 -59h12l40 59h125v-9l-114 -125h-114z" />
    <glyph glyph-name="uni0312" unicode="&#x312;" horiz-adv-x="0" 
d="M-143 797l-45 -70q20 -8 31.5 -25t11.5 -39q0 -29 -20.5 -50t-50.5 -21t-50.5 21t-20.5 51q0 21 13 44l82 121z" />
    <glyph glyph-name="uni0326" unicode="&#x326;" horiz-adv-x="0" 
d="M-289 -253l45 70q-20 8 -31.5 25t-11.5 39q0 29 20.5 50t50.5 21t50.5 -21t20.5 -51q0 -21 -13 -44l-82 -121z" />
    <glyph glyph-name="uni0327" unicode="&#x327;" horiz-adv-x="0" 
d="M-302.5 -218.5q-26.5 18.5 -37.5 47.5l64 27q4 -12 13.5 -20t21.5 -8q15 0 24 9.5t9 22.5q0 14 -9 24t-24 10t-27 -14l-61 28l36 92h68l-21 -47q7 1 18 1q40 0 67 -26t27 -69q0 -42 -29.5 -69t-77.5 -27q-35 0 -61.5 18.5z" />
    <glyph glyph-name="uni0328" unicode="&#x328;" horiz-adv-x="0" 
d="M-303 -192.5q-35 31.5 -35 83.5q0 36 19 63.5t44 45.5h117q-33 -23 -51 -43.5t-18 -44.5q0 -18 11 -29.5t29 -11.5t40 11v-95q-23 -11 -61 -11q-60 0 -95 31.5z" />
    <glyph glyph-name="uni0374" unicode="&#x374;" horiz-adv-x="314" 
d="M118 716h156l-133 -221h-101z" />
    <glyph glyph-name="uni0375" unicode="&#x375;" horiz-adv-x="314" 
d="M168 122h106l-77 -221h-157z" />
    <glyph glyph-name="uni037E" unicode="&#x37e;" horiz-adv-x="288" 
d="M83 374.5q-25 25.5 -25 61.5t25 61t61 25t61.5 -25t25.5 -61t-25.5 -61.5t-61.5 -25.5t-61 25.5zM52 -83l60 91q-23 9 -38.5 30t-15.5 49q0 36 25.5 61t61.5 25t61.5 -25t25.5 -61q0 -18 -6 -32t-20 -35l-95 -142z" />
    <glyph glyph-name="tonos" unicode="&#x384;" horiz-adv-x="442" 
d="M169 736h153l-88 -136h-105z" />
    <glyph glyph-name="dieresistonos" unicode="&#x385;" horiz-adv-x="464" 
d="M195 752h74v-144h-74v144zM51.5 632.5q-19.5 19.5 -19.5 46.5t19.5 46.5t46.5 19.5q28 0 47 -19.5t19 -46.5t-19 -46.5t-47 -19.5q-27 0 -46.5 19.5zM319.5 632.5q-19.5 19.5 -19.5 46.5t19.5 46.5t46.5 19.5q28 0 47 -19.5t19 -46.5t-19 -46.5t-47 -19.5
q-27 0 -46.5 19.5z" />
    <glyph glyph-name="Alphatonos" unicode="&#x386;" horiz-adv-x="722" 
d="M76 724h153l-90 -136h-105zM283 716h155l269 -716h-149l-60 171h-274l-60 -171h-149zM454 295l-63 180l-26 86h-8l-26 -86l-64 -180h187z" />
    <glyph glyph-name="anoteleia" unicode="&#x387;" horiz-adv-x="230" 
d="M53.5 262.5q-25.5 25.5 -25.5 61.5t25.5 61.5t61.5 25.5t61.5 -25.5t25.5 -61.5t-25.5 -61.5t-61.5 -25.5t-61.5 25.5z" />
    <glyph glyph-name="Epsilontonos" unicode="&#x388;" horiz-adv-x="670" 
d="M-31 724h153l-90 -136h-105zM159 716h454v-128h-319v-166h287v-128h-287v-166h319v-128h-454v716z" />
    <glyph glyph-name="Etatonos" unicode="&#x389;" horiz-adv-x="812" 
d="M-31 724h153l-90 -136h-105zM159 716h135v-286h301v286h135v-716h-135v302h-301v-302h-135v716z" />
    <glyph glyph-name="Iotatonos" unicode="&#x38a;" horiz-adv-x="375" 
d="M-31 724h153l-90 -136h-105zM159 716h135v-716h-135v716z" />
    <glyph glyph-name="Omicrontonos" unicode="&#x38c;" horiz-adv-x="816" 
d="M-31 724h153l-90 -136h-105zM205.5 33.5q-85.5 49.5 -134.5 135.5t-49 189t49 189t134.5 135.5t190.5 49.5t190.5 -49.5t134.5 -135.5t49 -189t-49 -189t-134.5 -135.5t-190.5 -49.5t-190.5 49.5zM517 143q55 31 86.5 87t31.5 128t-31.5 128t-86.5 87t-121 31t-120.5 -31
t-86 -87t-31.5 -128t31.5 -128t86 -87t120.5 -31t121 31z" />
    <glyph glyph-name="Upsilontonos" unicode="&#x38e;" horiz-adv-x="767" 
d="M-31 724h153l-90 -136h-105zM380 333l-241 383h161l143 -237h8l138 237h163l-237 -383v-333h-135v333z" />
    <glyph glyph-name="Omegatonos" unicode="&#x38f;" horiz-adv-x="800" 
d="M-31 724h153l-90 -136h-105zM47 117h135v8q-65 39 -106 108.5t-41 164.5q0 90 46.5 167t128.5 122t183 45t182.5 -45t128 -122t46.5 -167q0 -95 -41 -164.5t-106 -108.5v-8h135v-117h-299v164q76 22 126 81.5t50 143.5q0 61 -30 110t-81 77t-111 28t-111 -28t-81 -77
t-30 -110q0 -85 49.5 -144t125.5 -81v-164h-299v117z" />
    <glyph glyph-name="iotadieresistonos" unicode="&#x390;" horiz-adv-x="276" 
d="M72 510h131v-510h-131v510zM101 752h74v-144h-74v144zM-42.5 632.5q-19.5 19.5 -19.5 46.5t19.5 46.5t46.5 19.5q28 0 47 -19.5t19 -46.5t-19 -46.5t-47 -19.5q-27 0 -46.5 19.5zM225.5 632.5q-19.5 19.5 -19.5 46.5t19.5 46.5t46.5 19.5q28 0 47 -19.5t19 -46.5
t-19 -46.5t-47 -19.5q-27 0 -46.5 19.5z" />
    <glyph glyph-name="Alpha" unicode="&#x391;" horiz-adv-x="722" 
d="M283 716h155l269 -716h-149l-60 171h-274l-60 -171h-149zM454 295l-63 180l-26 86h-8l-26 -86l-64 -180h187z" />
    <glyph glyph-name="Beta" unicode="&#x392;" horiz-adv-x="647" 
d="M82 716h280q60 0 110.5 -25t79.5 -68t29 -94q0 -54 -26.5 -93.5t-69.5 -60.5v-8q56 -20 89 -63.5t33 -104.5q0 -59 -31.5 -104.5t-85 -70t-118.5 -24.5h-290v716zM352 424q44 0 70.5 24.5t26.5 61.5q0 36 -25.5 60.5t-67.5 24.5h-139v-171h135zM367 123q49 0 76.5 25.5
t27.5 66.5t-28 67t-80 26h-146v-185h150z" />
    <glyph glyph-name="Gamma" unicode="&#x393;" horiz-adv-x="547" 
d="M82 716h438v-128h-303v-588h-135v716z" />
    <glyph glyph-name="uni0394" unicode="&#x394;" horiz-adv-x="714" 
d="M279 716h155l265 -716h-684zM508 124l-147 425h-8l-147 -425h302z" />
    <glyph glyph-name="Epsilon" unicode="&#x395;" horiz-adv-x="593" 
d="M82 716h454v-128h-319v-166h287v-128h-287v-166h319v-128h-454v716z" />
    <glyph glyph-name="Zeta" unicode="&#x396;" horiz-adv-x="610" 
d="M39 136l363 452h-347v128h504v-136l-359 -452h363v-128h-524v136z" />
    <glyph glyph-name="Eta" unicode="&#x397;" horiz-adv-x="735" 
d="M82 716h135v-286h301v286h135v-716h-135v302h-301v-302h-135v716z" />
    <glyph glyph-name="Theta" unicode="&#x398;" horiz-adv-x="854" 
d="M229.5 33.5q-85.5 49.5 -134.5 135.5t-49 189t49 189t134.5 135.5t190.5 49.5t190.5 -49.5t134.5 -135.5t49 -189t-49 -189t-134.5 -135.5t-190.5 -49.5t-190.5 49.5zM541 143q55 31 86.5 87t31.5 128t-31.5 128t-86.5 87t-121 31t-120.5 -31t-86 -87t-31.5 -128
t31.5 -128t86 -87t120.5 -31t121 31zM268 417h309v-118h-309v118z" />
    <glyph glyph-name="Iota" unicode="&#x399;" horiz-adv-x="298" 
d="M82 716h135v-716h-135v716z" />
    <glyph glyph-name="Kappa" unicode="&#x39a;" horiz-adv-x="672" 
d="M82 716h135v-336h8l256 336h166v-8l-277 -353l295 -347v-8h-171l-269 319h-8v-319h-135v716z" />
    <glyph glyph-name="Lambda" unicode="&#x39b;" horiz-adv-x="706" 
d="M275 716h155l261 -716h-150l-161 477l-23 84h-8l-23 -84l-161 -477h-150z" />
    <glyph glyph-name="Mu" unicode="&#x39c;" horiz-adv-x="900" 
d="M82 716h174l190 -503h8l190 503h175v-716h-134v353l8 119h-8l-182 -472h-105l-183 472h-8l8 -119v-353h-133v716z" />
    <glyph glyph-name="Nu" unicode="&#x39d;" horiz-adv-x="742" 
d="M82 716h157l288 -480h8l-8 138v342h134v-716h-142l-304 507h-8l8 -138v-369h-133v716z" />
    <glyph glyph-name="Xi" unicode="&#x39e;" horiz-adv-x="555" 
d="M34 716h487v-128h-487v128zM66 421h423v-126h-423v126zM34 128h487v-128h-487v128z" />
    <glyph glyph-name="Omicron" unicode="&#x39f;" horiz-adv-x="840" 
d="M229.5 33.5q-85.5 49.5 -134.5 135.5t-49 189t49 189t134.5 135.5t190.5 49.5t190.5 -49.5t134.5 -135.5t49 -189t-49 -189t-134.5 -135.5t-190.5 -49.5t-190.5 49.5zM541 143q55 31 86.5 87t31.5 128t-31.5 128t-86.5 87t-121 31t-120.5 -31t-86 -87t-31.5 -128
t31.5 -128t86 -87t120.5 -31t121 31z" />
    <glyph glyph-name="Pi" unicode="&#x3a0;" horiz-adv-x="714" 
d="M82 716h550v-716h-135v588h-280v-588h-135v716z" />
    <glyph glyph-name="Rho" unicode="&#x3a1;" horiz-adv-x="610" 
d="M82 716h252q68 0 124 -28.5t88 -80t32 -117.5t-32 -118t-88 -80.5t-124 -28.5h-117v-263h-135v716zM338 391q50 0 78.5 29t28.5 70t-28.5 69.5t-78.5 28.5h-121v-197h121z" />
    <glyph glyph-name="Sigma" unicode="&#x3a3;" horiz-adv-x="540" 
d="M50 133l190 233l-190 217v133h458v-125h-296l188 -225l-188 -241h296v-125h-458v133z" />
    <glyph glyph-name="Tau" unicode="&#x3a4;" horiz-adv-x="588" 
d="M227 588h-200v128h535v-128h-200v-588h-135v588z" />
    <glyph glyph-name="Upsilon" unicode="&#x3a5;" horiz-adv-x="642" 
d="M256 333l-241 383h161l143 -237h8l138 237h163l-237 -383v-333h-135v333z" />
    <glyph glyph-name="Phi" unicode="&#x3a6;" horiz-adv-x="830" 
d="M746.5 218.5q-36.5 -63.5 -104.5 -105t-160 -53.5v-92h-135v92q-92 12 -160 53.5t-104.5 105t-36.5 139.5t36.5 139.5t104.5 105t160 53.5v92h135v-92q92 -12 160 -53.5t104.5 -105t36.5 -139.5t-36.5 -139.5zM604 244q44 46 44 114t-44 114t-122 60v-348q78 14 122 60z
M225.5 244q43.5 -46 121.5 -60v348q-78 -14 -121.5 -60t-43.5 -114t43.5 -114z" />
    <glyph glyph-name="Chi" unicode="&#x3a7;" horiz-adv-x="694" 
d="M253 374l-216 342h167l139 -234h8l138 234h168l-217 -342l235 -374h-168l-156 258h-8l-156 -258h-168z" />
    <glyph glyph-name="Psi" unicode="&#x3a8;" horiz-adv-x="794" 
d="M329 156q-70 0 -130.5 36t-96.5 103t-36 154v267h135v-274q0 -68 33.5 -113t94.5 -45v432h135v-432q61 0 95 45t34 113v274h135v-267q0 -87 -36 -154t-96.5 -103t-131.5 -36v-156h-135v156z" />
    <glyph glyph-name="uni03A9" unicode="&#x3a9;" horiz-adv-x="815" 
d="M62 117h135v8q-65 39 -106 108.5t-41 164.5q0 90 46.5 167t128.5 122t183 45t182.5 -45t128 -122t46.5 -167q0 -95 -41 -164.5t-106 -108.5v-8h135v-117h-299v164q76 22 126 81.5t50 143.5q0 61 -30 110t-81 77t-111 28t-111 -28t-81 -77t-30 -110q0 -85 49.5 -144
t125.5 -81v-164h-299v117z" />
    <glyph glyph-name="Iotadieresis" unicode="&#x3aa;" horiz-adv-x="298" 
d="M12 809q-20 20 -20 47q0 28 20 47.5t48 19.5t47.5 -19.5t19.5 -47.5q0 -27 -19.5 -47t-47.5 -20t-48 20zM191 809q-20 20 -20 47q0 28 20 47.5t48 19.5t47.5 -19.5t19.5 -47.5q0 -27 -19.5 -47t-47.5 -20t-48 20zM82 716h135v-716h-135v716z" />
    <glyph glyph-name="Upsilondieresis" unicode="&#x3ab;" horiz-adv-x="642" 
d="M256 333l-241 383h161l143 -237h8l138 237h163l-237 -383v-333h-135v333zM177 792.5q-21 21.5 -21 50.5q0 30 21 51t51 21t50.5 -21t20.5 -51t-20.5 -51t-50.5 -21t-51 21.5zM368 792.5q-21 21.5 -21 50.5q0 30 21 51t50 21q31 0 51.5 -21t20.5 -51t-21 -51t-51 -21
q-29 0 -50 21.5z" />
    <glyph glyph-name="alphatonos" unicode="&#x3ac;" horiz-adv-x="628" 
d="M157.5 18.5q-56.5 34.5 -89 96.5t-32.5 140t32.5 140t89 96.5t125.5 34.5q52 0 92 -22.5t61 -55.5h8v62h122v-510h-122v61h-8q-20 -33 -60.5 -55t-92.5 -22q-69 0 -125.5 34.5zM374 124q32 19 51 53t19 78t-19 78t-51 52.5t-69 18.5q-36 0 -68 -18.5t-51 -52.5t-19 -78
t19 -78t51 -53t68 -19q37 0 69 19zM283 736h153l-88 -136h-105z" />
    <glyph glyph-name="epsilontonos" unicode="&#x3ad;" horiz-adv-x="524" 
d="M102.5 27q-58.5 43 -58.5 117q0 37 20.5 67.5t59.5 48.5v8q-60 32 -60 111q0 40 25 73.5t70 53.5t102 20q63 0 109 -19t85 -61l-78 -75q-42 51 -116 51q-37 0 -58 -16.5t-21 -39.5q0 -29 22 -44.5t57 -15.5h72v-94h-76q-40 0 -63.5 -16.5t-23.5 -41.5q0 -29 25 -45
t68 -16q38 0 72 17t61 49l81 -81q-83 -94 -214 -94q-102 0 -160.5 43zM248 736h153l-88 -136h-105z" />
    <glyph glyph-name="etatonos" unicode="&#x3ae;" horiz-adv-x="599" 
d="M408 304q0 48 -25 74t-70 26q-53 0 -85.5 -41t-32.5 -103v-260h-131v510h123v-64h8q23 37 65 58.5t91 21.5q90 0 139 -55.5t49 -150.5v-536h-131v520zM300 736h153l-88 -136h-105z" />
    <glyph glyph-name="iotatonos" unicode="&#x3af;" horiz-adv-x="276" 
d="M72 510h131v-510h-131v510zM125 736h153l-88 -136h-105z" />
    <glyph glyph-name="upsilondieresistonos" unicode="&#x3b0;" horiz-adv-x="595" 
d="M178.5 13q-54.5 29 -86.5 80.5t-32 115.5v301h131v-272q0 -63 32 -98t82 -35q31 0 59.5 16t46 47.5t17.5 77.5q0 111 -95 264h143q36 -55 59 -127t23 -142q0 -86 -36 -144t-95 -85.5t-129 -27.5q-65 0 -119.5 29zM251 752h74v-144h-74v144zM107.5 632.5
q-19.5 19.5 -19.5 46.5t19.5 46.5t46.5 19.5q28 0 47 -19.5t19 -46.5t-19 -46.5t-47 -19.5q-27 0 -46.5 19.5zM375.5 632.5q-19.5 19.5 -19.5 46.5t19.5 46.5t46.5 19.5q28 0 47 -19.5t19 -46.5t-19 -46.5t-47 -19.5q-27 0 -46.5 19.5z" />
    <glyph glyph-name="alpha" unicode="&#x3b1;" horiz-adv-x="628" 
d="M157.5 18.5q-56.5 34.5 -89 96.5t-32.5 140t32.5 140t89 96.5t125.5 34.5q52 0 92 -22.5t61 -55.5h8v62h122v-510h-122v61h-8q-20 -33 -60.5 -55t-92.5 -22q-69 0 -125.5 34.5zM374 124q32 19 51 53t19 78t-19 78t-51 52.5t-69 18.5q-36 0 -68 -18.5t-51 -52.5t-19 -78
t19 -78t51 -53t68 -19q37 0 69 19z" />
    <glyph glyph-name="beta" unicode="&#x3b2;" horiz-adv-x="602" 
d="M80 507q0 65 28 116t79.5 80t121.5 29q62 0 112 -24t78.5 -67.5t28.5 -99.5q0 -52 -23 -89.5t-58 -60.5v-8q115 -51 115 -179q0 -65 -29.5 -115t-79 -77.5t-108.5 -27.5q-42 0 -74.5 14.5t-58.5 44.5h-8l8 -76v-183h-132v723zM398.5 135.5q31.5 32.5 31.5 80.5
q0 46 -34.5 77t-84.5 31h-30v115h22q45 0 72 25t27 65q0 36 -27 59t-66 23q-45 0 -71 -29.5t-26 -74.5v-285q0 -57 29 -88t80 -31q46 0 77.5 32.5z" />
    <glyph glyph-name="gamma" unicode="&#x3b3;" horiz-adv-x="602" 
d="M235 4l-227 506h150l139 -336h8l141 336h148l-229 -506v-220h-130v220z" />
    <glyph glyph-name="delta" unicode="&#x3b4;" horiz-adv-x="615" 
d="M167 19.5q-62 35.5 -96.5 97t-34.5 138.5q0 97 53.5 164.5t138.5 92.5l-148 104v100h445v-111h-232l161 -116q125 -95 125 -234q0 -77 -34.5 -138.5t-96.5 -97t-140 -35.5q-79 0 -141 35.5zM378 123q32 18 51 52t19 80q0 45 -19 79t-51 52t-70 18t-70 -18t-51.5 -52
t-19.5 -79t19.5 -79.5t51.5 -52.5t70 -18t70 18z" />
    <glyph glyph-name="epsilon" unicode="&#x3b5;" horiz-adv-x="524" 
d="M102.5 27q-58.5 43 -58.5 117q0 37 20.5 67.5t59.5 48.5v8q-60 32 -60 111q0 40 25 73.5t70 53.5t102 20q63 0 109 -19t85 -61l-78 -75q-42 51 -116 51q-37 0 -58 -16.5t-21 -39.5q0 -29 22 -44.5t57 -15.5h72v-94h-76q-40 0 -63.5 -16.5t-23.5 -41.5q0 -29 25 -45
t68 -16q38 0 72 17t61 49l81 -81q-83 -94 -214 -94q-102 0 -160.5 43z" />
    <glyph glyph-name="zeta" unicode="&#x3b6;" horiz-adv-x="523" 
d="M331 -64q18 0 27.5 9t9.5 23t-9.5 23t-27.5 9h-129q-82 0 -126 39.5t-44 102.5q0 37 17.5 68.5t50.5 55.5l186 133h-237v111h425v-106q-42 -29 -156 -109.5t-122 -86.5q-30 -21 -30 -49q0 -23 16.5 -35.5t43.5 -12.5h116q67 0 108 -36.5t41 -96.5q0 -71 -44 -108.5
t-116 -37.5v104z" />
    <glyph glyph-name="eta" unicode="&#x3b7;" horiz-adv-x="599" 
d="M408 304q0 48 -25 74t-70 26q-53 0 -85.5 -41t-32.5 -103v-260h-131v510h123v-64h8q23 37 65 58.5t91 21.5q90 0 139 -55.5t49 -150.5v-536h-131v520z" />
    <glyph glyph-name="theta" unicode="&#x3b8;" horiz-adv-x="695" 
d="M188 30.5q-65 46.5 -100.5 128t-35.5 183.5t35.5 183.5t100.5 128t151 46.5t151 -46.5t100.5 -128t35.5 -183.5t-35.5 -183.5t-100.5 -128t-151 -46.5t-151 46.5zM488 416q-13 74 -52.5 117.5t-96.5 43.5t-96 -43.5t-52 -117.5h297zM444 161.5q41 54.5 49 142.5h-307
q8 -88 48.5 -142.5t104.5 -54.5t105 54.5z" />
    <glyph glyph-name="iota" unicode="&#x3b9;" horiz-adv-x="276" 
d="M72 510h131v-510h-131v510z" />
    <glyph glyph-name="kappa" unicode="&#x3ba;" horiz-adv-x="540" 
d="M64 510h131v-220h8l167 220h155v-8l-184 -234l194 -260v-8h-154l-178 244h-8v-244h-131v510z" />
    <glyph glyph-name="lambda" unicode="&#x3bb;" horiz-adv-x="562" 
d="M214 466l-108 240h141l307 -706h-146l-120 297h-7l-124 -297h-149z" />
    <glyph glyph-name="uni03BC" unicode="&#x3bc;" horiz-adv-x="599" 
d="M60 510h131v-296q0 -52 25.5 -80.5t65.5 -28.5q56 0 89 41t33 104v260h131v-510h-123v54h-8q-21 -33 -56.5 -51.5t-78.5 -18.5q-23 0 -43.5 6.5t-34.5 17.5h-8l8 -65v-159h-131v726z" />
    <glyph glyph-name="nu" unicode="&#x3bd;" horiz-adv-x="578" 
d="M7 510h149l129 -332h8l131 332h147l-218 -510h-130z" />
    <glyph glyph-name="xi" unicode="&#x3be;" horiz-adv-x="552" 
d="M360 -64q18 0 27.5 9t9.5 23t-9.5 23t-27.5 9h-80q-76 0 -132.5 27t-86 74t-29.5 105q0 114 110 170v8q-40 25 -62 59t-22 94q0 54 29 98.5t80 70.5t113 26q76 0 127 -26t93 -74l-92 -88q-48 71 -119 71q-48 0 -75 -25t-27 -64q0 -45 32 -70.5t78 -25.5h102v-113h-108
q-58 0 -92.5 -26.5t-34.5 -70.5q0 -46 34 -71.5t99 -25.5h53q81 0 125.5 -40.5t44.5 -103.5q0 -72 -44 -109.5t-116 -37.5v104z" />
    <glyph glyph-name="omicron" unicode="&#x3bf;" horiz-adv-x="615" 
d="M167 19.5q-62 35.5 -96.5 97t-34.5 138.5q0 76 34.5 138t96.5 97.5t141 35.5q78 0 140 -35.5t96.5 -97.5t34.5 -138q0 -77 -34.5 -138.5t-96.5 -97t-140 -35.5q-79 0 -141 35.5zM378 123q32 18 51 52t19 80q0 45 -19 79t-51 52t-70 18t-70 -18t-51.5 -52t-19.5 -79
t19.5 -79.5t51.5 -52.5t70 -18t70 18z" />
    <glyph glyph-name="pi" unicode="&#x3c0;" horiz-adv-x="751" 
d="M502.5 43q-46.5 51 -46.5 136v219h-186v-398h-131v398h-115v112h683v-112h-120v-213q0 -33 16 -53.5t45 -20.5q25 0 59 19v-124q-38 -14 -79 -14q-79 0 -125.5 51z" />
    <glyph glyph-name="rho" unicode="&#x3c1;" horiz-adv-x="629" 
d="M63 241q0 83 32.5 148t91.5 101t136 36q84 0 145 -35t93 -96.5t32 -139.5q0 -79 -30 -140.5t-83.5 -96t-122.5 -34.5q-56 0 -97 21.5t-66 55.5h-8l8 -69v-208h-131v457zM392 124q32 19 51 53t19 78t-19 78t-50.5 53t-68.5 19t-68.5 -19t-50.5 -53t-19 -78t19 -78t51 -53
t68 -19t68 19z" />
    <glyph glyph-name="uni03C2" unicode="&#x3c2;" horiz-adv-x="568" 
d="M365 -80q20 0 30 9t10 23t-9.5 23t-27.5 9h-49q-90 0 -154 35.5t-96.5 97t-32.5 138.5q0 78 34.5 139.5t95 96.5t137.5 35q86 0 147 -36.5t88 -103.5l-120 -50q-14 34 -43.5 51t-70.5 17q-60 0 -98.5 -41t-38.5 -108q0 -64 43.5 -107t117.5 -43h36q73 0 118.5 -40
t45.5 -103q0 -71 -45 -108.5t-118 -37.5v104z" />
    <glyph glyph-name="sigma" unicode="&#x3c3;" horiz-adv-x="631" 
d="M163.5 18q-60.5 34 -94 94t-33.5 135t33.5 135t94 94t138.5 34h312v-111h-32l-75 8v-8q61 -66 61 -152q0 -76 -33 -135.5t-93.5 -93.5t-139.5 -34q-78 0 -138.5 34zM398.5 142q38.5 37 38.5 105q0 67 -38.5 104t-96.5 37t-96.5 -37t-38.5 -104q0 -68 38.5 -105t96.5 -37
t96.5 37z" />
    <glyph glyph-name="tau" unicode="&#x3c4;" horiz-adv-x="507" 
d="M188 388h-160v122h450v-122h-159v-388h-131v388z" />
    <glyph glyph-name="upsilon" unicode="&#x3c5;" horiz-adv-x="595" 
d="M178.5 13q-54.5 29 -86.5 80.5t-32 115.5v301h131v-272q0 -63 32 -98t82 -35q31 0 59.5 16t46 47.5t17.5 77.5q0 111 -95 264h143q36 -55 59 -127t23 -142q0 -86 -36 -144t-95 -85.5t-129 -27.5q-65 0 -119.5 29z" />
    <glyph glyph-name="phi" unicode="&#x3c6;" horiz-adv-x="766" 
d="M680.5 137q-33.5 -59 -94 -97.5t-140.5 -50.5v-205h-132v204q-78 11 -137.5 49t-92 96t-32.5 130q0 99 45 159.5t119 103.5l60 -108q-45 -28 -69.5 -63.5t-24.5 -91.5q0 -59 35.5 -99.5t96.5 -55.5v256q0 82 46.5 122t119.5 40q72 0 125 -33t81 -91.5t28 -132.5
q0 -73 -33.5 -132zM547.5 166.5q36.5 43.5 36.5 113.5q0 58 -25.5 93t-62.5 35q-50 0 -50 -62v-238q65 15 101.5 58.5z" />
    <glyph glyph-name="chi" unicode="&#x3c7;" horiz-adv-x="536" 
d="M190 259l-176 251h155l97 -146h6l91 146h160l-179 -251l179 -259h-155l-98 149h-6l-96 -149h-155z" />
    <glyph glyph-name="psi" unicode="&#x3c8;" horiz-adv-x="748" 
d="M319 -16q-75 0 -134 31.5t-92 89t-33 132.5v273h131v-271q0 -67 37 -100.5t91 -33.5v405h132v-404q53 0 91.5 36.5t38.5 113.5q0 62 -18.5 123.5t-53.5 130.5h136q30 -58 48.5 -127.5t18.5 -131.5q0 -88 -39.5 -148t-99.5 -89.5t-122 -29.5v-200h-132v200z" />
    <glyph glyph-name="omega" unicode="&#x3c9;" horiz-adv-x="830" 
d="M147 13.5q-51 29.5 -81 87.5t-30 141q0 73 21 141.5t55 126.5h148q-88 -139 -88 -263q0 -61 24.5 -98t68.5 -37q40 0 64 32t24 96v145h123v-145q0 -64 24.5 -96t63.5 -32q44 0 68.5 37t24.5 98q0 123 -87 263h148q34 -58 54.5 -126.5t20.5 -141.5q0 -83 -30 -141
t-81 -87.5t-112 -29.5q-54 0 -93 23.5t-62 69.5q-23 -46 -62.5 -69.5t-92.5 -23.5q-62 0 -113 29.5z" />
    <glyph glyph-name="iotadieresis" unicode="&#x3ca;" horiz-adv-x="276" 
d="M5.5 630.5q-20.5 20.5 -20.5 48.5q0 29 20.5 49t48.5 20q29 0 49 -20t20 -49q0 -28 -20 -48.5t-49 -20.5q-28 0 -48.5 20.5zM173.5 630.5q-20.5 20.5 -20.5 48.5q0 29 20.5 49t48.5 20q29 0 49 -20t20 -49q0 -28 -20 -48.5t-49 -20.5q-28 0 -48.5 20.5zM72 510h131v-510
h-131v510z" />
    <glyph glyph-name="upsilondieresis" unicode="&#x3cb;" horiz-adv-x="595" 
d="M178.5 13q-54.5 29 -86.5 80.5t-32 115.5v301h131v-272q0 -63 32 -98t82 -35q31 0 59.5 16t46 47.5t17.5 77.5q0 111 -95 264h143q36 -55 59 -127t23 -142q0 -86 -36 -144t-95 -85.5t-129 -27.5q-65 0 -119.5 29zM142 628q-21 21 -21 51t21 50.5t51 20.5t50.5 -20.5
t20.5 -50.5t-20.5 -51t-50.5 -21t-51 21zM333 628q-21 21 -21 51t21 50.5t50 20.5q31 0 51.5 -20.5t20.5 -50.5t-20.5 -51t-51.5 -21q-29 0 -50 21z" />
    <glyph glyph-name="omicrontonos" unicode="&#x3cc;" horiz-adv-x="615" 
d="M167 19.5q-62 35.5 -96.5 97t-34.5 138.5q0 76 34.5 138t96.5 97.5t141 35.5q78 0 140 -35.5t96.5 -97.5t34.5 -138q0 -77 -34.5 -138.5t-96.5 -97t-140 -35.5q-79 0 -141 35.5zM378 123q32 18 51 52t19 80q0 45 -19 79t-51 52t-70 18t-70 -18t-51.5 -52t-19.5 -79
t19.5 -79.5t51.5 -52.5t70 -18t70 18zM295 736h153l-88 -136h-105z" />
    <glyph glyph-name="upsilontonos" unicode="&#x3cd;" horiz-adv-x="595" 
d="M178.5 13q-54.5 29 -86.5 80.5t-32 115.5v301h131v-272q0 -63 32 -98t82 -35q31 0 59.5 16t46 47.5t17.5 77.5q0 111 -95 264h143q36 -55 59 -127t23 -142q0 -86 -36 -144t-95 -85.5t-129 -27.5q-65 0 -119.5 29zM275 736h153l-88 -136h-105z" />
    <glyph glyph-name="omegatonos" unicode="&#x3ce;" horiz-adv-x="830" 
d="M147 13.5q-51 29.5 -81 87.5t-30 141q0 73 21 141.5t55 126.5h148q-88 -139 -88 -263q0 -61 24.5 -98t68.5 -37q40 0 64 32t24 96v145h123v-145q0 -64 24.5 -96t63.5 -32q44 0 68.5 37t24.5 98q0 123 -87 263h148q34 -58 54.5 -126.5t20.5 -141.5q0 -83 -30 -141
t-81 -87.5t-112 -29.5q-54 0 -93 23.5t-62 69.5q-23 -46 -62.5 -69.5t-92.5 -23.5q-62 0 -113 29.5zM402 736h153l-88 -136h-105z" />
    <glyph glyph-name="uni03D1" unicode="&#x3d1;" horiz-adv-x="665" 
d="M175.5 14q-55.5 30 -85.5 84.5t-30 126.5v285h124v-276q0 -64 34.5 -98.5t87.5 -34.5q52 0 84 34.5t32 98.5v40q-58 17 -106 58t-75.5 100t-27.5 126q0 82 46 128t117 46q78 0 124 -47t46 -124v-186h88v-107h-88v-42q0 -112 -64 -177t-176 -65q-75 0 -130.5 30zM422 568
q0 26 -12 41.5t-33 15.5q-20 0 -32.5 -17t-12.5 -50q0 -56 23.5 -102t66.5 -68v180z" />
    <glyph glyph-name="uni03D2" unicode="&#x3d2;" horiz-adv-x="663" 
d="M264 312l-126 247q-12 25 -26 35.5t-33 10.5q-26 0 -53 -20v124q14 7 35 11t40 4q45 0 80.5 -21t64.5 -81l82 -166h8l82 166q29 60 64.5 81t79.5 21q19 0 40 -4t35 -11v-124q-27 20 -53 20q-19 0 -33 -10.5t-26 -35.5l-126 -247v-312h-135v312z" />
    <glyph glyph-name="uni03D3" unicode="&#x3d3;" horiz-adv-x="789" 
d="M-31 724h153l-90 -136h-105zM390 312l-126 247q-12 25 -26 35.5t-33 10.5q-26 0 -53 -20v124q14 7 35 11t40 4q45 0 80.5 -21t64.5 -81l82 -166h8l82 166q29 60 64.5 81t79.5 21q19 0 40 -4t35 -11v-124q-27 20 -53 20q-19 0 -33 -10.5t-26 -35.5l-126 -247v-312h-135
v312z" />
    <glyph glyph-name="uni03D4" unicode="&#x3d4;" horiz-adv-x="663" 
d="M264 312l-126 247q-12 25 -26 35.5t-33 10.5q-26 0 -53 -20v124q14 7 35 11t40 4q45 0 80.5 -21t64.5 -81l82 -166h8l82 166q29 60 64.5 81t79.5 21q19 0 40 -4t35 -11v-124q-27 20 -53 20q-19 0 -33 -10.5t-26 -35.5l-126 -247v-312h-135v312zM186 792.5
q-21 21.5 -21 50.5q0 30 21 51t51 21t50.5 -21t20.5 -51t-20.5 -51t-50.5 -21t-51 21.5zM377 792.5q-21 21.5 -21 50.5q0 30 21 51t50 21q31 0 51.5 -21t20.5 -51t-21 -51t-51 -21q-29 0 -50 21.5z" />
    <glyph glyph-name="uni03D6" unicode="&#x3d6;" horiz-adv-x="929" 
d="M197 13.5q-51 29.5 -81 87.5t-30 141q0 84 34 168h-73v100h835v-100h-73q34 -88 34 -168q0 -83 -30 -141t-81 -87.5t-113 -29.5q-52 0 -91.5 24.5t-63.5 68.5q-23 -44 -62.5 -68.5t-91.5 -24.5q-62 0 -113 29.5zM378.5 144q24.5 32 24.5 97v98h123v-99q0 -64 24.5 -96
t63.5 -32q44 0 68.5 37t24.5 98q0 77 -35 163h-415q-35 -82 -35 -163q0 -61 24.5 -98t68.5 -37q39 0 63.5 32z" />
    <glyph glyph-name="uni0400" unicode="&#x400;" horiz-adv-x="593" 
d="M82 716h454v-128h-319v-166h287v-128h-287v-166h319v-128h-454v716zM167 908h153l42 -136h-106z" />
    <glyph glyph-name="uni0401" unicode="&#x401;" horiz-adv-x="593" 
d="M82 716h454v-128h-319v-166h287v-128h-287v-166h319v-128h-454v716zM163 792.5q-21 21.5 -21 50.5q0 30 21 51t51 21t50.5 -21t20.5 -51t-20.5 -51t-50.5 -21t-51 21.5zM354 792.5q-21 21.5 -21 50.5q0 30 21 51t50 21q31 0 51.5 -21t20.5 -51t-21 -51t-51 -21
q-29 0 -50 21.5z" />
    <glyph glyph-name="uni0402" unicode="&#x402;" horiz-adv-x="795" 
d="M220 588h-193v128h525v-128h-197v-147l-8 -75h8q32 33 77.5 52.5t102.5 19.5q60 0 111.5 -27t82 -77.5t30.5 -115.5q0 -108 -63.5 -162.5t-169.5 -55.5h-31v120h22q50 0 78.5 26.5t28.5 68.5q0 45 -31.5 72t-84.5 27q-48 0 -89.5 -21.5t-63.5 -54.5v-238h-135v588z" />
    <glyph glyph-name="uni0403" unicode="&#x403;" horiz-adv-x="547" 
d="M82 716h438v-128h-303v-588h-135v716zM290 908h153l-90 -136h-105z" />
    <glyph glyph-name="uni0404" unicode="&#x404;" horiz-adv-x="749" 
d="M706 115q-52 -64 -127 -97.5t-162 -33.5q-105 0 -189.5 49.5t-133 135t-48.5 189.5t48.5 189.5t133 135t189.5 49.5q165 0 271 -117l-94 -92q-32 38 -77 59.5t-100 21.5q-88 0 -152 -50t-81 -137h313v-118h-313q17 -87 81 -137t152 -50q59 0 108 24.5t86 69.5z" />
    <glyph glyph-name="uni0405" unicode="&#x405;" horiz-adv-x="589" 
d="M132 37q-72 53 -101 150l127 50q15 -57 51 -91t90 -34q45 0 77 22.5t32 62.5t-30.5 65.5t-108.5 54.5l-44 16q-69 24 -118 73.5t-49 124.5q0 56 29 102t82 72.5t120 26.5q97 0 153 -45.5t77 -106.5l-119 -50q-11 33 -38.5 55.5t-70.5 22.5q-44 0 -72.5 -20.5t-28.5 -53.5
q0 -32 27 -54.5t89 -43.5l45 -15q93 -32 142.5 -84.5t49.5 -137.5q0 -70 -36 -118.5t-92.5 -72.5t-116.5 -24q-94 0 -166 53z" />
    <glyph glyph-name="uni0406" unicode="&#x406;" horiz-adv-x="298" 
d="M82 716h135v-716h-135v716z" />
    <glyph glyph-name="uni0407" unicode="&#x407;" horiz-adv-x="298" 
d="M12 800q-20 20 -20 47q0 28 20 48t48 20t47.5 -20t19.5 -48q0 -27 -19.5 -47t-47.5 -20t-48 20zM191 800q-20 20 -20 47q0 28 20 48t48 20t47.5 -20t19.5 -48q0 -27 -19.5 -47t-47.5 -20t-48 20zM82 716h135v-716h-135v716z" />
    <glyph glyph-name="uni0408" unicode="&#x408;" horiz-adv-x="568" 
d="M115.5 30.5q-63.5 46.5 -88.5 126.5l124 51q13 -47 42 -71.5t71 -24.5q46 0 72.5 30t26.5 84v490h135v-489q0 -78 -31 -132.5t-84 -82.5t-119 -28q-85 0 -148.5 46.5z" />
    <glyph glyph-name="uni0409" unicode="&#x409;" horiz-adv-x="1107" 
d="M27 -3v127q10 -5 33 -5q39 0 61 23q17 19 24 60.5t7 117.5v396h508v-285h156q70 0 127 -25t90 -73.5t33 -116.5q0 -69 -33 -117.5t-90 -73.5t-127 -25h-291v588h-238v-323q0 -83 -16.5 -137.5t-50.5 -87.5q-52 -48 -148 -48q-28 0 -45 5zM821 125q48 0 75.5 25.5
t27.5 65.5t-27.5 65t-75.5 25h-161v-181h161z" />
    <glyph glyph-name="uni040A" unicode="&#x40a;" horiz-adv-x="1088" 
d="M82 716h135v-285h288v285h135v-285h157q70 0 127 -25t90 -73.5t33 -116.5q0 -69 -33 -117.5t-90 -73.5t-127 -25h-292v306h-288v-306h-135v716zM802 125q48 0 75.5 25.5t27.5 65.5t-27.5 65t-75.5 25h-162v-181h162z" />
    <glyph glyph-name="uni040B" unicode="&#x40b;" horiz-adv-x="794" 
d="M220 588h-193v128h525v-128h-197v-147l-8 -75h8q31 33 76 52.5t102 19.5q58 0 103.5 -24.5t72 -72.5t26.5 -114v-227h-129v198q0 55 -30 85.5t-83 30.5q-43 0 -79.5 -21t-58.5 -55v-238h-135v588z" />
    <glyph glyph-name="uni040C" unicode="&#x40c;" horiz-adv-x="672" 
d="M82 716h135v-336h8l256 336h166v-8l-277 -353l295 -347v-8h-171l-269 319h-8v-319h-135v716zM325 908h153l-90 -136h-105z" />
    <glyph glyph-name="uni040D" unicode="&#x40d;" horiz-adv-x="734" 
d="M82 716h133v-360l-8 -138h8l291 498h147v-716h-134v351l8 138h-8l-285 -489h-152v716zM225 908h153l42 -136h-106z" />
    <glyph glyph-name="uni040E" unicode="&#x40e;" horiz-adv-x="636" 
d="M127.5 -12.5q-16.5 3.5 -31.5 10.5v128q37 -21 65 -21q21 0 36.5 9.5t26.5 32.5l25 51l-234 518h146l153 -362h8l155 362h144l-272 -599q-32 -70 -76 -101.5t-103 -31.5q-26 0 -42.5 3.5zM251.5 780.5q-31.5 17.5 -50.5 49t-19 69.5h93q0 -19 12 -32.5t32 -13.5
q19 0 31 13.5t12 32.5h92q0 -38 -18.5 -69.5t-49.5 -49t-67 -17.5t-67.5 17.5z" />
    <glyph glyph-name="uni040F" unicode="&#x40f;" horiz-adv-x="714" 
d="M292 0h-210v716h135v-588h280v588h135v-716h-210v-163h-130v163z" />
    <glyph glyph-name="uni0410" unicode="&#x410;" horiz-adv-x="722" 
d="M283 716h155l269 -716h-149l-60 171h-274l-60 -171h-149zM454 295l-63 180l-26 86h-8l-26 -86l-64 -180h187z" />
    <glyph glyph-name="uni0411" unicode="&#x411;" horiz-adv-x="646" 
d="M82 716h451v-124h-316v-158h144q68 0 123.5 -25.5t88 -74.5t32.5 -116t-32.5 -116.5t-88.5 -75.5t-123 -26h-279v716zM367 125q47 0 75 26.5t28 66.5q0 41 -27 67t-76 26h-150v-186h150z" />
    <glyph glyph-name="uni0412" unicode="&#x412;" horiz-adv-x="647" 
d="M82 716h280q60 0 110.5 -25t79.5 -68t29 -94q0 -54 -26.5 -93.5t-69.5 -60.5v-8q56 -20 89 -63.5t33 -104.5q0 -59 -31.5 -104.5t-85 -70t-118.5 -24.5h-290v716zM352 424q44 0 70.5 24.5t26.5 61.5q0 36 -25.5 60.5t-67.5 24.5h-139v-171h135zM367 123q49 0 76.5 25.5
t27.5 66.5t-28 67t-80 26h-146v-185h150z" />
    <glyph glyph-name="uni0413" unicode="&#x413;" horiz-adv-x="547" 
d="M82 716h438v-128h-303v-588h-135v716z" />
    <glyph glyph-name="uni0414" unicode="&#x414;" horiz-adv-x="813" 
d="M766 128v-280h-129v152h-461v-152h-129v280h90q33 61 49 161.5t16 218.5v208h485v-588h79zM553 128v460h-217v-103q0 -224 -60 -357h277z" />
    <glyph glyph-name="uni0415" unicode="&#x415;" horiz-adv-x="593" 
d="M82 716h454v-128h-319v-166h287v-128h-287v-166h319v-128h-454v716z" />
    <glyph glyph-name="uni0416" unicode="&#x416;" horiz-adv-x="969" 
d="M6 8l267 345l-251 355v8h163l224 -327h8v327h135v-327h8l224 327h163v-8l-252 -355l267 -345v-8h-172l-230 313h-8v-313h-135v313h-8l-231 -313h-172v8z" />
    <glyph glyph-name="uni0417" unicode="&#x417;" horiz-adv-x="586" 
d="M134.5 31q-67.5 47 -92.5 137l122 48q13 -52 46 -80.5t81 -28.5t81.5 30t33.5 74q0 45 -37 75t-94 30h-58v113h52q49 0 82 25t33 72q0 38 -28.5 63.5t-72.5 25.5q-41 0 -68.5 -23.5t-39.5 -57.5l-115 47q22 61 79.5 106t145.5 45q67 0 119 -25t80.5 -69.5t28.5 -100.5
t-22 -92t-61 -62v-8q49 -23 78 -67t29 -106q0 -60 -31.5 -110t-87.5 -79t-127 -29q-89 0 -156.5 47z" />
    <glyph glyph-name="uni0418" unicode="&#x418;" horiz-adv-x="734" 
d="M82 716h133v-360l-8 -138h8l291 498h147v-716h-134v351l8 138h-8l-285 -489h-152v716z" />
    <glyph glyph-name="uni0419" unicode="&#x419;" horiz-adv-x="734" 
d="M82 716h133v-360l-8 -138h8l291 498h147v-716h-134v351l8 138h-8l-285 -489h-152v716zM300.5 780.5q-31.5 17.5 -50.5 49t-19 69.5h93q0 -19 12 -32.5t32 -13.5q19 0 31 13.5t12 32.5h92q0 -38 -18.5 -69.5t-49.5 -49t-67 -17.5t-67.5 17.5z" />
    <glyph glyph-name="uni041A" unicode="&#x41a;" horiz-adv-x="672" 
d="M82 716h135v-336h8l256 336h166v-8l-277 -353l295 -347v-8h-171l-269 319h-8v-319h-135v716z" />
    <glyph glyph-name="uni041B" unicode="&#x41b;" horiz-adv-x="741" 
d="M27 -3v127q10 -5 33 -5q39 0 61 23q17 19 24 60.5t7 117.5v396h508v-716h-135v588h-238v-323q0 -83 -16.5 -137.5t-50.5 -87.5q-52 -48 -148 -48q-28 0 -45 5z" />
    <glyph glyph-name="uni041C" unicode="&#x41c;" horiz-adv-x="900" 
d="M82 716h174l190 -503h8l190 503h175v-716h-134v353l8 119h-8l-182 -472h-105l-183 472h-8l8 -119v-353h-133v716z" />
    <glyph glyph-name="uni041D" unicode="&#x41d;" horiz-adv-x="735" 
d="M82 716h135v-286h301v286h135v-716h-135v302h-301v-302h-135v716z" />
    <glyph glyph-name="uni041E" unicode="&#x41e;" horiz-adv-x="840" 
d="M229.5 33.5q-85.5 49.5 -134.5 135.5t-49 189t49 189t134.5 135.5t190.5 49.5t190.5 -49.5t134.5 -135.5t49 -189t-49 -189t-134.5 -135.5t-190.5 -49.5t-190.5 49.5zM541 143q55 31 86.5 87t31.5 128t-31.5 128t-86.5 87t-121 31t-120.5 -31t-86 -87t-31.5 -128
t31.5 -128t86 -87t120.5 -31t121 31z" />
    <glyph glyph-name="uni041F" unicode="&#x41f;" horiz-adv-x="714" 
d="M82 716h550v-716h-135v588h-280v-588h-135v716z" />
    <glyph glyph-name="uni0420" unicode="&#x420;" horiz-adv-x="610" 
d="M82 716h252q68 0 124 -28.5t88 -80t32 -117.5t-32 -118t-88 -80.5t-124 -28.5h-117v-263h-135v716zM338 391q50 0 78.5 29t28.5 70t-28.5 69.5t-78.5 28.5h-121v-197h121z" />
    <glyph glyph-name="uni0421" unicode="&#x421;" horiz-adv-x="750" 
d="M231 33.5q-86 49.5 -135.5 135t-49.5 189.5t49.5 189.5t135.5 135t190 49.5q162 0 268 -117l-95 -92q-69 81 -172 81q-67 0 -122 -30.5t-86.5 -86.5t-31.5 -129t31.5 -129t86.5 -86.5t122 -30.5q113 0 189 94l96 -91q-53 -64 -125.5 -97.5t-160.5 -33.5q-104 0 -190 49.5
z" />
    <glyph glyph-name="uni0422" unicode="&#x422;" horiz-adv-x="588" 
d="M227 588h-200v128h535v-128h-200v-588h-135v588z" />
    <glyph glyph-name="uni0423" unicode="&#x423;" horiz-adv-x="636" 
d="M127.5 -12.5q-16.5 3.5 -31.5 10.5v128q37 -21 65 -21q21 0 36.5 9.5t26.5 32.5l25 51l-234 518h146l153 -362h8l155 362h144l-272 -599q-32 -70 -76 -101.5t-103 -31.5q-26 0 -42.5 3.5z" />
    <glyph glyph-name="uni0424" unicode="&#x424;" horiz-adv-x="846" 
d="M760.5 216.5q-38.5 -63.5 -108.5 -104.5t-162 -52v-108h-135v108q-92 11 -162 52t-108.5 104.5t-38.5 141.5t38.5 141.5t108.5 104.5t162 52v108h135v-108q92 -11 162 -52t108.5 -104.5t38.5 -141.5t-38.5 -141.5zM228 242.5q46 -46.5 127 -60.5v352q-81 -14 -127 -60.5
t-46 -115.5t46 -115.5zM618 243q46 47 46 115t-46 115t-128 61v-352q82 14 128 61z" />
    <glyph glyph-name="uni0425" unicode="&#x425;" horiz-adv-x="694" 
d="M253 374l-216 342h167l139 -234h8l138 234h168l-217 -342l235 -374h-168l-156 258h-8l-156 -258h-168z" />
    <glyph glyph-name="uni0426" unicode="&#x426;" horiz-adv-x="771" 
d="M593 0h-511v716h135v-588h283v588h135v-588h89v-296h-131v168z" />
    <glyph glyph-name="uni0427" unicode="&#x427;" horiz-adv-x="627" 
d="M432 309q-29 -23 -68 -36t-83 -13q-67 0 -120 27.5t-83 79.5t-30 122v227h136v-205q0 -59 34 -91t89 -32q39 0 69 13t56 40v275h134v-716h-134v309z" />
    <glyph glyph-name="uni0428" unicode="&#x428;" horiz-adv-x="953" 
d="M82 716h135v-588h192v588h135v-588h192v588h135v-716h-789v716z" />
    <glyph glyph-name="uni0429" unicode="&#x429;" horiz-adv-x="998" 
d="M820 0h-738v716h135v-588h192v588h135v-588h192v588h135v-588h80v-296h-131v168z" />
    <glyph glyph-name="uni042A" unicode="&#x42a;" horiz-adv-x="788" 
d="M218 593h-191v123h326v-245h132q72 0 131.5 -27t95 -80t35.5 -127t-35.5 -127.5t-95.5 -81.5t-131 -28h-267v593zM498 125q51 0 82.5 33t31.5 79t-31.5 79t-82.5 33h-145v-224h145z" />
    <glyph glyph-name="uni042B" unicode="&#x42b;" horiz-adv-x="898" 
d="M82 716h135v-245h132q72 0 131.5 -27t95 -80t35.5 -127t-35.5 -127.5t-95.5 -81.5t-131 -28h-267v716zM682 716h134v-716h-134v716zM361 125q52 0 83.5 33t31.5 79t-31.5 79t-83.5 33h-144v-224h144z" />
    <glyph glyph-name="uni042C" unicode="&#x42c;" horiz-adv-x="652" 
d="M82 716h135v-245h132q72 0 131.5 -27t95 -80t35.5 -127t-35.5 -127.5t-95.5 -81.5t-131 -28h-267v716zM361 125q52 0 83.5 33t31.5 79t-31.5 79t-83.5 33h-144v-224h144z" />
    <glyph glyph-name="uni042D" unicode="&#x42d;" horiz-adv-x="749" 
d="M521.5 682.5q84.5 -49.5 133 -135t48.5 -189.5t-48.5 -189.5t-133 -135t-189.5 -49.5q-87 0 -162 33.5t-127 97.5l95 91q37 -45 86 -69.5t108 -24.5q88 0 152 50t82 137h-314v118h314q-18 87 -82 137t-152 50q-55 0 -100 -21.5t-77 -59.5l-94 92q106 117 271 117
q105 0 189.5 -49.5z" />
    <glyph glyph-name="uni042E" unicode="&#x42e;" horiz-adv-x="1111" 
d="M881 682.5q86 -49.5 135 -135.5t49 -189t-49 -189t-135 -135.5t-191 -49.5q-95 0 -175 41.5t-131 114t-64 162.5h-103v-302h-135v716h135v-286h106q16 87 67.5 155.5t129.5 107.5t170 39q105 0 191 -49.5zM811 143q55 31 86.5 87t31.5 128t-31.5 128t-86.5 87t-121 31
t-120.5 -31t-86 -87t-31.5 -128t31.5 -128t86 -87t120.5 -31t121 31z" />
    <glyph glyph-name="uni042F" unicode="&#x42f;" horiz-adv-x="649" 
d="M30 8l191 275v7q-66 23 -109.5 77t-43.5 123q0 65 30 116.5t84 80.5t124 29h262v-716h-135v269h-63l-185 -269h-155v8zM433 393v198h-127q-48 0 -75.5 -29t-27.5 -70q0 -43 29.5 -71t75.5 -28h125z" />
    <glyph glyph-name="uni0430" unicode="&#x430;" horiz-adv-x="561" 
d="M87 31.5q-52 47.5 -52 124.5q0 51 27 90t74 60t104 21q79 0 135 -23v22q0 42 -31.5 68t-84.5 26q-36 0 -69.5 -16.5t-55.5 -43.5l-84 66q37 48 93 74t122 26q117 0 178 -54t61 -158v-314h-129v52h-8q-23 -30 -60.5 -49t-86.5 -19q-81 0 -133 47.5zM341.5 122.5
q33.5 36.5 33.5 85.5q-51 24 -107 24q-102 0 -102 -76q0 -31 22 -50.5t63 -19.5q57 0 90.5 36.5z" />
    <glyph glyph-name="uni0431" unicode="&#x431;" horiz-adv-x="620" 
d="M127.5 68.5q-75.5 84.5 -75.5 258.5q0 223 114 315q36 30 84 45.5t104 15.5q52 0 70 6.5t24 23.5h113q-8 -77 -55 -107t-143 -30q-74 0 -118 -34q-58 -44 -67 -119h8q28 37 71 60t104 23q67 0 121 -37.5t84.5 -99.5t30.5 -134q0 -76 -34.5 -138t-96.5 -97.5t-141 -35.5
q-122 0 -197.5 84.5zM395.5 123q32.5 18 51.5 52t19 80q0 45 -19 79t-51.5 52t-70.5 18t-70 -18t-51 -52t-19 -79q0 -70 40.5 -110t99.5 -40q38 0 70.5 18z" />
    <glyph glyph-name="uni0432" unicode="&#x432;" horiz-adv-x="537" 
d="M64 510h264q45 0 82 -17.5t57.5 -47t20.5 -64.5q0 -40 -17 -69.5t-46 -43.5v-8q37 -17 59 -48t22 -69q0 -44 -23.5 -76.5t-61 -49.5t-79.5 -17h-278v510zM307 309q23 0 38.5 14.5t15.5 36.5q0 23 -15 37t-39 14h-119v-102h119zM327 103q26 0 42.5 16t16.5 41
q0 24 -16.5 40.5t-42.5 16.5h-139v-114h139z" />
    <glyph glyph-name="uni0433" unicode="&#x433;" horiz-adv-x="464" 
d="M64 510h372v-112h-241v-398h-131v510z" />
    <glyph glyph-name="uni0434" unicode="&#x434;" horiz-adv-x="678" 
d="M33 115h59q20 33 33 92.5t13 120.5v182h433v-395h75v-267h-118v152h-378v-152h-117v267zM445 115v280h-183v-78q0 -54 -9.5 -106.5t-26.5 -95.5h219z" />
    <glyph glyph-name="uni0435" unicode="&#x435;" horiz-adv-x="587" 
d="M166 19q-61 35 -95.5 96.5t-34.5 138.5q0 73 34 135.5t94 99.5t134 37q79 0 136 -34t86.5 -93t29.5 -131q0 -23 -3 -44h-383q10 -61 48.5 -92.5t92.5 -31.5q45 0 77.5 19.5t51.5 52.5l106 -52q-78 -136 -237 -136q-76 0 -137 35zM424 317q-2 24 -17.5 47.5t-43 39
t-64.5 15.5q-47 0 -80.5 -27.5t-48.5 -74.5h254z" />
    <glyph glyph-name="uni0436" unicode="&#x436;" horiz-adv-x="796" 
d="M4 8l191 261l-181 233v8h149l161 -215h8v215h131v-215h8l162 215h149v-8l-181 -233l190 -261v-8h-149l-171 239h-8v-239h-131v239h-8l-170 -239h-150v8z" />
    <glyph glyph-name="uni0437" unicode="&#x437;" horiz-adv-x="525" 
d="M48 78l81 81q27 -32 61 -49t72 -17q43 0 68 16t25 45q0 25 -23 41.5t-63 16.5h-76v94h72q35 0 56.5 15t21.5 45q0 23 -21 39.5t-58 16.5q-74 0 -116 -51l-77 75q39 42 85 61t108 19q57 0 102 -20t70 -53.5t25 -73.5q0 -79 -60 -111v-8q39 -18 59.5 -48.5t20.5 -67.5
q0 -74 -58.5 -117t-160.5 -43q-131 0 -214 94z" />
    <glyph glyph-name="uni0438" unicode="&#x438;" horiz-adv-x="601" 
d="M64 510h131v-219l-8 -96h8l211 315h130v-510h-130v218l8 96h-8l-211 -314h-131v510z" />
    <glyph glyph-name="uni0439" unicode="&#x439;" horiz-adv-x="601" 
d="M64 510h131v-219l-8 -96h8l211 315h130v-510h-130v218l8 96h-8l-211 -314h-131v510zM233.5 616.5q-31.5 17.5 -50.5 48.5t-19 69h93q0 -19 12 -32t32 -13q19 0 31 13t12 32h92q0 -38 -18.5 -69t-49.5 -48.5t-67 -17.5t-67.5 17.5z" />
    <glyph glyph-name="uni043A" unicode="&#x43a;" horiz-adv-x="540" 
d="M64 510h131v-220h8l167 220h155v-8l-184 -234l194 -260v-8h-154l-178 244h-8v-244h-131v510z" />
    <glyph glyph-name="uni043B" unicode="&#x43b;" horiz-adv-x="655" 
d="M49 0v115q16 -5 34 -5q30 0 42.5 32.5t12.5 117.5v250h453v-510h-125v392h-204v-165q0 -127 -40.5 -181t-112.5 -54q-38 0 -60 8z" />
    <glyph glyph-name="uni043C" unicode="&#x43c;" horiz-adv-x="726" 
d="M63 510h155l142 -277h7l140 277h155v-510h-125v214l8 96h-8l-128 -246h-91l-129 246h-8l8 -96v-214h-126v510z" />
    <glyph glyph-name="uni043D" unicode="&#x43d;" horiz-adv-x="612" 
d="M64 510h131v-190h222v190h130v-510h-130v198h-222v-198h-131v510z" />
    <glyph glyph-name="uni043E" unicode="&#x43e;" horiz-adv-x="615" 
d="M167 19.5q-62 35.5 -96.5 97t-34.5 138.5q0 76 34.5 138t96.5 97.5t141 35.5q78 0 140 -35.5t96.5 -97.5t34.5 -138q0 -77 -34.5 -138.5t-96.5 -97t-140 -35.5q-79 0 -141 35.5zM378 123q32 18 51 52t19 80q0 45 -19 79t-51 52t-70 18t-70 -18t-51.5 -52t-19.5 -79
t19.5 -79.5t51.5 -52.5t70 -18t70 18z" />
    <glyph glyph-name="uni043F" unicode="&#x43f;" horiz-adv-x="601" 
d="M64 510h473v-510h-131v388h-211v-388h-131v510z" />
    <glyph glyph-name="uni0440" unicode="&#x440;" horiz-adv-x="627" 
d="M60 510h123v-62h8q21 33 61 55.5t92 22.5q69 0 125.5 -34.5t88.5 -96.5t32 -140q0 -79 -32 -140.5t-88.5 -96t-125.5 -34.5q-52 0 -92.5 22t-60.5 55h-8l8 -72v-205h-131v726zM390 124q32 19 51 53t19 78t-19 78t-51 52.5t-69 18.5q-36 0 -68 -18.5t-51 -52.5t-19 -78
t19 -78t51 -53t68 -19q37 0 69 19z" />
    <glyph glyph-name="uni0441" unicode="&#x441;" horiz-adv-x="573" 
d="M166 18.5q-61 34.5 -95.5 96.5t-34.5 140t34.5 139.5t95.5 96.5t138 35q85 0 146 -36.5t88 -103.5l-120 -50q-32 68 -114 68q-60 0 -98.5 -41t-38.5 -108q0 -68 38.5 -109t98.5 -41q83 0 120 72l119 -52q-33 -67 -94 -104t-145 -37q-77 0 -138 34.5z" />
    <glyph glyph-name="uni0442" unicode="&#x442;" horiz-adv-x="507" 
d="M188 388h-160v122h450v-122h-159v-388h-131v388z" />
    <glyph glyph-name="uni0443" unicode="&#x443;" horiz-adv-x="578" 
d="M223 24l-215 486h149l132 -317h8l127 317h146l-315 -726h-141z" />
    <glyph glyph-name="uni0444" unicode="&#x444;" horiz-adv-x="796" 
d="M713.5 125q-36.5 -57 -101.5 -92t-149 -45v-204h-131v204q-129 15 -207.5 86t-78.5 181t78.5 181t207.5 86v194h131v-194q84 -10 149 -45t101.5 -92t36.5 -130t-36.5 -130zM580.5 155q42.5 40 42.5 100t-42.5 100t-117.5 52v-304q75 12 117.5 52zM215.5 156
q42.5 -40 116.5 -53v304q-74 -13 -116.5 -53t-42.5 -99t42.5 -99z" />
    <glyph glyph-name="uni0445" unicode="&#x445;" horiz-adv-x="536" 
d="M190 259l-176 251h155l97 -146h6l91 146h160l-179 -251l179 -259h-155l-98 149h-6l-96 -149h-155z" />
    <glyph glyph-name="uni0446" unicode="&#x446;" horiz-adv-x="642" 
d="M491 0h-427v510h131v-393h211v393h131v-393h72v-269h-118v152z" />
    <glyph glyph-name="uni0447" unicode="&#x447;" horiz-adv-x="553" 
d="M357 179q-48 -21 -111 -21q-94 0 -150.5 55t-56.5 147v150h133v-140q0 -93 100 -93q24 0 46.5 6t38.5 18v209h131v-510h-131v179z" />
    <glyph glyph-name="uni0448" unicode="&#x448;" horiz-adv-x="842" 
d="M64 510h128v-393h155v393h128v-393h154v393h129v-510h-694v510z" />
    <glyph glyph-name="uni0449" unicode="&#x449;" horiz-adv-x="886" 
d="M712 0h-648v510h128v-393h155v393h128v-393h154v393h129v-393h72v-269h-118v152z" />
    <glyph glyph-name="uni044A" unicode="&#x44a;" horiz-adv-x="626" 
d="M157 407h-129v103h253v-170h129q85 0 136.5 -45.5t51.5 -124.5t-51.5 -124.5t-136.5 -45.5h-253v407zM405 103q33 0 53 17.5t20 49.5t-20 49.5t-53 17.5h-124v-134h124z" />
    <glyph glyph-name="uni044B" unicode="&#x44b;" horiz-adv-x="759" 
d="M64 510h124v-170h129q85 0 137 -45.5t52 -124.5t-52 -124.5t-137 -45.5h-253v510zM570 510h124v-510h-124v510zM312 103q34 0 54 17.5t20 49.5t-20 49.5t-54 17.5h-124v-134h124z" />
    <glyph glyph-name="uni044C" unicode="&#x44c;" horiz-adv-x="534" 
d="M64 510h124v-170h129q85 0 137 -45.5t52 -124.5t-52 -124.5t-137 -45.5h-253v510zM312 103q34 0 54 17.5t20 49.5t-20 49.5t-54 17.5h-124v-134h124z" />
    <glyph glyph-name="uni044D" unicode="&#x44d;" horiz-adv-x="562" 
d="M118.5 21.5q-59.5 37.5 -88.5 104.5l104 46q18 -38 50 -59t78 -21q53 0 91 31t51 84h-210v94h210q-12 54 -50.5 85.5t-91.5 31.5q-41 0 -74 -20t-49 -56l-104 43q27 68 85 104.5t142 36.5q77 0 137 -34.5t93.5 -96.5t33.5 -140q0 -79 -33.5 -140.5t-93.5 -96t-137 -34.5
q-84 0 -143.5 37.5z" />
    <glyph glyph-name="uni044E" unicode="&#x44e;" horiz-adv-x="855" 
d="M422 11q-56 27 -92.5 76t-47.5 111h-84v-198h-131v510h131v-190h86q13 60 49.5 106.5t91.5 73t122 26.5q78 0 140 -35.5t96.5 -97.5t34.5 -138q0 -77 -34.5 -139t-96 -97t-140.5 -35q-69 0 -125 27zM617 123q32 18 51.5 52.5t19.5 79.5t-19.5 79t-51.5 52t-70 18t-70 -18
t-51 -52t-19 -79q0 -46 19 -80t51 -52t70 -18t70 18z" />
    <glyph glyph-name="uni044F" unicode="&#x44f;" horiz-adv-x="530" 
d="M4 8l129 172l-2 7q-47 18 -76 60.5t-29 94.5q0 48 24.5 86.5t66.5 60t93 21.5h256v-510h-125v171h-74l-124 -171h-139v8zM341 272v135h-118q-32 0 -52 -18.5t-20 -48.5q0 -31 20 -49.5t52 -18.5h118z" />
    <glyph glyph-name="uni0450" unicode="&#x450;" horiz-adv-x="587" 
d="M166 19q-61 35 -95.5 96.5t-34.5 138.5q0 73 34 135.5t94 99.5t134 37q79 0 136 -34t86.5 -93t29.5 -131q0 -23 -3 -44h-383q10 -61 48.5 -92.5t92.5 -31.5q45 0 77.5 19.5t51.5 52.5l106 -52q-78 -136 -237 -136q-76 0 -137 35zM424 317q-2 24 -17.5 47.5t-43 39
t-64.5 15.5q-47 0 -80.5 -27.5t-48.5 -74.5h254zM155 744h153l42 -136h-106z" />
    <glyph glyph-name="uni0451" unicode="&#x451;" horiz-adv-x="587" 
d="M166 19q-61 35 -95.5 96.5t-34.5 138.5q0 73 34 135.5t94 99.5t134 37q79 0 136 -34t86.5 -93t29.5 -131q0 -23 -3 -44h-383q10 -61 48.5 -92.5t92.5 -31.5q45 0 77.5 19.5t51.5 52.5l106 -52q-78 -136 -237 -136q-76 0 -137 35zM424 317q-2 24 -17.5 47.5t-43 39
t-64.5 15.5q-47 0 -80.5 -27.5t-48.5 -74.5h254zM151 628q-21 21 -21 51t21 50.5t51 20.5t50.5 -20.5t20.5 -50.5t-20.5 -51t-50.5 -21t-51 21zM342 628q-21 21 -21 51t21 50.5t50 20.5q31 0 51.5 -20.5t20.5 -50.5t-20.5 -51t-51.5 -21q-29 0 -50 21z" />
    <glyph glyph-name="uni0452" unicode="&#x452;" horiz-adv-x="602" 
d="M312 -219v127q26 -14 54 -14q45 0 45 59v348q0 49 -26.5 76t-70.5 27q-52 0 -85.5 -42t-33.5 -103v-259h-131v571h-58v91h58v54h131v-54h140v-91h-140v-36l-8 -89h8q22 36 64 58t91 22q93 0 142.5 -55.5t49.5 -153.5v-367q0 -90 -45 -133t-116 -43q-41 0 -69 7z" />
    <glyph glyph-name="uni0453" unicode="&#x453;" horiz-adv-x="464" 
d="M64 510h372v-112h-241v-398h-131v510zM239 744h153l-90 -136h-105z" />
    <glyph glyph-name="uni0454" unicode="&#x454;" horiz-adv-x="562" 
d="M164.5 18.5q-60.5 34.5 -94.5 96t-34 140.5q0 78 34.5 139.5t95.5 96.5t136 35q84 0 141 -36.5t84 -104.5l-104 -43q-17 36 -48.5 56t-72.5 20q-53 0 -92.5 -31.5t-51.5 -85.5h210v-94h-210q13 -53 52 -84t92 -31q89 0 126 80l104 -46q-29 -67 -87.5 -104.5t-142.5 -37.5
q-77 0 -137.5 34.5z" />
    <glyph glyph-name="uni0455" unicode="&#x455;" horiz-adv-x="505" 
d="M107.5 22q-57.5 38 -80.5 99l117 51q16 -36 45.5 -54.5t68.5 -18.5q36 0 60 11.5t24 37.5q0 25 -22 37.5t-66 22.5l-60 13q-62 15 -103 54.5t-41 98.5q0 44 26.5 79t72 54t100.5 19q158 0 211 -111l-112 -49q-30 54 -96 54q-34 0 -54 -12.5t-20 -31.5q0 -36 68 -54
l75 -18q76 -19 114.5 -58t38.5 -96q0 -49 -28.5 -86.5t-78 -58.5t-109.5 -21q-93 0 -150.5 38z" />
    <glyph glyph-name="uni0456" unicode="&#x456;" horiz-adv-x="276" 
d="M78 591q-25 25 -25 60t25 59.5t60 24.5t59.5 -24.5t24.5 -59.5t-24.5 -60t-59.5 -25t-60 25zM72 510h131v-510h-131v510z" />
    <glyph glyph-name="uni0457" unicode="&#x457;" horiz-adv-x="276" 
d="M5.5 630.5q-20.5 20.5 -20.5 48.5q0 29 20.5 49t48.5 20q29 0 49 -20t20 -49q0 -28 -20 -48.5t-49 -20.5q-28 0 -48.5 20.5zM173.5 630.5q-20.5 20.5 -20.5 48.5q0 29 20.5 49t48.5 20q29 0 49 -20t20 -49q0 -28 -20 -48.5t-49 -20.5q-28 0 -48.5 20.5zM72 510h131v-510
h-131v510z" />
    <glyph glyph-name="uni0458" unicode="&#x458;" horiz-adv-x="276" 
d="M78 591q-25 25 -25 60t25 59.5t60 24.5t59.5 -24.5t24.5 -59.5t-24.5 -60t-59.5 -25t-60 25zM-26 -219v127q26 -14 53 -14q24 0 34.5 14.5t10.5 44.5v557h131v-560q0 -90 -45 -133t-116 -43q-40 0 -68 7z" />
    <glyph glyph-name="uni0459" unicode="&#x459;" horiz-adv-x="936" 
d="M49 0v115q16 -5 34 -5q30 0 42.5 32.5t12.5 117.5v250h453v-179h130q81 0 132.5 -44.5t51.5 -120.5q0 -77 -51.5 -121.5t-132.5 -44.5h-255v392h-204v-165q0 -127 -40.5 -181t-112.5 -54q-38 0 -60 8zM715 103q33 0 51.5 16.5t18.5 46.5t-18.5 46t-51.5 16h-124v-125h124
z" />
    <glyph glyph-name="uni045A" unicode="&#x45a;" horiz-adv-x="894" 
d="M64 510h131v-179h198v179h131v-179h155q81 0 132.5 -44.5t51.5 -120.5q0 -77 -51.5 -121.5t-132.5 -44.5h-286v228h-198v-228h-131v510zM671 103q35 0 53.5 16t18.5 47q0 30 -18.5 46t-53.5 16h-147v-125h147z" />
    <glyph glyph-name="uni045B" unicode="&#x45b;" horiz-adv-x="602" 
d="M492.5 470.5q49.5 -55.5 49.5 -153.5v-317h-131v301q0 49 -26.5 76t-70.5 27q-52 0 -85.5 -42t-33.5 -103v-259h-131v571h-58v91h58v54h131v-54h140v-91h-140v-36l-8 -89h8q22 36 64 58t91 22q93 0 142.5 -55.5z" />
    <glyph glyph-name="uni045C" unicode="&#x45c;" horiz-adv-x="540" 
d="M64 510h131v-220h8l167 220h155v-8l-184 -234l194 -260v-8h-154l-178 244h-8v-244h-131v510zM259 744h153l-90 -136h-105z" />
    <glyph glyph-name="uni045D" unicode="&#x45d;" horiz-adv-x="601" 
d="M64 510h131v-219l-8 -96h8l211 315h130v-510h-130v218l8 96h-8l-211 -314h-131v510zM158 744h153l42 -136h-106z" />
    <glyph glyph-name="uni045E" unicode="&#x45e;" horiz-adv-x="578" 
d="M223 24l-215 486h149l132 -317h8l127 317h146l-315 -726h-141zM223.5 616.5q-31.5 17.5 -50.5 48.5t-19 69h93q0 -19 12 -32t32 -13q19 0 31 13t12 32h92q0 -38 -18.5 -69t-49.5 -48.5t-67 -17.5t-67.5 17.5z" />
    <glyph glyph-name="uni045F" unicode="&#x45f;" horiz-adv-x="608" 
d="M245 0h-181v510h131v-389h218v389h130v-510h-180v-152h-118v152z" />
    <glyph glyph-name="uni0490" unicode="&#x490;" horiz-adv-x="549" 
d="M72 716h319v123h134v-251h-318v-588h-135v716z" />
    <glyph glyph-name="uni0491" unicode="&#x491;" horiz-adv-x="447" 
d="M56 510h254v107h113v-219h-236v-398h-131v510z" />
    <glyph glyph-name="uni04AE" unicode="&#x4ae;" horiz-adv-x="642" 
d="M256 333l-241 383h161l143 -237h8l138 237h163l-237 -383v-333h-135v333z" />
    <glyph glyph-name="uni04AF" unicode="&#x4af;" horiz-adv-x="561" 
d="M214 1l-207 509h147l126 -345l129 345h145l-209 -509v-217h-131v217z" />
    <glyph glyph-name="uni04B0" unicode="&#x4b0;" horiz-adv-x="642" 
d="M256 263h-173v98h155l-223 355h161l143 -237h8l138 237h163l-220 -355h155v-98h-172v-263h-135v263z" />
    <glyph glyph-name="uni04B1" unicode="&#x4b1;" horiz-adv-x="561" 
d="M214 0h-142v90h105l-15 36l-155 384h147l126 -345l129 345h145l-158 -384l-15 -36h105v-90h-141v-216h-131v216z" />
    <glyph glyph-name="uni0E3F" unicode="&#xe3f;" horiz-adv-x="618" 
d="M264 0h-192v684h192v100h89v-100q56 -1 104 -25t76 -64.5t28 -89.5q0 -53 -25 -89.5t-67 -56.5v-8q55 -21 86 -61t31 -99t-30 -102t-82 -66t-117 -23h-4v-100h-89v100zM264 406v159h-61v-159h61zM413.5 430q21.5 22 21.5 55t-21.5 56t-58.5 24h-2v-159q39 2 60.5 24z
M264 120v174h-61v-174h61zM359 120q46 1 71.5 25.5t25.5 62.5t-25.5 61.5t-73.5 24.5h-4v-174h6z" />
    <glyph glyph-name="Wgrave" unicode="&#x1e80;" horiz-adv-x="984" 
d="M17 716h150l98 -402l12 -75h8l16 75l126 402h133l123 -402l16 -73h8l12 73l97 402h150l-185 -716h-145l-122 432l-16 77h-8l-16 -77l-128 -432h-139zM352 908h153l42 -136h-106z" />
    <glyph glyph-name="wgrave" unicode="&#x1e81;" horiz-adv-x="833" 
d="M7 510h147l88 -331h7l102 331h134l102 -331h7l88 331h145l-163 -510h-141l-104 330h-7l-103 -330h-140zM275 744h153l42 -136h-106z" />
    <glyph glyph-name="Wacute" unicode="&#x1e82;" horiz-adv-x="984" 
d="M17 716h150l98 -402l12 -75h8l16 75l126 402h133l123 -402l16 -73h8l12 73l97 402h150l-185 -716h-145l-122 432l-16 77h-8l-16 -77l-128 -432h-139zM483 908h153l-90 -136h-105z" />
    <glyph glyph-name="wacute" unicode="&#x1e83;" horiz-adv-x="833" 
d="M7 510h147l88 -331h7l102 331h134l102 -331h7l88 331h145l-163 -510h-141l-104 330h-7l-103 -330h-140zM406 744h153l-90 -136h-105z" />
    <glyph glyph-name="Wdieresis" unicode="&#x1e84;" horiz-adv-x="984" 
d="M17 716h150l98 -402l12 -75h8l16 75l126 402h133l123 -402l16 -73h8l12 73l97 402h150l-185 -716h-145l-122 432l-16 77h-8l-16 -77l-128 -432h-139zM348 792.5q-21 21.5 -21 50.5q0 30 21 51t51 21t50.5 -21t20.5 -51t-20.5 -51t-50.5 -21t-51 21.5zM539 792.5
q-21 21.5 -21 50.5q0 30 21 51t50 21q31 0 51.5 -21t20.5 -51t-21 -51t-51 -21q-29 0 -50 21.5z" />
    <glyph glyph-name="wdieresis" unicode="&#x1e85;" horiz-adv-x="833" 
d="M7 510h147l88 -331h7l102 331h134l102 -331h7l88 331h145l-163 -510h-141l-104 330h-7l-103 -330h-140zM271 628q-21 21 -21 51t21 50.5t51 20.5t50.5 -20.5t20.5 -50.5t-20.5 -51t-50.5 -21t-51 21zM462 628q-21 21 -21 51t21 50.5t50 20.5q31 0 51.5 -20.5t20.5 -50.5
t-20.5 -51t-51.5 -21q-29 0 -50 21z" />
    <glyph glyph-name="Ygrave" unicode="&#x1ef2;" horiz-adv-x="642" 
d="M256 333l-241 383h161l143 -237h8l138 237h163l-237 -383v-333h-135v333zM179 908h153l42 -136h-106z" />
    <glyph glyph-name="ygrave" unicode="&#x1ef3;" horiz-adv-x="578" 
d="M223 24l-215 486h149l132 -317h8l127 317h146l-315 -726h-141zM148 744h153l42 -136h-106z" />
    <glyph glyph-name="uni2000" unicode="&#x2000;" horiz-adv-x="415" 
d="M0 0z" />
    <glyph glyph-name="uni2001" unicode="&#x2001;" horiz-adv-x="830" 
d="M0 0z" />
    <glyph glyph-name="uni2002" unicode="&#x2002;" horiz-adv-x="415" 
d="M0 0z" />
    <glyph glyph-name="uni2003" unicode="&#x2003;" horiz-adv-x="830" 
d="M0 0z" />
    <glyph glyph-name="uni2004" unicode="&#x2004;" horiz-adv-x="275" 
d="M0 0z" />
    <glyph glyph-name="uni2005" unicode="&#x2005;" horiz-adv-x="207" 
d="M0 0z" />
    <glyph glyph-name="uni2006" unicode="&#x2006;" horiz-adv-x="138" 
d="M0 0z" />
    <glyph glyph-name="uni2007" unicode="&#x2007;" 
d="M0 0z" />
    <glyph glyph-name="uni2008" unicode="&#x2008;" horiz-adv-x="232" 
d="M0 0z" />
    <glyph glyph-name="uni2009" unicode="&#x2009;" horiz-adv-x="138" 
d="M0 0z" />
    <glyph glyph-name="uni200A" unicode="&#x200a;" horiz-adv-x="70" 
d="M0 0z" />
    <glyph glyph-name="endash" unicode="&#x2013;" horiz-adv-x="625" 
d="M63 368h499v-116h-499v116z" />
    <glyph glyph-name="emdash" unicode="&#x2014;" horiz-adv-x="931" 
d="M63 368h805v-116h-805v116z" />
    <glyph glyph-name="uni2015" unicode="&#x2015;" horiz-adv-x="1070" 
d="M63 368h944v-116h-944v116z" />
    <glyph glyph-name="quoteleft" unicode="&#x2018;" horiz-adv-x="269" 
d="M73.5 475.5q-25.5 25.5 -25.5 61.5q0 18 6 32.5t19 33.5l87 129l59 -39l-51 -78q23 -9 38 -29.5t15 -48.5q0 -36 -25 -61.5t-61 -25.5t-61.5 25.5z" />
    <glyph glyph-name="quoteright" unicode="&#x2019;" horiz-adv-x="269" 
d="M50 489l51 78q-23 9 -38 30t-15 48q0 36 25.5 61.5t61.5 25.5t61 -25.5t25 -61.5q0 -18 -6 -32.5t-19 -33.5l-87 -129z" />
    <glyph glyph-name="quotesinglbase" unicode="&#x201a;" horiz-adv-x="269" 
d="M50 -78l57 77q-26 7 -42.5 29t-16.5 50q0 36 25.5 61.5t61.5 25.5t61 -25.5t25 -61.5q0 -18 -6 -32.5t-19 -33.5l-87 -129z" />
    <glyph glyph-name="quotedblleft" unicode="&#x201c;" horiz-adv-x="488" 
d="M73.5 475.5q-25.5 25.5 -25.5 61.5q0 18 6 32.5t19 33.5l87 129l59 -39l-51 -78q23 -9 38 -29.5t15 -48.5q0 -36 -25 -61.5t-61 -25.5t-61.5 25.5zM292.5 475.5q-25.5 25.5 -25.5 61.5q0 18 6 32.5t19 33.5l87 129l59 -39l-51 -78q23 -9 38 -29.5t15 -48.5
q0 -36 -25 -61.5t-61 -25.5t-61.5 25.5z" />
    <glyph glyph-name="quotedblright" unicode="&#x201d;" horiz-adv-x="488" 
d="M50 489l57 77q-26 7 -42.5 29t-16.5 50q0 36 25.5 61.5t61.5 25.5t61 -25.5t25 -61.5q0 -18 -6 -32.5t-19 -33.5l-87 -129zM269 489l57 77q-26 7 -42.5 29t-16.5 50q0 36 25.5 61.5t61.5 25.5t61 -25.5t25 -61.5q0 -18 -6 -32.5t-19 -33.5l-87 -129z" />
    <glyph glyph-name="quotedblbase" unicode="&#x201e;" horiz-adv-x="479" 
d="M50 -78l57 77q-26 7 -42.5 29t-16.5 50q0 36 25.5 61.5t61.5 25.5t61 -25.5t25 -61.5q0 -18 -6 -32.5t-19 -33.5l-87 -129zM259 -78l57 77q-26 7 -42.5 29t-16.5 50q0 36 25.5 61.5t61.5 25.5t61 -25.5t25 -61.5q0 -18 -6 -32.5t-19 -33.5l-87 -129z" />
    <glyph glyph-name="dagger" unicode="&#x2020;" horiz-adv-x="463" 
d="M173 479h-141v106h141v131h116v-131h142v-106h-142v-321h-116v321z" />
    <glyph glyph-name="daggerdbl" unicode="&#x2021;" horiz-adv-x="463" 
d="M173 147h-141v106h141v226h-141v106h141v131h116v-131h142v-106h-142v-226h142v-106h-142v-147h-116v147z" />
    <glyph glyph-name="bullet" unicode="&#x2022;" horiz-adv-x="421" 
d="M145.5 210.5q-30.5 17.5 -48 48t-17.5 65.5t17.5 65.5t48 48t65.5 17.5t65 -17.5t47.5 -48t17.5 -65.5t-17.5 -65.5t-47.5 -48t-65 -17.5t-65.5 17.5z" />
    <glyph glyph-name="ellipsis" unicode="&#x2026;" horiz-adv-x="769" 
d="M81.5 19.5q-25.5 25.5 -25.5 61.5t25.5 61t61.5 25t61.5 -25t25.5 -61t-25.5 -61.5t-61.5 -25.5t-61.5 25.5zM322.5 19.5q-25.5 25.5 -25.5 61.5t25.5 61t61.5 25t61.5 -25t25.5 -61t-25.5 -61.5t-61.5 -25.5t-61.5 25.5zM564.5 19.5q-25.5 25.5 -25.5 61.5t25.5 61
t61.5 25t61.5 -25t25.5 -61t-25.5 -61.5t-61.5 -25.5t-61.5 25.5z" />
    <glyph glyph-name="perthousand" unicode="&#x2030;" horiz-adv-x="1110" 
d="M126.5 381q-40.5 23 -63.5 62t-23 86t23 86t63.5 62t90.5 23q49 0 89.5 -23t63.5 -62t23 -86t-23 -86t-63.5 -62t-89.5 -23q-50 0 -90.5 23zM167 37l444 663l79 -53l-444 -663zM266.5 476q19.5 20 19.5 53t-19.5 53t-49.5 20q-29 0 -49 -20.5t-20 -52.5t20 -52.5
t49 -20.5q30 0 49.5 20zM550.5 7q-40.5 23 -63.5 62t-23 86t23 86t63.5 62t90.5 23q40 0 72.5 -17.5t53.5 -47.5q21 30 53.5 47.5t72.5 17.5q50 0 90.5 -23t63.5 -62t23 -86t-23 -86t-63.5 -62t-90.5 -23q-40 0 -72.5 17.5t-53.5 47.5q-21 -30 -53.5 -47.5t-72.5 -17.5
q-50 0 -90.5 23zM690.5 102q19.5 20 19.5 53t-19.5 53t-49.5 20q-29 0 -49 -20.5t-20 -52.5t20 -52.5t49 -20.5q30 0 49.5 20zM942.5 102q19.5 20 19.5 53t-19.5 53t-49.5 20q-29 0 -49 -20.5t-20 -52.5t20 -52.5t49 -20.5q30 0 49.5 20z" />
    <glyph glyph-name="uni2031" unicode="&#x2031;" horiz-adv-x="1346" 
d="M118.5 381q-40.5 23 -63.5 62t-23 86t23 86t63.5 62t89.5 23q50 0 90.5 -23t63.5 -62t23 -86t-23 -86t-63.5 -62t-90.5 -23q-49 0 -89.5 23zM159 37l444 663l79 -53l-444 -663zM257.5 476q19.5 20 19.5 53t-19.5 53t-49.5 20q-29 0 -49 -20.5t-20 -52.5t20 -52.5
t49 -20.5q30 0 49.5 20zM542.5 7q-40.5 23 -63.5 62t-23 86t23 86t63.5 62t89.5 23q40 0 72.5 -17.5t54.5 -47.5q21 30 53.5 47.5t72.5 17.5t72.5 -17.5t53.5 -47.5q21 30 54 47.5t73 17.5q49 0 89.5 -23t63.5 -62t23 -86t-23 -86t-63.5 -62t-89.5 -23q-40 0 -73 17.5
t-54 47.5q-21 -30 -53.5 -47.5t-72.5 -17.5t-72.5 17.5t-53.5 47.5q-22 -30 -54.5 -47.5t-72.5 -17.5q-49 0 -89.5 23zM681.5 102q19.5 20 19.5 53t-19.5 53t-49.5 20q-29 0 -49 -20.5t-20 -52.5t20 -52.5t49 -20.5q30 0 49.5 20zM934.5 102q19.5 20 19.5 53t-19.5 53
t-49.5 20q-29 0 -49 -20.5t-20 -52.5t20 -52.5t49 -20.5q30 0 49.5 20zM1187 102.5q20 20.5 20 52.5t-20 52.5t-49 20.5q-30 0 -49.5 -20t-19.5 -53t19.5 -53t49.5 -20q29 0 49 20.5z" />
    <glyph glyph-name="guilsinglleft" unicode="&#x2039;" horiz-adv-x="387" 
d="M40 271l212 230l75 -69l-150 -161l150 -161l-75 -69z" />
    <glyph glyph-name="guilsinglright" unicode="&#x203a;" horiz-adv-x="387" 
d="M60 110l150 161l-150 161l75 69l212 -230l-212 -230z" />
    <glyph glyph-name="exclamdbl" unicode="&#x203c;" horiz-adv-x="535" 
d="M76 510v206h134v-206l-12 -264h-110zM81.5 19.5q-25.5 25.5 -25.5 61.5t25.5 61t61.5 25t61.5 -25t25.5 -61t-25.5 -61.5t-61.5 -25.5t-61.5 25.5zM325 510v206h134v-206l-12 -264h-110zM330.5 19.5q-25.5 25.5 -25.5 61.5t25.5 61t61.5 25t61.5 -25t25.5 -61
t-25.5 -61.5t-61.5 -25.5t-61.5 25.5z" />
    <glyph glyph-name="uni2042" unicode="&#x2042;" horiz-adv-x="914" 
d="M311 429l66 91l-3 9l-100 35l30 88l99 -36l8 4v107h93v-107l8 -4l99 36l31 -88l-101 -35l-3 -9l67 -91l-75 -54l-68 93h-9l-68 -93zM77 27l66 91l-3 9l-100 35l31 88l99 -36l7 4v107h94v-107l7 -4l99 36l31 -88l-100 -35l-3 -9l66 -91l-75 -54l-68 93h-8l-68 -93zM543 27
l66 91l-3 9l-100 35l31 88l99 -36l7 4v107h94v-107l7 -4l99 36l31 -88l-100 -35l-3 -9l66 -91l-75 -54l-68 93h-8l-68 -93z" />
    <glyph glyph-name="uni2043" unicode="&#x2043;" horiz-adv-x="416" 
d="M72 372h272v-124h-272v124z" />
    <glyph glyph-name="fraction" unicode="&#x2044;" horiz-adv-x="192" 
d="M-176 37l465 694l79 -53l-465 -694z" />
    <glyph glyph-name="uni2047" unicode="&#x2047;" horiz-adv-x="1006" 
d="M196 279q0 48 20.5 83t71.5 80q30 27 43.5 47t13.5 46q0 31 -23 52.5t-61 21.5q-40 0 -65.5 -23.5t-36.5 -58.5l-115 48q19 64 74.5 110.5t139.5 46.5q63 0 112 -25t76.5 -68.5t27.5 -96.5q0 -52 -22 -89t-65 -78q-34 -32 -46.5 -55t-12.5 -58v-16h-132v33zM199.5 19.5
q-25.5 25.5 -25.5 61.5t25.5 61t61.5 25t61 -25t25 -61t-25 -61.5t-61 -25.5t-61.5 25.5zM671 279q0 48 20.5 83t71.5 80q30 27 43.5 47t13.5 46q0 31 -23 52.5t-61 21.5q-40 0 -65.5 -23.5t-36.5 -58.5l-115 48q19 64 74.5 110.5t139.5 46.5q63 0 112 -25t76.5 -68.5
t27.5 -96.5q0 -52 -22 -89t-65 -78q-34 -32 -46.5 -55t-12.5 -58v-16h-132v33zM674.5 19.5q-25.5 25.5 -25.5 61.5t25.5 61t61.5 25t61 -25t25 -61t-25 -61.5t-61 -25.5t-61.5 25.5z" />
    <glyph glyph-name="uni2048" unicode="&#x2048;" horiz-adv-x="781" 
d="M196 279q0 48 20.5 83t71.5 80q30 27 43.5 47t13.5 46q0 31 -23 52.5t-61 21.5q-40 0 -65.5 -23.5t-36.5 -58.5l-115 48q19 64 74.5 110.5t139.5 46.5q63 0 112 -25t76.5 -68.5t27.5 -96.5q0 -52 -22 -89t-65 -78q-34 -32 -46.5 -55t-12.5 -58v-16h-132v33zM199.5 19.5
q-25.5 25.5 -25.5 61.5t25.5 61t61.5 25t61 -25t25 -61t-25 -61.5t-61 -25.5t-61.5 25.5zM571 510v206h134v-206l-12 -264h-110zM576.5 19.5q-25.5 25.5 -25.5 61.5t25.5 61t61.5 25t61.5 -25t25.5 -61t-25.5 -61.5t-61.5 -25.5t-61.5 25.5z" />
    <glyph glyph-name="uni2049" unicode="&#x2049;" horiz-adv-x="777" 
d="M443 279q0 48 20.5 83t71.5 80q30 27 43.5 47t13.5 46q0 31 -23 52.5t-61 21.5q-40 0 -65.5 -23.5t-36.5 -58.5l-115 48q19 64 74.5 110.5t139.5 46.5q63 0 112 -25t76.5 -68.5t27.5 -96.5q0 -52 -22 -89t-65 -78q-34 -32 -46.5 -55t-12.5 -58v-16h-132v33zM446.5 19.5
q-25.5 25.5 -25.5 61.5t25.5 61t61.5 25t61 -25t25 -61t-25 -61.5t-61 -25.5t-61.5 25.5zM76 510v206h134v-206l-12 -264h-110zM81.5 19.5q-25.5 25.5 -25.5 61.5t25.5 61t61.5 25t61.5 -25t25.5 -61t-25.5 -61.5t-61.5 -25.5t-61.5 25.5z" />
    <glyph glyph-name="uni204E" unicode="&#x204e;" horiz-adv-x="428" 
d="M60 37l72 98l-3 9l-107 38l31 89l105 -37l9 3v114h94v-114l8 -3l106 37l31 -89l-107 -38l-3 -9l72 -98l-76 -55l-74 100h-8l-74 -100z" />
    <glyph glyph-name="uni2051" unicode="&#x2051;" horiz-adv-x="448" 
d="M77 429l66 91l-3 9l-100 35l31 88l99 -36l7 4v107h94v-107l7 -4l99 36l31 -88l-100 -35l-3 -9l66 -91l-75 -54l-68 93h-8l-68 -93zM77 32l66 90l-3 9l-100 35l31 88l99 -35l7 4v106h94v-106l7 -4l99 35l31 -88l-100 -35l-3 -9l66 -90l-75 -55l-68 94h-8l-68 -94z" />
    <glyph glyph-name="uni2055" unicode="&#x2055;" horiz-adv-x="685" 
d="M291 202l-115 -115l-72 72l115 115h-163v102h163l-115 115l72 72l115 -115v163h103v-163l114 115l73 -72l-116 -115h164v-102h-164l116 -115l-73 -72l-114 115v-163h-103v163z" />
    <glyph glyph-name="uni2074" unicode="&#x2074;" horiz-adv-x="362" 
d="M200 415h-172v64l171 237h87v-227h48v-74h-48v-65h-86v65zM200 489v107h-8l-76 -107h84z" />
    <glyph glyph-name="franc" unicode="&#x20a3;" horiz-adv-x="580" 
d="M220 568v-176h286v-116h-286v-86h128v-76h-128v-114h-122v114h-70v76h70v494h440v-116h-318z" />
    <glyph glyph-name="lira" unicode="&#x20a4;" horiz-adv-x="560" 
d="M540 131q-38 -131 -172 -131h-318v106q32 12 54.5 34t33.5 49h-98v76h105q-4 26 -20 61h-85v76h47q-22 47 -22 96q0 54 27.5 100.5t77 74t111.5 27.5q86 0 139 -42.5t72 -105.5l-115 -47q-9 33 -33 56t-63 23q-42 0 -67 -26t-25 -64q0 -42 25 -92h155v-76h-120
q13 -35 14 -61h106v-76h-114q-13 -39 -43 -66l5 -7h149q56 0 73 59z" />
    <glyph glyph-name="uni20A9" unicode="&#x20a9;" horiz-adv-x="1016" 
d="M141 326h-102v76h83l-76 282h146l68 -282h93l90 282h135l88 -282h92l68 282h146l-74 -282h74v-76h-93l-85 -326h-139l-95 326h-100l-100 -326h-132zM538 402l-7 25l-16 83h-8l-16 -83l-8 -25h55zM305 224l15 64l11 38h-54l9 -38l11 -64h8zM720 225l12 63l9 38h-53l11 -38
l14 -63h7z" />
    <glyph glyph-name="dong" unicode="&#x20ab;" horiz-adv-x="604" 
d="M154.5 16q-53.5 32 -86 89.5t-32.5 131.5t32.5 131.5t86 89.5t114.5 32q52 0 88 -20.5t57 -54.5h8l-8 70v54h-140v74h140v71h130v-71h60v-74h-60v-539h-122v59h-8q-21 -34 -57 -54.5t-88 -20.5q-61 0 -114.5 32zM386 140q36 35 36 97t-36 97t-90 35q-55 0 -92 -35.5
t-37 -96.5t37 -96.5t92 -35.5q54 0 90 35zM68 -84h476v-96h-476v96z" />
    <glyph glyph-name="Euro" unicode="&#x20ac;" horiz-adv-x="664" 
d="M635 29q-79 -45 -174 -45q-117 0 -206.5 63t-125.5 168h-99v94h79q-1 11 -1 33t1 33h-79v94h99q36 105 125.5 168t206.5 63q87 0 159 -44l-61 -107q-41 27 -97 27q-60 0 -110.5 -28t-79.5 -79h202v-94h-232q-2 -22 -2 -33t2 -33h232v-94h-202q29 -51 79.5 -79t110.5 -28
q36 0 63.5 8.5t53.5 25.5z" />
    <glyph glyph-name="uni20AE" unicode="&#x20ae;" horiz-adv-x="562" 
d="M220 100l-113 -70h-7v109l120 75v56l-120 -75v114l120 75v184h-193v116h509v-116h-193v-113l112 71h7v-110l-119 -75v-55l119 75v-114l-119 -75v-172h-123v100z" />
    <glyph glyph-name="uni20B1" unicode="&#x20b1;" horiz-adv-x="670" 
d="M650 434h-61q-13 -83 -75.5 -129t-155.5 -46h-128v-259h-123v434h-76v76h76v174h251q92 0 155 -46t76 -128h61v-76zM230 510h234q-12 26 -37 42t-61 16h-136v-58zM427.5 391q25.5 16 36.5 43h-234v-59h136q36 0 61.5 16z" />
    <glyph glyph-name="uni20B8" unicode="&#x20b8;" horiz-adv-x="562" 
d="M27 684h509v-112h-509v112zM220 400h-193v112h509v-112h-193v-400h-123v400z" />
    <glyph glyph-name="uni20B9" unicode="&#x20b9;" horiz-adv-x="587" 
d="M450 608q35 -38 46 -96h64v-76h-64q-12 -73 -67 -120t-128 -54h-7l-1 -8l241 -246v-8h-173l-252 259v117h164q34 0 60.5 16t37.5 44h-344v76h344q-12 27 -37 43.5t-60 16.5h-247v112h533v-76h-110z" />
    <glyph glyph-name="uni20BA" unicode="&#x20ba;" horiz-adv-x="555" 
d="M528 261q0 -73 -35 -132.5t-96 -94t-138 -34.5h-116v165l-116 -73v113l116 73v76l-116 -73v114l116 73v216h123v-144l122 76v-114l-122 -76v-76l122 77v-114l-122 -76v-126q63 6 103.5 49.5t40.5 100.5h118z" />
    <glyph glyph-name="uni20BD" unicode="&#x20bd;" horiz-adv-x="621" 
d="M104 114h-76v76h76v69h-76v112h76v313h251q67 0 120.5 -25.5t83.5 -73.5t30 -113q0 -66 -30 -114t-83.5 -73.5t-120.5 -25.5h-128v-69h131v-76h-131v-114h-123v114zM363 375q48 0 76.5 27.5t28.5 69.5q0 41 -28.5 68.5t-76.5 27.5h-136v-193h136z" />
    <glyph glyph-name="uni2103" unicode="&#x2103;" horiz-adv-x="969" 
d="M97.5 459.5q-30.5 17.5 -48 47t-17.5 64.5t17.5 65t48 47t65.5 17t65 -17t47.5 -47t17.5 -65t-17.5 -64.5t-47.5 -47t-65 -17.5t-65.5 17.5zM477.5 31.5q-82.5 47.5 -130 129t-47.5 181.5t47.5 181.5t130 129t182.5 47.5q152 0 255 -113l-90 -88q-67 77 -165 77
q-64 0 -116.5 -29t-82.5 -82t-30 -123t30 -123t82.5 -82t116.5 -29q107 0 181 90l92 -88q-51 -62 -120 -94t-153 -32q-100 0 -182.5 47.5zM198.5 534.5q14.5 15.5 14.5 36.5q0 22 -14 37t-36 15t-36.5 -15t-14.5 -37q0 -21 14.5 -36.5t36.5 -15.5q21 0 35.5 15.5z" />
    <glyph glyph-name="uni2109" unicode="&#x2109;" horiz-adv-x="833" 
d="M97.5 459.5q-30.5 17.5 -48 47t-17.5 64.5t17.5 65t48 47t65.5 17t65 -17t47.5 -47t17.5 -65t-17.5 -64.5t-47.5 -47t-65 -17.5t-65.5 17.5zM366 684h435v-124h-305v-164h275v-124h-275v-272h-130v684zM198.5 534.5q14.5 15.5 14.5 36.5q0 22 -14 37t-36 15t-36.5 -15
t-14.5 -37q0 -21 14.5 -36.5t36.5 -15.5q21 0 35.5 15.5z" />
    <glyph glyph-name="uni2113" unicode="&#x2113;" horiz-adv-x="455" 
d="M152.5 38q-47.5 46 -47.5 128v102h-89v107h89v183q0 80 43.5 127t121.5 47q43 0 78 -23t55 -63.5t20 -91.5q0 -67 -25 -124.5t-69 -97.5t-100 -57v-94q0 -35 16 -53.5t43 -18.5q18 0 33 5t37 18v-127q-22 -7 -39.5 -10t-42.5 -3q-76 0 -123.5 46zM285.5 453.5
q18.5 43.5 18.5 100.5q0 35 -10.5 53t-27.5 18q-37 0 -37 -58v-177q38 20 56.5 63.5z" />
    <glyph glyph-name="uni2114" unicode="&#x2114;" horiz-adv-x="847" 
d="M701 472.5q54 -33.5 86 -93t32 -134.5t-32 -134.5t-86 -93t-117 -33.5q-53 0 -91.5 21t-58.5 54h-8v-59h-123v572h-84v-572h-131v572h-64v72h64v72h131v-72h84v72h131v-72h131v-72h-131v-71l-8 -70h8q20 33 58.5 54t91.5 21q63 0 117 -33.5zM622.5 122.5
q30.5 17.5 48.5 49t18 73.5t-18 73.5t-48.5 49t-65.5 17.5t-65 -17t-48 -49t-18 -74t18 -74t48 -49t65 -17t65.5 17.5z" />
    <glyph glyph-name="uni2116" unicode="&#x2116;" horiz-adv-x="1093" 
d="M801.5 413q-39.5 23 -62 62t-22.5 86t22.5 86t62 62t87.5 23t87.5 -23t62 -62t22.5 -86t-22.5 -86t-62 -62t-87.5 -23t-87.5 23zM72 716h157l288 -480h8l-8 138v342h134v-716h-142l-304 507h-8l8 -138v-369h-133v716zM945 500q23 24 23 61q0 38 -22.5 61.5t-56.5 23.5
q-33 0 -56 -24t-23 -61t23 -61t56 -24t56 24zM749 323h280v-85h-280v85z" />
    <glyph glyph-name="uni2117" unicode="&#x2117;" horiz-adv-x="532" 
d="M151 303q-53 31 -84 84t-31 115t31 115t84 84t115 31t115 -31t84 -84t31 -115t-31 -115t-84 -84t-115 -31t-115 31zM357.5 344.5q41.5 24.5 66 66.5t24.5 91q0 50 -24.5 91.5t-66 66t-91.5 24.5q-49 0 -91 -24.5t-66.5 -66t-24.5 -91.5q0 -49 25 -90.5t66.5 -66.5
t90.5 -25q50 0 91.5 24.5zM197 615h96q29 0 51 -21t22 -51t-22 -51t-51 -21h-50v-82h-46v226zM289 515q13 0 22 8t9 20q0 11 -8.5 19.5t-21.5 8.5h-47v-56h46z" />
    <glyph glyph-name="prescription" unicode="&#x211e;" horiz-adv-x="726" 
d="M259 -152l156 222l-138 199h-70v-269h-135v716h261q70 0 124.5 -28t84.5 -77.5t30 -112.5q0 -75 -43.5 -130t-113.5 -78l-1 -8l75 -107l80 115h137v-8l-145 -210l157 -224v-8h-144l-87 125l-86 -125h-142v8zM332 396q46 0 75.5 26.5t29.5 69.5q0 40 -27.5 68t-75.5 28
h-127v-192h125z" />
    <glyph glyph-name="uni2120" unicode="&#x2120;" horiz-adv-x="498" 
d="M50 502q-25 16 -34 44l41 18q5 -15 19 -25.5t28 -10.5t25 7t11 18q0 12 -12 20t-40 16q-29 7 -46.5 24t-17.5 42q0 29 23.5 47t56.5 18q25 0 47.5 -14.5t30.5 -37.5l-40 -16q-2 8 -13 17t-25 9q-15 0 -24.5 -6.5t-9.5 -16.5q0 -16 39 -28q35 -11 56 -27t21 -47
q0 -33 -26 -50t-56 -17q-29 0 -54 16zM222 716h62l63 -162h2l63 162h62v-226h-44v118l2 44h-2l-66 -162h-32l-66 162h-2l2 -44v-118h-44v226z" />
    <glyph glyph-name="trademark" unicode="&#x2122;" horiz-adv-x="501" 
d="M77 674h-69v42h181v-42h-66v-184h-46v184zM225 716h62l63 -162h2l63 162h62v-226h-44v118l2 44h-2l-66 -162h-32l-66 162h-2l2 -44v-118h-44v226z" />
    <glyph glyph-name="uni2126" unicode="&#x2126;" horiz-adv-x="815" 
d="M62 117h135v8q-65 39 -106 108.5t-41 164.5q0 90 46.5 167t128.5 122t183 45t182.5 -45t128 -122t46.5 -167q0 -95 -41 -164.5t-106 -108.5v-8h135v-117h-299v164q76 22 126 81.5t50 143.5q0 61 -30 110t-81 77t-111 28t-111 -28t-81 -77t-30 -110q0 -85 49.5 -144
t125.5 -81v-164h-299v117z" />
    <glyph glyph-name="estimated" unicode="&#x212e;" horiz-adv-x="784" 
d="M218.5 33q-82.5 49 -128.5 134.5t-46 190.5q0 100 44.5 185.5t124 137t179.5 51.5q104 0 182.5 -46.5t122 -131t43.5 -196.5q0 -14 -1 -22h-551v-185q37 -52 95.5 -77.5t123.5 -25.5q81 0 144 37t98 119l68 -28q-34 -82 -115.5 -137t-195.5 -55q-105 0 -187.5 49z
M596 396v194q-34 39 -87.5 58.5t-116.5 19.5q-61 0 -114 -23t-90 -68v-181h408z" />
    <glyph glyph-name="uni2153" unicode="&#x2153;" horiz-adv-x="844" 
d="M147 605l-49 -43l-50 66l107 88h81v-366h-89v255zM127 37l465 694l79 -53l-465 -694zM544.5 17.5q-38.5 25.5 -51.5 75.5l83 30q6 -28 21.5 -41t36.5 -13q20 0 34.5 12t14.5 32q0 19 -16 30.5t-41 11.5h-38v70h34q23 0 36.5 10t13.5 28q0 15 -11.5 24.5t-27.5 9.5
q-21 0 -34 -10.5t-18 -26.5l-78 31q13 38 47 60.5t85 22.5q54 0 89 -30t35 -73q0 -48 -43 -78q25 -13 40.5 -35t15.5 -49q0 -53 -40.5 -85t-97.5 -32q-51 0 -89.5 25.5z" />
    <glyph glyph-name="uni2154" unicode="&#x2154;" horiz-adv-x="892" 
d="M52 413l128 129q21 21 31 35t10 32q0 15 -11.5 25.5t-29.5 10.5q-20 0 -34 -12.5t-18 -37.5l-80 31q10 45 46.5 71.5t85.5 26.5q57 0 94 -30t37 -78q0 -51 -62 -113l-75 -74h139v-79h-261v63zM176 37l465 694l79 -53l-465 -694zM588.5 17.5q-38.5 25.5 -51.5 75.5l83 30
q6 -28 21.5 -41t36.5 -13q20 0 34.5 12t14.5 32q0 19 -16 30.5t-41 11.5h-38v70h34q23 0 36.5 10t13.5 28q0 15 -11.5 24.5t-27.5 9.5q-21 0 -34 -10.5t-18 -26.5l-78 31q13 38 47 60.5t85 22.5q54 0 89 -30t35 -73q0 -48 -43 -78q25 -13 40.5 -35t15.5 -49q0 -53 -40.5 -85
t-97.5 -32q-51 0 -89.5 25.5z" />
    <glyph glyph-name="oneeighth" unicode="&#x215b;" horiz-adv-x="822" 
d="M147 605l-49 -43l-50 66l107 88h81v-366h-89v255zM123 37l465 694l79 -53l-465 -694zM531 23q-41 31 -41 83q0 27 14 50t38 37q-18 12 -29 31.5t-11 40.5q0 49 36.5 79t89.5 30t89.5 -30t36.5 -79q0 -21 -11 -40.5t-29 -31.5q24 -14 38 -37t14 -50q0 -53 -41 -83.5
t-97 -30.5t-97 31zM656 235.5q12 10.5 12 26.5t-11.5 26.5t-28.5 10.5q-18 0 -29 -10t-11 -27t12 -27t28 -10t28 10.5zM663 80q15 13 15 32t-15.5 32t-34.5 13q-20 0 -35 -12.5t-15 -32.5t14.5 -32.5t35.5 -12.5q20 0 35 13z" />
    <glyph glyph-name="threeeighths" unicode="&#x215c;" horiz-adv-x="852" 
d="M99.5 367.5q-38.5 25.5 -51.5 75.5l83 30q6 -28 21.5 -41t36.5 -13q20 0 34.5 12t14.5 32q0 19 -16 30.5t-41 11.5h-38v70h34q23 0 36.5 10t13.5 28q0 15 -11.5 24.5t-27.5 9.5q-21 0 -34 -10.5t-18 -26.5l-78 31q13 38 47 60.5t85 22.5q54 0 89 -30t35 -73
q0 -48 -43 -78q25 -13 40.5 -35t15.5 -49q0 -53 -40.5 -85t-97.5 -32q-51 0 -89.5 25.5zM158 37l465 694l79 -53l-465 -694zM561 23q-41 31 -41 83q0 27 14 50t38 37q-18 12 -29 31.5t-11 40.5q0 49 36.5 79t89.5 30t89.5 -30t36.5 -79q0 -21 -11 -40.5t-29 -31.5
q24 -14 38 -37t14 -50q0 -53 -41 -83.5t-97 -30.5t-97 31zM686 235.5q12 10.5 12 26.5t-11.5 26.5t-28.5 10.5q-18 0 -29 -10t-11 -27t12 -27t28 -10t28 10.5zM693 80q15 13 15 32t-15.5 32t-34.5 13q-20 0 -35 -12.5t-15 -32.5t14.5 -32.5t35.5 -12.5q20 0 35 13z" />
    <glyph glyph-name="fiveeighths" unicode="&#x215d;" horiz-adv-x="851" 
d="M100 365.5q-38 22.5 -52 68.5l79 31q5 -21 20 -33t36 -12q22 0 36.5 15t14.5 37q0 23 -14.5 37.5t-35.5 14.5q-33 0 -52 -29l-73 32l23 189h219v-72h-152l-11 -66q26 17 62 17q51 0 86 -34t35 -91q0 -56 -40 -91.5t-97 -35.5q-46 0 -84 22.5zM155 37l465 694l79 -53
l-465 -694zM560 23q-41 31 -41 83q0 27 14 50t38 37q-18 12 -29 31.5t-11 40.5q0 49 36.5 79t89.5 30t89.5 -30t36.5 -79q0 -21 -11 -40.5t-29 -31.5q24 -14 38 -37t14 -50q0 -53 -41 -83.5t-97 -30.5t-97 31zM685 235.5q12 10.5 12 26.5t-11.5 26.5t-28.5 10.5
q-18 0 -29 -10t-11 -27t12 -27t28 -10t28 10.5zM692 80q15 13 15 32t-15.5 32t-34.5 13q-20 0 -35 -12.5t-15 -32.5t14.5 -32.5t35.5 -12.5q20 0 35 13z" />
    <glyph glyph-name="seveneighths" unicode="&#x215e;" horiz-adv-x="777" 
d="M60 375l145 260h-157v81h261v-77l-171 -304zM65 37l465 694l79 -53l-465 -694zM486 23q-41 31 -41 83q0 27 14 50t38 37q-18 12 -29 31.5t-11 40.5q0 49 36.5 79t89.5 30t89.5 -30t36.5 -79q0 -21 -11 -40.5t-29 -31.5q24 -14 38 -37t14 -50q0 -53 -41 -83.5t-97 -30.5
t-97 31zM611 235.5q12 10.5 12 26.5t-11.5 26.5t-28.5 10.5q-18 0 -29 -10t-11 -27t12 -27t28 -10t28 10.5zM618 80q15 13 15 32t-15.5 32t-34.5 13q-20 0 -35 -12.5t-15 -32.5t14.5 -32.5t35.5 -12.5q20 0 35 13z" />
    <glyph glyph-name="uni2160" unicode="&#x2160;" horiz-adv-x="487" 
d="M24 119h154v446h-154v119h439v-119h-154v-446h154v-119h-439v119z" />
    <glyph glyph-name="uni2161" unicode="&#x2161;" horiz-adv-x="747" 
d="M24 119h154v446h-154v119h699v-119h-154v-446h154v-119h-699v119zM438 119v446h-129v-446h129z" />
    <glyph glyph-name="uni2162" unicode="&#x2162;" horiz-adv-x="1007" 
d="M24 119h154v446h-154v119h959v-119h-154v-446h154v-119h-959v119zM438 119v446h-129v-446h129zM698 119v446h-129v-446h129z" />
    <glyph glyph-name="uni2163" unicode="&#x2163;" horiz-adv-x="1029" 
d="M24 119h154v446h-154v119h981v-119h-125l-143 -446h268v-119h-981v119zM535 119l-142 446h-84v-446h226zM640 190l19 85l85 290h-215l84 -290l19 -85h8z" />
    <glyph glyph-name="uni2164" unicode="&#x2164;" horiz-adv-x="785" 
d="M24 119h267l-142 446h-125v119h737v-119h-125l-143 -446h268v-119h-737v119zM396 190l19 85l85 290h-215l84 -290l19 -85h8z" />
    <glyph glyph-name="uni2165" unicode="&#x2165;" horiz-adv-x="1057" 
d="M24 119h267l-142 446h-125v119h981v-119h-154v-446h154v-119h-981v119zM396 190l19 85l85 290h-215l84 -290l19 -85h8zM720 119v446h-84l-143 -446h227z" />
    <glyph glyph-name="uni2166" unicode="&#x2166;" horiz-adv-x="1297" 
d="M24 119h267l-142 446h-125v119h1241v-119h-154v-446h154v-119h-1241v119zM396 190l19 85l85 290h-215l84 -290l19 -85h8zM720 119v446h-84l-143 -446h227zM980 119v446h-129v-446h129z" />
    <glyph glyph-name="uni2167" unicode="&#x2167;" horiz-adv-x="1549" 
d="M24 119h267l-142 446h-125v119h1501v-119h-154v-446h154v-119h-1501v119zM396 190l19 85l85 290h-215l84 -290l19 -85h8zM720 119v446h-84l-143 -446h227zM980 119v446h-129v-446h129zM1240 119v446h-129v-446h129z" />
    <glyph glyph-name="uni2168" unicode="&#x2168;" horiz-adv-x="975" 
d="M24 119h154v446h-154v119h927v-119h-119l-148 -226l146 -220h121v-119h-927v119zM389 119l146 220l-148 226h-78v-446h80zM613 440l19 41l54 84h-154l55 -84l19 -41h7zM682 119l-47 72l-22 45h-7l-22 -45l-47 -72h145z" />
    <glyph glyph-name="uni2169" unicode="&#x2169;" horiz-adv-x="730" 
d="M24 119h120l146 220l-148 226h-118v119h682v-119h-119l-148 -226l146 -220h121v-119h-682v119zM368 440l19 41l54 84h-154l55 -84l19 -41h7zM437 119l-47 72l-22 45h-7l-22 -45l-47 -72h145z" />
    <glyph glyph-name="uni216A" unicode="&#x216a;" horiz-adv-x="975" 
d="M24 119h121l146 220l-149 226h-118v119h927v-119h-154v-446h154v-119h-927v119zM368 440l19 41l54 84h-153l55 -84l18 -41h7zM666 119v446h-78l-149 -226l146 -220h81zM437 119l-47 72l-22 45h-7l-22 -45l-47 -72h145z" />
    <glyph glyph-name="uni216B" unicode="&#x216b;" horiz-adv-x="1235" 
d="M24 119h121l146 220l-149 226h-118v119h1187v-119h-154v-446h154v-119h-1187v119zM368 440l19 41l54 84h-153l55 -84l18 -41h7zM666 119v446h-78l-149 -226l146 -220h81zM926 119v446h-129v-446h129zM437 119l-47 72l-22 45h-7l-22 -45l-47 -72h145z" />
    <glyph glyph-name="uni216C" unicode="&#x216c;" horiz-adv-x="661" 
d="M24 119h130v446h-130v119h391v-119h-130v-446h217v132h131v-251h-609v119z" />
    <glyph glyph-name="uni216D" unicode="&#x216d;" horiz-adv-x="746" 
d="M221.5 31q-82.5 47 -130 129t-47.5 182t48 182t130 129t180 47q93 0 167 -57h8v41h115v-201h-114q-26 46 -72 71.5t-103 25.5q-61 0 -114 -29t-85.5 -83t-32.5 -126t32.5 -126t86 -83t114.5 -29q68 0 118.5 29t89.5 91l106 -68q-61 -91 -138.5 -131.5t-175.5 -40.5
q-100 0 -182.5 47z" />
    <glyph glyph-name="uni216E" unicode="&#x216e;" horiz-adv-x="757" 
d="M24 119h123v446h-123v119h326q111 0 193 -42.5t126 -120t44 -179.5q0 -103 -44 -180t-126 -119.5t-193 -42.5h-326v119zM356 119q113 0 173 61.5t60 161.5t-60 161.5t-173 61.5h-87v-446h87z" />
    <glyph glyph-name="uni216F" unicode="&#x216f;" horiz-adv-x="1009" 
d="M24 119h126v446h-126v119h290l186 -480h8l187 480h290v-119h-126v-446h126v-119h-335v119h86v237l8 115h-8l-183 -471h-97l-183 471h-8l8 -115v-237h86v-119h-335v119z" />
    <glyph glyph-name="uni2180" unicode="&#x2180;" horiz-adv-x="1133" 
d="M213.5 42.5q-81.5 42.5 -125.5 119.5t-44 180q0 102 44 179.5t125.5 120t192.5 42.5h285q111 0 192.5 -42.5t125.5 -120t44 -179.5q0 -103 -44 -180t-125.5 -119.5t-192.5 -42.5h-285q-111 0 -192.5 42.5zM487 119v446h-86q-113 0 -173.5 -61.5t-60.5 -161.5t60.5 -161.5
t173.5 -61.5h86zM696 119q113 0 173.5 61.5t60.5 161.5t-60.5 161.5t-173.5 61.5h-86v-446h86z" />
    <glyph glyph-name="uni2181" unicode="&#x2181;" horiz-adv-x="757" 
d="M24 119h123v446h-123v119h326q111 0 193 -42.5t126 -120t44 -179.5q0 -103 -44 -180t-126 -119.5t-193 -42.5h-326v119zM356 119q113 0 173 61.5t60 161.5t-60 161.5t-173 61.5h-87v-50h27q52 0 94 -22t65.5 -61.5t23.5 -89.5t-23.5 -89.5t-65.5 -61.5t-94 -22h-27v-50
h87zM302 259q32 0 54.5 23t22.5 60t-22.5 60t-54.5 23h-33v-166h33z" />
    <glyph glyph-name="uni2182" unicode="&#x2182;" horiz-adv-x="1097" 
d="M213.5 42.5q-81.5 42.5 -125.5 119.5t-44 180q0 102 44 179.5t125.5 120t192.5 42.5h285q111 0 192.5 -42.5t125.5 -120t44 -179.5q0 -103 -44 -180t-125.5 -119.5t-192.5 -42.5h-285q-111 0 -192.5 42.5zM487 119v50h-26q-52 0 -94 22t-66 61.5t-24 89.5t24 89.5
t66 61.5t94 22h26v50h-86q-113 0 -173.5 -61.5t-60.5 -161.5t60.5 -161.5t173.5 -61.5h86zM696 119q113 0 173.5 61.5t60.5 161.5t-60.5 161.5t-173.5 61.5h-86v-50h27q52 0 93.5 -22t65.5 -61.5t24 -89.5t-24 -89.5t-65.5 -61.5t-93.5 -22h-27v-50h86zM487 259v166h-32
q-33 0 -55 -23t-22 -60t22 -60t55 -23h32zM643 259q32 0 54.5 23t22.5 60t-22.5 60t-54.5 23h-33v-166h33z" />
    <glyph glyph-name="arrowleft" unicode="&#x2190;" horiz-adv-x="1123" 
d="M48 310l239 239v-177h780v-124h-780v-177z" />
    <glyph glyph-name="arrowup" unicode="&#x2191;" horiz-adv-x="559" 
d="M217 595h-177l239 240l240 -240h-178v-740h-124v740z" />
    <glyph glyph-name="arrowright" unicode="&#x2192;" horiz-adv-x="1123" 
d="M835 248h-779v124h779v177l240 -239l-240 -239v177z" />
    <glyph glyph-name="arrowdown" unicode="&#x2193;" horiz-adv-x="559" 
d="M40 71h177v741h124v-741h178l-240 -239z" />
    <glyph glyph-name="uni2196" unicode="&#x2196;" horiz-adv-x="792" 
d="M166 516l-126 -125v338h339l-126 -125l539 -537l-88 -88z" />
    <glyph glyph-name="uni2197" unicode="&#x2197;" horiz-adv-x="792" 
d="M0 67l539 537l-126 125h339v-338l-126 125l-538 -537z" />
    <glyph glyph-name="uni2198" unicode="&#x2198;" horiz-adv-x="792" 
d="M40 325l126 -125l538 537l88 -88l-539 -537l126 -125h-339v338z" />
    <glyph glyph-name="uni2199" unicode="&#x2199;" horiz-adv-x="792" 
d="M539 112l-539 537l88 88l538 -537l126 125v-338h-339z" />
    <glyph glyph-name="uni21C4" unicode="&#x21c4;" horiz-adv-x="1142" 
d="M854 479h-779v124h779v177l240 -239l-240 -239v177zM48 185l239 239v-177h780v-124h-780v-177z" />
    <glyph glyph-name="partialdiff" unicode="&#x2202;" horiz-adv-x="578" 
d="M162 16q-56 32 -89 88t-33 126t32.5 126t86 87t112.5 31q62 0 102 -34l7 6q-34 66 -107.5 111.5t-158.5 66.5l42 100q188 -43 285 -166.5t97 -300.5q0 -82 -32.5 -144t-90 -95.5t-130.5 -33.5q-67 0 -123 32zM372.5 137q35.5 36 35.5 93q0 56 -35 92t-85 36
q-51 0 -86.5 -36t-35.5 -92q0 -57 35.5 -93t85.5 -36t85.5 36z" />
    <glyph glyph-name="uni2206" unicode="&#x2206;" horiz-adv-x="714" 
d="M279 716h155l265 -716h-684zM508 124l-147 425h-8l-147 -425h302z" />
    <glyph glyph-name="product" unicode="&#x220f;" horiz-adv-x="714" 
d="M82 716h550v-716h-135v588h-280v-588h-135v716z" />
    <glyph glyph-name="summation" unicode="&#x2211;" horiz-adv-x="540" 
d="M50 133l190 233l-190 217v133h458v-125h-296l188 -225l-188 -241h296v-125h-458v133z" />
    <glyph glyph-name="minus" unicode="&#x2212;" horiz-adv-x="583" 
d="M63 329h457v-116h-457v116z" />
    <glyph glyph-name="uni2215" unicode="&#x2215;" horiz-adv-x="480" 
d="M328 716h129l-297 -716h-129z" />
    <glyph glyph-name="radical" unicode="&#x221a;" horiz-adv-x="732" 
d="M12 490h149l79 -251l17 -85h8l19 85l194 577h242v-111h-134l-260 -753h-130z" />
    <glyph glyph-name="infinity" unicode="&#x221e;" horiz-adv-x="750" 
d="M110 123q-40 22 -63 61t-23 86t23 86t63 61t87 22q56 0 95 -25t83 -75q43 50 82 75t96 25q47 0 87 -22t63 -61t23 -86t-23 -86t-63 -61t-87 -22q-57 0 -97 25t-82 75q-44 -51 -82.5 -75.5t-94.5 -24.5q-47 0 -87 22zM248.5 207.5q22.5 15.5 66.5 62.5q-45 47 -67 62.5
t-51 15.5q-31 0 -52.5 -21.5t-21.5 -56.5t21.5 -56.5t52.5 -21.5q29 0 51.5 15.5zM605.5 213.5q21.5 21.5 21.5 56.5t-21.5 56.5t-52.5 21.5q-29 0 -52 -16t-67 -62q43 -46 66.5 -62t52.5 -16q31 0 52.5 21.5z" />
    <glyph glyph-name="integral" unicode="&#x222b;" horiz-adv-x="357" 
d="M32 -99h11q32 0 51 19.5t19 53.5v624q0 91 48.5 142.5t131.5 51.5h32v-127h-11q-32 0 -51 -19.5t-19 -53.5v-624q0 -91 -48.5 -142.5t-131.5 -51.5h-32v127z" />
    <glyph glyph-name="approxequal" unicode="&#x2248;" horiz-adv-x="597" 
d="M351.5 345q-29.5 9 -66.5 26q-6 2 -24 10q-19 7 -32.5 10.5t-23.5 3.5q-22 0 -33.5 -12t-13.5 -31h-104q0 70 35.5 112t97.5 42q31 0 59 -9t69 -26q28 -12 45.5 -18t32.5 -6q22 0 33.5 12t13.5 31h104q0 -70 -36 -112t-98 -42q-29 0 -58.5 9zM351.5 141q-29.5 9 -66.5 26
q-6 2 -24 10q-19 7 -32.5 10.5t-23.5 3.5q-22 0 -33.5 -12t-13.5 -31h-104q0 70 35.5 112t97.5 42q31 0 59 -9t69 -26q28 -12 45.5 -18t32.5 -6q22 0 33.5 12t13.5 31h104q0 -70 -36 -112t-98 -42q-29 0 -58.5 9z" />
    <glyph glyph-name="notequal" unicode="&#x2260;" horiz-adv-x="581" 
d="M378 361l-52 -84h199v-116h-272l-73 -118l-90 54l40 64h-74v116h146l53 84h-199v116h271l74 119l89 -55l-40 -64h75v-116h-147z" />
    <glyph glyph-name="lessequal" unicode="&#x2264;" horiz-adv-x="531" 
d="M56 349v104l415 191v-130l-258 -109v-8l258 -110v-129zM56 116h415v-116h-415v116z" />
    <glyph glyph-name="greaterequal" unicode="&#x2265;" horiz-adv-x="531" 
d="M60 287l258 110v8l-258 109v130l415 -191v-104l-415 -191v129zM60 116h415v-116h-415v116z" />
    <glyph glyph-name="filledbox" unicode="&#x25a0;" horiz-adv-x="860" 
d="M72 716h716v-716h-716v716z" />
    <glyph glyph-name="uni25A1" unicode="&#x25a1;" horiz-adv-x="860" 
d="M72 716h716v-716h-716v716zM673 115v486h-486v-486h486z" />
    <glyph glyph-name="triagup" unicode="&#x25b2;" horiz-adv-x="870" 
d="M435 748l431 -748h-862z" />
    <glyph glyph-name="uni25B3" unicode="&#x25b3;" horiz-adv-x="870" 
d="M435 748l431 -748h-862zM665 115l-230 403l-230 -403h460z" />
    <glyph glyph-name="lozenge" unicode="&#x25ca;" horiz-adv-x="553" 
d="M24 358l199 358h108l198 -358l-198 -358h-108zM281 131l119 227l-119 227h-8l-120 -227l120 -227h8z" />
    <glyph glyph-name="circle" unicode="&#x25cb;" horiz-adv-x="836" 
d="M231 34.5q-86 50.5 -136.5 136.5t-50.5 187t50.5 187t136.5 136.5t187 50.5t187 -50.5t136.5 -136.5t50.5 -187t-50.5 -187t-136.5 -136.5t-187 -50.5t-187 50.5zM547.5 134q59.5 35 94.5 94.5t35 129.5t-35 129.5t-94.5 94.5t-129.5 35t-129.5 -35t-94.5 -94.5
t-35 -129.5t35 -129.5t94.5 -94.5t129.5 -35t129.5 35z" />
    <glyph glyph-name="uni25CF" unicode="&#x25cf;" horiz-adv-x="836" 
d="M231 34.5q-86 50.5 -136.5 136.5t-50.5 187t50.5 187t136.5 136.5t187 50.5t187 -50.5t136.5 -136.5t50.5 -187t-50.5 -187t-136.5 -136.5t-187 -50.5t-187 50.5z" />
    <glyph glyph-name="uni2713" unicode="&#x2713;" horiz-adv-x="934" 
d="M8 300l85 85l209 -223l543 587l81 -79l-627 -678z" />
    <glyph glyph-name="uni2715" unicode="&#x2715;" horiz-adv-x="752" 
d="M8 56l295 301l-295 302l74 76l294 -304l294 304l74 -76l-295 -302l295 -301l-75 -76l-293 303l-294 -303z" />
    <glyph glyph-name="uni275B" unicode="&#x275b;" horiz-adv-x="351" 
d="M89 413q-33 47 -49 82.5t-16 77.5t20.5 78.5t55.5 58.5t76 22q42 0 76.5 -19.5t54.5 -54t20 -77.5q0 -42 -22.5 -74t-54 -49.5t-57.5 -19.5l-5 -5l109 -155l-76 -52z" />
    <glyph glyph-name="uni275C" unicode="&#x275c;" horiz-adv-x="351" 
d="M54 278l109 155l-5 5q-26 2 -57.5 19.5t-54 49.5t-22.5 74q0 43 20 77.5t54.5 54t76.5 19.5q41 0 76 -22t55.5 -58.5t20.5 -78.5t-16 -77.5t-49 -82.5l-132 -187z" />
    <glyph glyph-name="uni275D" unicode="&#x275d;" horiz-adv-x="710" 
d="M89 413q-33 47 -49 82.5t-16 77.5t20.5 78.5t55.5 58.5t76 22q42 0 76.5 -19.5t54.5 -54t20 -77.5q0 -42 -22.5 -74t-54 -49.5t-57.5 -19.5l-5 -5l109 -155l-76 -52zM440 413q-33 47 -49 82.5t-16 77.5t20.5 78.5t55.5 58.5t76 22q42 0 76.5 -19.5t54.5 -54t20 -77.5
q0 -42 -22.5 -74t-54 -49.5t-57.5 -19.5l-5 -5l109 -155l-76 -52z" />
    <glyph glyph-name="uni275E" unicode="&#x275e;" horiz-adv-x="710" 
d="M54 278l109 155l-5 5q-26 2 -57.5 19.5t-54 49.5t-22.5 74q0 43 20 77.5t54.5 54t76.5 19.5q41 0 76 -22t55.5 -58.5t20.5 -78.5t-16 -77.5t-49 -82.5l-132 -187zM405 278l109 155l-5 5q-26 2 -57.5 19.5t-54 49.5t-22.5 74q0 43 20 77.5t54.5 54t76.5 19.5q41 0 76 -22
t55.5 -58.5t20.5 -78.5t-16 -77.5t-49 -82.5l-132 -187z" />
    <glyph glyph-name="uni2780" unicode="&#x2780;" horiz-adv-x="853" 
d="M239 34.5q-86 50.5 -136.5 136.5t-50.5 187t50.5 187t136.5 136.5t187 50.5t187 -50.5t136.5 -136.5t50.5 -187t-50.5 -187t-136.5 -136.5t-187 -50.5t-187 50.5zM571 108q66 39 105 105.5t39 144.5t-39 144.5t-105 105.5t-145 39q-78 0 -144 -39t-105 -105.5t-39 -144.5
t39 -144.5t105 -105.5t144 -39q79 0 145 39zM394 432l-49 -43l-50 66l107 88h81v-366h-89v255z" />
    <glyph glyph-name="uni2781" unicode="&#x2781;" horiz-adv-x="853" 
d="M239 34.5q-86 50.5 -136.5 136.5t-50.5 187t50.5 187t136.5 136.5t187 50.5t187 -50.5t136.5 -136.5t50.5 -187t-50.5 -187t-136.5 -136.5t-187 -50.5t-187 50.5zM571 108q66 39 105 105.5t39 144.5t-39 144.5t-105 105.5t-145 39q-78 0 -144 -39t-105 -105.5t-39 -144.5
t39 -144.5t105 -105.5t144 -39q79 0 145 39zM295 240l128 129q21 21 31 35t10 32q0 15 -11.5 25.5t-29.5 10.5q-20 0 -34 -12.5t-18 -37.5l-80 31q10 45 46.5 71.5t85.5 26.5q57 0 94 -30t37 -78q0 -51 -62 -113l-75 -74h139v-79h-261v63z" />
    <glyph glyph-name="uni2782" unicode="&#x2782;" horiz-adv-x="853" 
d="M239 34.5q-86 50.5 -136.5 136.5t-50.5 187t50.5 187t136.5 136.5t187 50.5t187 -50.5t136.5 -136.5t50.5 -187t-50.5 -187t-136.5 -136.5t-187 -50.5t-187 50.5zM571 108q66 39 105 105.5t39 144.5t-39 144.5t-105 105.5t-145 39q-78 0 -144 -39t-105 -105.5t-39 -144.5
t39 -144.5t105 -105.5t144 -39q79 0 145 39zM335.5 194.5q-38.5 25.5 -51.5 75.5l83 30q6 -28 21.5 -41t36.5 -13q20 0 34.5 12t14.5 32q0 19 -16 30.5t-41 11.5h-38v70h34q23 0 36.5 10t13.5 28q0 15 -11.5 24.5t-27.5 9.5q-21 0 -34 -10.5t-18 -26.5l-78 31q13 38 47 60.5
t85 22.5q54 0 89 -30t35 -73q0 -48 -43 -78q25 -13 40.5 -35t15.5 -49q0 -53 -40.5 -85t-97.5 -32q-51 0 -89.5 25.5z" />
    <glyph glyph-name="uni2783" unicode="&#x2783;" horiz-adv-x="853" 
d="M239 34.5q-86 50.5 -136.5 136.5t-50.5 187t50.5 187t136.5 136.5t187 50.5t187 -50.5t136.5 -136.5t50.5 -187t-50.5 -187t-136.5 -136.5t-187 -50.5t-187 50.5zM571 108q66 39 105 105.5t39 144.5t-39 144.5t-105 105.5t-145 39q-78 0 -144 -39t-105 -105.5t-39 -144.5
t39 -144.5t105 -105.5t144 -39q79 0 145 39zM428 242h-172v64l171 237h87v-227h48v-74h-48v-65h-86v65zM428 316v107h-8l-76 -107h84z" />
    <glyph glyph-name="uni2784" unicode="&#x2784;" horiz-adv-x="853" 
d="M239 34.5q-86 50.5 -136.5 136.5t-50.5 187t50.5 187t136.5 136.5t187 50.5t187 -50.5t136.5 -136.5t50.5 -187t-50.5 -187t-136.5 -136.5t-187 -50.5t-187 50.5zM571 108q66 39 105 105.5t39 144.5t-39 144.5t-105 105.5t-145 39q-78 0 -144 -39t-105 -105.5t-39 -144.5
t39 -144.5t105 -105.5t144 -39q79 0 145 39zM341 191.5q-38 22.5 -52 68.5l79 31q5 -21 20 -33t36 -12q22 0 36.5 15t14.5 37q0 23 -14.5 37.5t-35.5 14.5q-33 0 -52 -29l-73 32l23 189h219v-72h-152l-11 -66q25 17 62 17q51 0 86 -34t35 -91q0 -56 -40 -91.5t-97 -35.5
q-46 0 -84 22.5z" />
    <glyph glyph-name="uni2785" unicode="&#x2785;" horiz-adv-x="853" 
d="M239 34.5q-86 50.5 -136.5 136.5t-50.5 187t50.5 187t136.5 136.5t187 50.5t187 -50.5t136.5 -136.5t50.5 -187t-50.5 -187t-136.5 -136.5t-187 -50.5t-187 50.5zM571 108q66 39 105 105.5t39 144.5t-39 144.5t-105 105.5t-145 39q-78 0 -144 -39t-105 -105.5t-39 -144.5
t39 -144.5t105 -105.5t144 -39q79 0 145 39zM351.5 186.5q-31.5 17.5 -49 47.5t-17.5 64q0 29 11.5 55.5t31.5 55.5q17 25 56 79q39 53 52 71l67 -49l-76 -96q7 4 19 4q28 0 54.5 -16t42.5 -44t16 -62t-18 -63t-49.5 -46.5t-69.5 -17.5q-39 0 -70.5 17.5zM457 260
q14 15 14 36t-14 36t-36 15q-21 0 -35 -15t-14 -36t14 -36t35 -15q22 0 36 15z" />
    <glyph glyph-name="uni2786" unicode="&#x2786;" horiz-adv-x="853" 
d="M239 34.5q-86 50.5 -136.5 136.5t-50.5 187t50.5 187t136.5 136.5t187 50.5t187 -50.5t136.5 -136.5t50.5 -187t-50.5 -187t-136.5 -136.5t-187 -50.5t-187 50.5zM571 108q66 39 105 105.5t39 144.5t-39 144.5t-105 105.5t-145 39q-78 0 -144 -39t-105 -105.5t-39 -144.5
t39 -144.5t105 -105.5t144 -39q79 0 145 39zM315 202l152 260h-164v81h261v-77l-171 -304z" />
    <glyph glyph-name="uni2787" unicode="&#x2787;" horiz-adv-x="853" 
d="M239 34.5q-86 50.5 -136.5 136.5t-50.5 187t50.5 187t136.5 136.5t187 50.5t187 -50.5t136.5 -136.5t50.5 -187t-50.5 -187t-136.5 -136.5t-187 -50.5t-187 50.5zM571 108q66 39 105 105.5t39 144.5t-39 144.5t-105 105.5t-145 39q-78 0 -144 -39t-105 -105.5t-39 -144.5
t39 -144.5t105 -105.5t144 -39q79 0 145 39zM329 200q-41 31 -41 83q0 27 14 50t38 37q-18 12 -29 31.5t-11 40.5q0 49 36.5 79t89.5 30t89.5 -30t36.5 -79q0 -21 -11 -40.5t-29 -31.5q24 -14 38 -37t14 -50q0 -53 -41 -83.5t-97 -30.5t-97 31zM454 412.5q12 10.5 12 26.5
t-11.5 26.5t-28.5 10.5q-18 0 -29 -10t-11 -27t12 -27t28 -10t28 10.5zM461 257q15 13 15 32t-15.5 32t-34.5 13q-20 0 -35 -12.5t-15 -32.5t14.5 -32.5t35.5 -12.5q20 0 35 13z" />
    <glyph glyph-name="uni2788" unicode="&#x2788;" horiz-adv-x="853" 
d="M239 34.5q-86 50.5 -136.5 136.5t-50.5 187t50.5 187t136.5 136.5t187 50.5t187 -50.5t136.5 -136.5t50.5 -187t-50.5 -187t-136.5 -136.5t-187 -50.5t-187 50.5zM571 108q66 39 105 105.5t39 144.5t-39 144.5t-105 105.5t-145 39q-78 0 -144 -39t-105 -105.5t-39 -144.5
t39 -144.5t105 -105.5t144 -39q79 0 145 39zM342 210l76 95q-7 -3 -19 -3q-28 0 -54.5 16t-42.5 44t-16 62t18.5 63t50 46.5t68.5 17.5q39 0 70.5 -17.5t49 -47.5t17.5 -64q0 -29 -11.5 -55.5t-31.5 -55.5q-17 -25 -56 -78l-52 -72zM459.5 388q14.5 15 14.5 36t-14 36
t-36 15t-36 -15t-14 -36t14 -36t36 -15q21 0 35.5 15z" />
    <glyph glyph-name="uni278A" unicode="&#x278a;" horiz-adv-x="853" 
d="M239 34.5q-86 50.5 -136.5 136.5t-50.5 187t50.5 187t136.5 136.5t187 50.5t187 -50.5t136.5 -136.5t50.5 -187t-50.5 -187t-136.5 -136.5t-187 -50.5t-187 50.5zM483 177v366h-81l-107 -88l50 -66l49 43v-255h89z" />
    <glyph glyph-name="uni278B" unicode="&#x278b;" horiz-adv-x="853" 
d="M239 34.5q-86 50.5 -136.5 136.5t-50.5 187t50.5 187t136.5 136.5t187 50.5t187 -50.5t136.5 -136.5t50.5 -187t-50.5 -187t-136.5 -136.5t-187 -50.5t-187 50.5zM556 177v79h-139l32 32q23 22 42 42q26 26 44.5 54t18.5 59q0 48 -37.5 78t-94.5 30q-48 0 -84.5 -26.5
t-46.5 -71.5l80 -31q4 25 18 37.5t34 12.5q17 0 28.5 -10.5t11.5 -25.5q0 -18 -9.5 -32t-30.5 -35l-128 -129v-63h261z" />
    </font>
</defs>
</svg>
